  0
SECTION
  2
HEADER
  9
$ACADVER
  1
AC1015
  9
$ACADMAINTVER
 70
    20
  9
$DWGCODEPAGE
  3
ANSI_1252
  9
$INSBASE
 10
0.0
 20
0.0
 30
0.0
  9
$EXTMIN
 10
92.49344127310132
 20
109.156038948749
 30
-0.0015258207003583
  9
$EXTMAX
 10
695.6314107235884
 20
484.3048113564782
 30
0.0000000349246037
  9
$LIMMIN
 10
0.0
 20
0.0
  9
$LIMMAX
 10
1050.0
 20
1050.0
  9
$ORTHOMODE
 70
     0
  9
$REGENMODE
 70
     1
  9
$FILLMODE
 70
     1
  9
$QTEXTMODE
 70
     0
  9
$MIRRTEXT
 70
     0
  9
$LTSCALE
 40
5.0
  9
$ATTMODE
 70
     1
  9
$TEXTSIZE
 40
17.5
  9
$TRACEWID
 40
0.05
  9
$TEXTSTYLE
  7
STANDARD
  9
$CLAYER
  8
0
  9
$CELTYPE
  6
BYLAYER
  9
$CECOLOR
 62
   256
  9
$CELTSCALE
 40
1.0
  9
$DISPSILH
 70
     0
  9
$DIMSCALE
 40
5.0
  9
$DIMASZ
 40
2.5
  9
$DIMEXO
 40
1.0
  9
$DIMDLI
 40
7.0
  9
$DIMRND
 40
0.0
  9
$DIMDLE
 40
0.0
  9
$DIMEXE
 40
1.0
  9
$DIMTP
 40
0.1
  9
$DIMTM
 40
0.1
  9
$DIMTXT
 40
3.5
  9
$DIMCEN
 40
0.0
  9
$DIMTSZ
 40
0.0
  9
$DIMTOL
 70
     0
  9
$DIMLIM
 70
     0
  9
$DIMTIH
 70
     0
  9
$DIMTOH
 70
     0
  9
$DIMSE1
 70
     0
  9
$DIMSE2
 70
     0
  9
$DIMTAD
 70
     1
  9
$DIMZIN
 70
    12
  9
$DIMBLK
  1

  9
$DIMASO
 70
     1
  9
$DIMSHO
 70
     1
  9
$DIMPOST
  1

  9
$DIMAPOST
  1
"
  9
$DIMALT
 70
     0
  9
$DIMALTD
 70
     2
  9
$DIMALTF
 40
0.03937
  9
$DIMLFAC
 40
1.0
  9
$DIMTOFL
 70
     1
  9
$DIMTVP
 40
0.0
  9
$DIMTIX
 70
     0
  9
$DIMSOXD
 70
     0
  9
$DIMSAH
 70
     0
  9
$DIMBLK1
  1

  9
$DIMBLK2
  1

  9
$DIMSTYLE
  2
GEN-ISO
  9
$DIMCLRD
 70
   256
  9
$DIMCLRE
 70
   256
  9
$DIMCLRT
 70
     2
  9
$DIMTFAC
 40
0.71
  9
$DIMGAP
 40
0.6
  9
$DIMJUST
 70
     0
  9
$DIMSD1
 70
     0
  9
$DIMSD2
 70
     0
  9
$DIMTOLJ
 70
     0
  9
$DIMTZIN
 70
     0
  9
$DIMALTZ
 70
     0
  9
$DIMALTTZ
 70
     0
  9
$DIMUPT
 70
     0
  9
$DIMDEC
 70
     2
  9
$DIMTDEC
 70
     3
  9
$DIMALTU
 70
     2
  9
$DIMALTTD
 70
     4
  9
$DIMTXSTY
  7
STANDARD
  9
$DIMAUNIT
 70
     0
  9
$DIMADEC
 70
     0
  9
$DIMALTRND
 40
0.0
  9
$DIMAZIN
 70
     0
  9
$DIMDSEP
 70
    46
  9
$DIMATFIT
 70
     3
  9
$DIMFRAC
 70
     0
  9
$DIMLDRBLK
  1

  9
$DIMLUNIT
 70
     2
  9
$DIMLWD
 70
    -2
  9
$DIMLWE
 70
    -2
  9
$DIMTMOVE
 70
     0
  9
$LUNITS
 70
     2
  9
$LUPREC
 70
     2
  9
$SKETCHINC
 40
0.1
  9
$FILLETRAD
 40
12.5
  9
$AUNITS
 70
     0
  9
$AUPREC
 70
     2
  9
$MENU
  1
.
  9
$ELEVATION
 40
0.0
  9
$PELEVATION
 40
0.0
  9
$THICKNESS
 40
0.0
  9
$LIMCHECK
 70
     0
  9
$CHAMFERA
 40
12.5
  9
$CHAMFERB
 40
12.5
  9
$CHAMFERC
 40
0.0
  9
$CHAMFERD
 40
0.0
  9
$SKPOLY
 70
     0
  9
$TDCREATE
 40
2451226.632354746
  9
$TDUCREATE
 40
2451226.590688079
  9
$TDUPDATE
 40
2454038.553974387
  9
$TDUUPDATE
 40
2454038.512307720
  9
$TDINDWG
 40
0.0049841435
  9
$TDUSRTIMER
 40
0.0049840278
  9
$USRTIMER
 70
     1
  9
$ANGBASE
 50
0.0
  9
$ANGDIR
 70
     0
  9
$PDMODE
 70
     0
  9
$PDSIZE
 40
0.0
  9
$PLINEWID
 40
0.0
  9
$SPLFRAME
 70
     0
  9
$SPLINETYPE
 70
     6
  9
$SPLINESEGS
 70
     8
  9
$HANDSEED
  5
185D
  9
$SURFTAB1
 70
     6
  9
$SURFTAB2
 70
     6
  9
$SURFTYPE
 70
     6
  9
$SURFU
 70
     6
  9
$SURFV
 70
     6
  9
$UCSBASE
  2

  9
$UCSNAME
  2

  9
$UCSORG
 10
0.0
 20
0.0
 30
0.0
  9
$UCSXDIR
 10
1.0
 20
0.0
 30
0.0
  9
$UCSYDIR
 10
0.0
 20
1.0
 30
0.0
  9
$UCSORTHOREF
  2

  9
$UCSORTHOVIEW
 70
     0
  9
$UCSORGTOP
 10
0.0
 20
0.0
 30
0.0
  9
$UCSORGBOTTOM
 10
0.0
 20
0.0
 30
0.0
  9
$UCSORGLEFT
 10
0.0
 20
0.0
 30
0.0
  9
$UCSORGRIGHT
 10
0.0
 20
0.0
 30
0.0
  9
$UCSORGFRONT
 10
0.0
 20
0.0
 30
0.0
  9
$UCSORGBACK
 10
0.0
 20
0.0
 30
0.0
  9
$PUCSBASE
  2

  9
$PUCSNAME
  2

  9
$PUCSORG
 10
0.0
 20
0.0
 30
0.0
  9
$PUCSXDIR
 10
1.0
 20
0.0
 30
0.0
  9
$PUCSYDIR
 10
0.0
 20
1.0
 30
0.0
  9
$PUCSORTHOREF
  2

  9
$PUCSORTHOVIEW
 70
     0
  9
$PUCSORGTOP
 10
0.0
 20
0.0
 30
0.0
  9
$PUCSORGBOTTOM
 10
0.0
 20
0.0
 30
0.0
  9
$PUCSORGLEFT
 10
0.0
 20
0.0
 30
0.0
  9
$PUCSORGRIGHT
 10
0.0
 20
0.0
 30
0.0
  9
$PUCSORGFRONT
 10
0.0
 20
0.0
 30
0.0
  9
$PUCSORGBACK
 10
0.0
 20
0.0
 30
0.0
  9
$USERI1
 70
     0
  9
$USERI2
 70
     0
  9
$USERI3
 70
     0
  9
$USERI4
 70
     0
  9
$USERI5
 70
     0
  9
$USERR1
 40
0.0
  9
$USERR2
 40
0.0
  9
$USERR3
 40
0.0
  9
$USERR4
 40
0.0
  9
$USERR5
 40
0.0
  9
$WORLDVIEW
 70
     1
  9
$SHADEDGE
 70
     3
  9
$SHADEDIF
 70
    70
  9
$TILEMODE
 70
     1
  9
$MAXACTVP
 70
    48
  9
$PINSBASE
 10
0.0
 20
0.0
 30
0.0
  9
$PLIMCHECK
 70
     0
  9
$PEXTMIN
 10
0.0
 20
0.0
 30
0.0
  9
$PEXTMAX
 10
210.001
 20
297.001
 30
0.0
  9
$PLIMMIN
 10
0.0
 20
0.0
  9
$PLIMMAX
 10
210.001
 20
297.001
  9
$UNITMODE
 70
     0
  9
$VISRETAIN
 70
     1
  9
$PLINEGEN
 70
     1
  9
$PSLTSCALE
 70
     1
  9
$TREEDEPTH
 70
 -3020
  9
$CMLSTYLE
  2
STANDARD
  9
$CMLJUST
 70
     0
  9
$CMLSCALE
 40
1.0
  9
$PROXYGRAPHICS
 70
     1
  9
$MEASUREMENT
 70
     1
  9
$CELWEIGHT
370
    -1
  9
$ENDCAPS
280
     0
  9
$JOINSTYLE
280
     0
  9
$LWDISPLAY
290
     0
  9
$INSUNITS
 70
     0
  9
$HYPERLINKBASE
  1

  9
$STYLESHEET
  1

  9
$XEDIT
290
     1
  9
$CEPSNTYPE
380
     0
  9
$PSTYLEMODE
290
     1
  9
$FINGERPRINTGUID
  2
{7BB6D35D-886A-4F20-B16F-7BD344F65C9A}
  9
$VERSIONGUID
  2
{7B05E55F-FCB0-4264-8AAD-59F3FC0240C3}
  9
$EXTNAMES
290
     1
  9
$PSVPSCALE
 40
0.0
  9
$OLESTARTUP
290
     0
  0
ENDSEC
  0
SECTION
  2
CLASSES
  0
CLASS
  1
ACDBDICTIONARYWDFLT
  2
AcDbDictionaryWithDefault
  3
ObjectDBX Classes
 90
        0
280
     0
281
     0
  0
CLASS
  1
TABLESTYLE
  2
AcDbTableStyle
  3
ObjectDBX Classes
 90
     2047
280
     0
281
     0
  0
CLASS
  1
AMGSETTINGSOBJ
  2
AmgSettingsObj
  3
"AcadM|Product Description: AutoCAD Mechanical 2000|Company: Autodesk"
 90
        0
280
     0
281
     0
  0
CLASS
  1
ACME_DOCUMENT
  2
AcMeDbDoc
  3
AcMeServices
 90
        0
280
     0
281
     0
  0
CLASS
  1
ACMESCOPE
  2
AcMeScope
  3
AcMeServices
 90
        0
280
     0
281
     0
  0
CLASS
  1
ACMECOMMANDHISTORY
  2
AcMeCommandHistory
  3
AcMeServices
 90
        0
280
     0
281
     0
  0
CLASS
  1
ACIMSYSVARMAN
  2
AcImSysVarManager
  3
AcMeServices
 90
        0
280
     0
281
     0
  0
CLASS
  1
ACIMINTSYSVAR
  2
AcImIntSysVar
  3
AcMeServices
 90
        0
280
     0
281
     0
  0
CLASS
  1
ACMEDRAWINGMAN
  2
AcMeDrawingMan
  3
AcMeServices
 90
        0
280
     0
281
     0
  0
CLASS
  1
ACMEVIEW
  2
AcMeView
  3
AcMeServices
 90
        0
280
     0
281
     0
  0
CLASS
  1
ACDBENTITYCACHE
  2
AcMeEntityCache
  3
AcMeServices
 90
        0
280
     0
281
     0
  0
CLASS
  1
GSMANAGER
  2
AcMeGSManager
  3
AcMeServices
 90
        0
280
     0
281
     0
  0
CLASS
  1
AMDTINTERNALREACTOR
  2
AmdtInternalReactor
  3
AcMeServices
 90
        0
280
     0
281
     0
  0
CLASS
  1
ACMESTATEMGR
  2
AcMeStateMgr
  3
AcMeServices
 90
        0
280
     0
281
     0
  0
CLASS
  1
ACGREFMASTER
  2
AcGrefMaster
  3
AcAttribServices
 90
        0
280
     0
281
     0
  0
CLASS
  1
AM_DRAWING_MGR
  2
AcDmDwgMgr
  3
AcMechDwgViewMgmt
 90
        0
280
     0
281
     0
  0
CLASS
  1
AM_DWG_DOCUMENT
  2
AcDmDwgDocument
  3
AcMechDwgViewMgmt
 90
        0
280
     0
281
     0
  0
CLASS
  1
AM_DWG_SHEET
  2
AcDmSheet
  3
AcMechDwgViewMgmt
 90
        0
280
     0
281
     0
  0
CLASS
  1
AM_VIEWDIMPARMAP
  2
AcDmViewDimParMap
  3
AcMechDwgViewMgmt
 90
        0
280
     0
281
     0
  0
CLASS
  1
ACIMREALSYSVAR
  2
AcImRealSysVar
  3
AcMeServices
 90
        0
280
     0
281
     0
  0
CLASS
  1
AM_DWGMGR_NAME
  2
AcDmDwgMgrName
  3
AcMechDwgViewMgmt
 90
        0
280
     0
281
     0
  0
CLASS
  1
ACME_DATABASE
  2
AcMeDbDatabase
  3
AcMeServices
 90
        0
280
     0
281
     0
  0
CLASS
  1
ACRFINSADJUSTERMGR
  2
AcRfInsAdjusterMgr
  3
AcMeServices
 90
        0
280
     0
281
     0
  0
CLASS
  1
ACGREFACADMASTER
  2
AcGrefacadMaster
  3
AcGrefServices
 90
        0
280
     0
281
     0
  0
CLASS
  1
AMDTMENUSTATEMGR
  2
AmdtMenuStateMgr
  3
McadcomServices
 90
        0
280
     0
281
     0
  0
CLASS
  1
AMDTMCOMMENUSTATE
  2
AmdtMcomMenuState
  3
McadcomServices
 90
        0
280
     0
281
     0
  0
CLASS
  1
AMIMASTER
  2
AmiMaster
  3
AmiServices
 90
        0
280
     0
281
     0
  0
CLASS
  1
MAPIAMMOUDLE
  2
MApiAmModule
  3
MApiAmServices
 90
        0
280
     0
281
     0
  0
CLASS
  1
ACIMSTRSYSVAR
  2
AcImStrSysVar
  3
AcMeServices
 90
        0
280
     0
281
     0
  0
CLASS
  1
AMDTADMENUSTATE
  2
AmdtAdMenuState
  3
DesignerServices
 90
        0
280
     0
281
     0
  0
CLASS
  1
ADAPPL
  2
AcAdAppl
  3
DesignerServices
 90
        0
280
     0
281
     0
  0
CLASS
  1
DEPMGR
  2
AcAdDepMgr
  3
DesignerServices
 90
        0
280
     0
281
     0
  0
CLASS
  1
PARAMMGR
  2
AcAdParamMgr
  3
DesignerServices
 90
        0
280
     0
281
     0
  0
CLASS
  1
PARAMSCOPE
  2
AcAdParamScope
  3
DesignerServices
 90
        0
280
     0
281
     0
  0
CLASS
  1
NAMEDAPPL
  2
AcAdNamedAppl
  3
DesignerServices
 90
        0
280
     0
281
     0
  0
CLASS
  1
AMDTDMMENUSTATE
  2
AmdtDmMenuState
  3
AcMechDwgViewMgmt
 90
        0
280
     0
281
     0
  0
CLASS
  1
AMDTAMMENUSTATE
  2
AmdtAmMenuState
  3
DesignerAssemblies
 90
        0
280
     0
281
     0
  0
CLASS
  1
ACAMPROJECT
  2
AcAmProject
  3
DesignerAssemblies
 90
        0
280
     0
281
     0
  0
CLASS
  1
ACAMGRCOMPDEF
  2
AcAmGrCompDef
  3
DesignerAssemblies
 90
        0
280
     0
281
     0
  0
CLASS
  1
ACCMCONTEXT
  2
AcCmContext
  3
DesignerAssemblies
 90
        0
280
     0
281
     0
  0
CLASS
  1
ACAMCOMPDEF
  2
AcAmCompDef
  3
DesignerAssemblies
 90
        0
280
     0
281
     0
  0
CLASS
  1
ACAMCOMPDEFMGR
  2
AcAmCompDefMgr
  3
DesignerAssemblies
 90
        0
280
     0
281
     0
  0
CLASS
  1
AMCONTEXTMGR
  2
AcAmContextMgr
  3
DesignerAssemblies
 90
        0
280
     0
281
     0
  0
CLASS
  1
ACAMCONTEXTMODELER
  2
AcAmContextModeler
  3
DesignerAssemblies
 90
        0
280
     0
281
     0
  0
CLASS
  1
ACMDATADICTIONARY
  2
AcmDataDictionary
  3
"AcmSymBB|Product Description: AutoCAD Mechanical 2004 DX|Company: Autodesk"
 90
        0
280
     0
281
     0
  0
CLASS
  1
CATALOGSTATE
  2
AcAmCatalogState
  3
DesignerAssemblies
 90
        0
280
     0
281
     0
  0
CLASS
  1
ACAMGRCOMPDEFSET
  2
AcAmGrCompDefSet
  3
DesignerAssemblies
 90
        0
280
     0
281
     0
  0
CLASS
  1
AMDTBROWSERDBTAB
  2
AmdtBrowserDbTab
  3
McadcomServices
 90
        0
280
     0
281
     0
  0
CLASS
  1
CBROWSERAPPOBJECT
  2
CBrowserAppObject
  3
McadcomServices
 90
        0
280
     0
281
     0
  0
CLASS
  1
DM_PLACEHOLDER
  2
AcDmSelsetPlaceholder
  3
AcMechDwgViewMgmt
 90
        0
280
     0
281
     0
  0
CLASS
  1
ACMSTANDARDDIN
  2
AcmStandardDIN
  3
"Amdt_StdImp|Product Description: AutoCAD Mechanical 2004 DX|Company: Autodesk"
 90
        0
280
     0
281
     0
  0
CLASS
  1
AMGOBJPROPCFG
  2
AmgObjPropCfg
  3
"AmgLay|Product Description: AutoCAD Mechanical 2000|Company: Autodesk"
 90
        1
280
     0
281
     0
  0
CLASS
  1
AMDTEDGESTANDARDDIN13715
  2
AmdtEdgeStdDIN13715
  3
"Amdt_StdImp|Product Description: AutoCAD Mechanical 2004 DX|Company: Autodesk"
 90
        0
280
     0
281
     0
  0
CLASS
  1
ACMSURFSTANDARDDIN
  2
AcmSurfTextStdDIN
  3
"Amdt_StdImp|Product Description: AutoCAD Mechanical 2004 DX|Company: Autodesk"
 90
        0
280
     0
281
     0
  0
CLASS
  1
ACMFCFSTANDARDDIN
  2
AcmFCFStdDIN
  3
"Amdt_StdImp|Product Description: AutoCAD Mechanical 2004 DX|Company: Autodesk"
 90
        0
280
     0
281
     0
  0
CLASS
  1
ACMWELDSTANDARDDIN
  2
AcmWeldingStdDIN
  3
"Amdt_StdImp|Product Description: AutoCAD Mechanical 2004 DX|Company: Autodesk"
 90
        0
280
     0
281
     0
  0
CLASS
  1
ACMIDSTANDARDDIN
  2
AcmIdStdDIN
  3
"Amdt_StdImp|Product Description: AutoCAD Mechanical 2004 DX|Company: Autodesk"
 90
        0
280
     0
281
     0
  0
CLASS
  1
ACMDATUMSTANDARDDIN
  2
AcmDatumStdDIN
  3
"Amdt_StdImp|Product Description: AutoCAD Mechanical 2004 DX|Company: Autodesk"
 90
        0
280
     0
281
     0
  0
CLASS
  1
ACMBOMSTANDARDDIN
  2
AcmBOMStdDIN
  3
"Amdt_StdImp|Product Description: AutoCAD Mechanical 2004 DX|Company: Autodesk"
 90
        0
280
     0
281
     0
  0
CLASS
  1
ACMDETAILSTANDARDDIN
  2
AmdtDetailSymStdDIN
  3
"Amdt_StdImp|Product Description: AutoCAD Mechanical 2004 DX|Company: Autodesk"
 90
        0
280
     0
281
     0
  0
CLASS
  1
ACMSECTIONSTANDARDDIN
  2
AmdtSectionSymStdDIN
  3
"Amdt_StdImp|Product Description: AutoCAD Mechanical 2004 DX|Company: Autodesk"
 90
        0
280
     0
281
     0
  0
CLASS
  1
ACMCENTERLINESTANDARDDIN
  2
AmdtCenterLineStdDIN
  3
"Amdt_StdImp|Product Description: AutoCAD Mechanical 2004 DX|Company: Autodesk"
 90
        0
280
     0
281
     0
  0
CLASS
  1
ACMTHREADLINESTANDARDDIN
  2
AmdtThreadLineStdDIN
  3
"Amdt_StdImp|Product Description: AutoCAD Mechanical 2004 DX|Company: Autodesk"
 90
        0
280
     0
281
     0
  0
CLASS
  1
ACMNOTESTANDARDDIN
  2
AmdtNoteStdDIN
  3
"Amdt_StdImp|Product Description: AutoCAD Mechanical 2004 DX|Company: Autodesk"
 90
        0
280
     0
281
     0
  0
CLASS
  1
AMDTNOTETEMPLATEDB
  2
AmdtNoteTemplateDB
  3
AMDT_STDIMP_MODULE_NAME
 90
        0
280
     0
281
     0
  0
CLASS
  1
ACAMGLAYSTD
  2
AcAmgLayStd
  3
"AcAmgLayStd|Product Description: AutoCAD Mechanical 2000|Company: Autodesk"
 90
        0
280
     0
281
     0
  0
CLASS
  1
ACAMGDIMSTD
  2
AcAmgDimStd
  3
"AcAmgDimStd|Product Description: AutoCAD Mechanical 2000|Company: Autodesk"
 90
        0
280
     0
281
     0
  0
CLASS
  1
ACAMGHOLECHARTSTDDIN
  2
AcAmgHoleChartStdDIN
  3
ACMSYMBB_MODULE_NAME
 90
        0
280
     0
281
     0
  0
CLASS
  1
ACAMGTITLESTD
  2
AcAmgTitleStd
  3
"TITLEAPP"
 90
        0
280
     0
281
     0
  0
CLASS
  1
ACAMGFILTERDAT
  2
AcAmgFilterDat
  3
"AcadM|Product Description: AutoCAD Mechanical 2000|Company: Autodesk"
 90
        0
280
     0
281
     0
  0
CLASS
  1
DICTIONARYVAR
  2
AcDbDictionaryVar
  3
ObjectDBX Classes
 90
        0
280
     0
281
     0
  0
CLASS
  1
ACDBPLACEHOLDER
  2
AcDbPlaceHolder
  3
ObjectDBX Classes
 90
        0
280
     0
281
     0
  0
CLASS
  1
LAYOUT
  2
AcDbLayout
  3
ObjectDBX Classes
 90
        0
280
     0
281
     0
  0
ENDSEC
  0
SECTION
  2
TABLES
  0
TABLE
  2
VPORT
  5
1575
330
0
100
AcDbSymbolTable
 70
     5
  0
VPORT
  5
1857
330
1575
100
AcDbSymbolTableRecord
100
AcDbViewportTableRecord
  2
*Active
 70
     0
 10
0.0
 20
0.0
 11
1.0
 21
1.0
 12
394.0624259983449
 22
296.7304251526136
 13
0.0
 23
0.0
 14
5.0
 24
5.0
 15
50.0
 25
50.0
 16
0.0
 26
0.0
 36
1.0
 17
0.0
 27
0.0
 37
0.0
 40
405.5208841716162
 41
1.494545454545454
 42
50.0
 43
0.0
 44
0.0
 50
0.0
 51
0.0
 71
     0
 72
  1000
 73
     1
 74
     1
 75
     0
 76
     0
 77
     0
 78
     0
281
     0
 65
     0
110
0.0
120
0.0
130
0.0
111
1.0
121
0.0
131
0.0
112
0.0
122
1.0
132
0.0
 79
     0
146
0.0
  0
ENDTAB
  0
TABLE
  2
LTYPE
  5
1572
330
0
100
AcDbSymbolTable
 70
    21
  0
LTYPE
  5
157F
330
1572
100
AcDbSymbolTableRecord
100
AcDbLinetypeTableRecord
  2
BYBLOCK
 70
     0
  3

 72
    65
 73
     0
 40
0.0
  0
LTYPE
  5
1580
330
1572
100
AcDbSymbolTableRecord
100
AcDbLinetypeTableRecord
  2
BYLAYER
 70
     0
  3

 72
    65
 73
     0
 40
0.0
  0
LTYPE
  5
1581
330
1572
100
AcDbSymbolTableRecord
100
AcDbLinetypeTableRecord
  2
CONTINUOUS
 70
     0
  3
Solid line
 72
    65
 73
     0
 40
0.0
  0
LTYPE
  5
1590
330
1572
100
AcDbSymbolTableRecord
100
AcDbLinetypeTableRecord
  2
GEN7
 70
     0
  3
____ _ ____ _ ____ _ ____ _ ____ _ ____ _ ____ _ ____ _ ____ _
 72
    65
 73
     4
 40
22.0
 49
10.75
 74
     0
 49
-3.75
 74
     0
 49
3.75
 74
     0
 49
-3.75
 74
     0
  0
LTYPE
  5
17AD
330
1572
100
AcDbSymbolTableRecord
100
AcDbLinetypeTableRecord
  2
HIDDEN
 70
     0
  3
Verdeckt
 72
    65
 73
     2
 40
9.525
 49
6.349999999999999
 74
     0
 49
-3.174999999999999
 74
     0
  0
LTYPE
  5
17AE
330
1572
100
AcDbSymbolTableRecord
100
AcDbLinetypeTableRecord
  2
PHANTOM2
 70
     0
  3
Phantom (.5x) ___ _ _ ___ _ _ ___ _ _ ___ _ _
 72
    65
 73
     6
 40
31.75
 49
15.875
 74
     0
 49
-3.174999999999999
 74
     0
 49
3.174999999999999
 74
     0
 49
-3.174999999999999
 74
     0
 49
3.174999999999999
 74
     0
 49
-3.174999999999999
 74
     0
  0
LTYPE
  5
17AF
330
1572
100
AcDbSymbolTableRecord
100
AcDbLinetypeTableRecord
  2
CENTER
 70
     0
  3
Mitte ____ _ ____ _ ____ _ ____ _ ____ _ ____
 72
    65
 73
     4
 40
50.8
 49
31.75
 74
     0
 49
-6.349999999999999
 74
     0
 49
6.349999999999999
 74
     0
 49
-6.349999999999999
 74
     0
  0
LTYPE
  5
17E6
330
1572
100
AcDbSymbolTableRecord
100
AcDbLinetypeTableRecord
  2
Amconstr
 70
     0
  3
_______________________
 72
    65
 73
     2
 40
9999.0
 49
9999.0
 74
     0
 49
0.0
 74
     0
  0
LTYPE
  5
17EB
330
1572
100
AcDbSymbolTableRecord
100
AcDbLinetypeTableRecord
  2
Amzigzag
 70
     0
  3
/\/-/\/-/\/-/\/-/\/-/\/
 72
    65
 73
     2
 40
11.0001
 49
0.0001
 74
     4
 75
   136
340
17EA
 46
0.04
 50
0.0
 44
0.0
 45
0.0
 49
-11.0
 74
     0
  0
LTYPE
  5
17EC
330
1572
100
AcDbSymbolTableRecord
100
AcDbLinetypeTableRecord
  2
AM_DIN_F_W050
 70
     0
  3
__ __ __ __ __ __ __ __ __ __ __ __ __ __ __
 72
    65
 73
     2
 40
6.25
 49
4.75
 74
     0
 49
-1.5
 74
     0
  0
LTYPE
  5
17ED
330
1572
100
AcDbSymbolTableRecord
100
AcDbLinetypeTableRecord
  2
AM_DIN_G_W050
 70
     0
  3
____ . ____ . ____ . ____ . ____ . ____ . ____
 72
    65
 73
     4
 40
13.75
 49
9.75
 74
     0
 49
-1.5
 74
     0
 49
1.0
 74
     0
 49
-1.5
 74
     0
  0
LTYPE
  5
17EE
330
1572
100
AcDbSymbolTableRecord
100
AcDbLinetypeTableRecord
  2
AM_DIN_K_W050
 70
     0
  3
_____ . . _____ . . _____ . . ____ .. ____
 72
    65
 73
     6
 40
16.25
 49
9.75
 74
     0
 49
-1.5
 74
     0
 49
1.0
 74
     0
 49
-1.5
 74
     0
 49
1.0
 74
     0
 49
-1.5
 74
     0
  0
LTYPE
  5
17EF
330
1572
100
AcDbSymbolTableRecord
100
AcDbLinetypeTableRecord
  2
AM_DIN_G_W050x2
 70
     0
  3
__ . __ . __ . __ . __ . __
 72
    65
 73
     4
 40
6.875
 49
4.75
 74
     0
 49
-0.875
 74
     0
 49
0.375
 74
     0
 49
-0.875
 74
     0
  0
LTYPE
  5
17F0
330
1572
100
AcDbSymbolTableRecord
100
AcDbLinetypeTableRecord
  2
AM_DIN_F_W050x2
 70
     0
  3
 _ _ _ _ _ _ _ _ _ _ _ _
 72
    65
 73
     2
 40
3.125
 49
2.25
 74
     0
 49
-0.875
 74
     0
  0
LTYPE
  5
17FF
330
1572
100
AcDbSymbolTableRecord
100
AcDbLinetypeTableRecord
  2
ACDINWELD
 70
     0
  3
_ _ _ _ _
 72
    65
 73
     2
 40
2.0
 49
2.0
 74
     0
 49
-1.0
 74
     0
  0
LTYPE
  5
1800
330
1572
100
AcDbSymbolTableRecord
100
AcDbLinetypeTableRecord
  2
ACDINTGB
 70
     0
  3
__ . . __ . .
 72
    65
 73
     6
 40
9.0
 49
4.0
 74
     0
 49
-1.0
 74
     0
 49
1.0
 74
     0
 49
-1.0
 74
     0
 49
1.0
 74
     0
 49
-1.0
 74
     0
  0
LTYPE
  5
1801
330
1572
100
AcDbSymbolTableRecord
100
AcDbLinetypeTableRecord
  2
ACDINTGL
 70
     0
  3
_ _ _ _ _
 72
    65
 73
     2
 40
3.0
 49
2.0
 74
     0
 49
-1.0
 74
     0
  0
ENDTAB
  0
TABLE
  2
LAYER
  5
156F
330
0
100
AcDbSymbolTable
 70
    14
  0
LAYER
  5
157B
330
156F
100
AcDbSymbolTableRecord
100
AcDbLayerTableRecord
  2
0
 70
     0
 62
     7
  6
CONTINUOUS
370
    -3
390
1771
  0
LAYER
  5
1596
330
156F
100
AcDbSymbolTableRecord
100
AcDbLayerTableRecord
  2
4
 70
     0
 62
     3
  6
CONTINUOUS
370
    -3
390
1771
  0
LAYER
  5
1598
330
156F
100
AcDbSymbolTableRecord
100
AcDbLayerTableRecord
  2
5
 70
     0
 62
     3
  6
CONTINUOUS
370
    -3
390
1771
  0
LAYER
  5
159B
330
156F
100
AcDbSymbolTableRecord
100
AcDbLayerTableRecord
  2
8
 70
     0
 62
     1
  6
CONTINUOUS
370
    -3
390
1771
  0
LAYER
  5
159D
330
156F
100
AcDbSymbolTableRecord
100
AcDbLayerTableRecord
  2
SCHRAFFUR_RAND
 70
     1
 62
    36
  6
CONTINUOUS
370
    -3
390
1771
  0
LAYER
  5
15E7
330
156F
100
AcDbSymbolTableRecord
100
AcDbLayerTableRecord
  2
DEFPOINTS
 70
     0
 62
     7
  6
CONTINUOUS
290
     0
370
    -3
390
1771
  0
LAYER
  5
169B
330
156F
100
AcDbSymbolTableRecord
100
AcDbLayerTableRecord
  2
MAßLINIEN
 70
     0
 62
    30
  6
GEN7
370
    -3
390
1771
  0
ENDTAB
  0
TABLE
  2
STYLE
  5
1570
330
0
100
AcDbSymbolTable
 70
     4
  0
STYLE
  5
157C
330
1570
100
AcDbSymbolTableRecord
100
AcDbTextStyleTableRecord
  2
STANDARD
 70
     0
 40
0.0
 41
1.0
 50
0.0
 71
     0
 42
17.5
  3
ISOCP.SHX
  4

  0
STYLE
  5
17EA
330
1570
100
AcDbSymbolTableRecord
100
AcDbTextStyleTableRecord
  2

 70
     1
 40
0.0
 41
1.0
 50
0.0
 71
     0
 42
0.2
  3
genltshp.shx
  4

  0
STYLE
  5
17F1
330
1570
100
AcDbSymbolTableRecord
100
AcDbTextStyleTableRecord
  2
ACDINTS
 70
     0
 40
1.0
 41
1.0
 50
0.0
 71
     0
 42
0.2
  3
isocp.shx
  4

  0
STYLE
  5
17FE
330
1570
100
AcDbSymbolTableRecord
100
AcDbTextStyleTableRecord
  2
ACDINGDT
 70
     0
 40
0.0
 41
1.0
 50
0.0
 71
     0
 42
0.2
  3
AMGDT
  4

  0
ENDTAB
  0
TABLE
  2
VIEW
  5
1573
330
0
100
AcDbSymbolTable
 70
     6
  0
VIEW
  5
16CB
330
1573
100
AcDbSymbolTableRecord
100
AcDbViewTableRecord
  2
GEN1
 70
     0
 40
525.0
 10
394.960474
 20
787.5
 41
789.920949
 11
0.0
 21
0.0
 31
1.0
 12
0.0
 22
0.0
 32
0.0
 42
50.0
 43
0.0
 44
0.0
 50
0.0
 71
     0
281
     0
 72
     0
  0
VIEW
  5
16CC
330
1573
100
AcDbSymbolTableRecord
100
AcDbViewTableRecord
  2
GEN2
 70
     0
 40
525.0
 10
655.039526
 20
787.5
 41
789.920949
 11
0.0
 21
0.0
 31
1.0
 12
0.0
 22
0.0
 32
0.0
 42
50.0
 43
0.0
 44
0.0
 50
0.0
 71
     0
281
     0
 72
     0
  0
VIEW
  5
16CD
330
1573
100
AcDbSymbolTableRecord
100
AcDbViewTableRecord
  2
GEN3
 70
     0
 40
525.0
 10
394.960474
 20
262.5
 41
789.920949
 11
0.0
 21
0.0
 31
1.0
 12
0.0
 22
0.0
 32
0.0
 42
50.0
 43
0.0
 44
0.0
 50
0.0
 71
     0
281
     0
 72
     0
  0
VIEW
  5
16CE
330
1573
100
AcDbSymbolTableRecord
100
AcDbViewTableRecord
  2
GEN4
 70
     0
 40
525.0
 10
655.039526
 20
262.5
 41
789.920949
 11
0.0
 21
0.0
 31
1.0
 12
0.0
 22
0.0
 32
0.0
 42
50.0
 43
0.0
 44
0.0
 50
0.0
 71
     0
281
     0
 72
     0
  0
VIEW
  5
16CF
330
1573
100
AcDbSymbolTableRecord
100
AcDbViewTableRecord
  2
GEN5
 70
     0
 40
525.0
 10
525.0
 20
525.0
 41
789.920949
 11
0.0
 21
0.0
 31
1.0
 12
0.0
 22
0.0
 32
0.0
 42
50.0
 43
0.0
 44
0.0
 50
0.0
 71
     0
281
     0
 72
     0
  0
VIEW
  5
16D0
330
1573
100
AcDbSymbolTableRecord
100
AcDbViewTableRecord
  2
GEN6
 70
     0
 40
1049.9895
 10
525.0
 20
525.0
 41
1579.826099
 11
0.0
 21
0.0
 31
1.0
 12
0.0
 22
0.0
 32
0.0
 42
50.0
 43
0.0
 44
0.0
 50
0.0
 71
     0
281
     0
 72
     0
  0
ENDTAB
  0
TABLE
  2
UCS
  5
1574
330
0
100
AcDbSymbolTable
 70
     0
  0
ENDTAB
  0
TABLE
  2
APPID
  5
1576
330
0
100
AcDbSymbolTable
 70
    36
  0
APPID
  5
157D
330
1576
100
AcDbSymbolTableRecord
100
AcDbRegAppTableRecord
  2
ACAD
 70
     0
  0
APPID
  5
15BC
330
1576
100
AcDbSymbolTableRecord
100
AcDbRegAppTableRecord
  2
GENIUS_GENOENT_13
 70
     0
  0
APPID
  5
15BD
330
1576
100
AcDbSymbolTableRecord
100
AcDbRegAppTableRecord
  2
GENIUS_GENCFG_13
 70
     0
1001
GENIUS_GENCFG0_13
1000
GEN@INFO_POS@XLATE
1001
GENIUS_GENCFG1_13
1000
GEN@INFO_POS
1001
GENIUS_GENCFG2_13
1000
GEN@LAYER@DEFS
1001
GENIUS_GENCFG3_13
1000
GEN@LAYER@ENTSORT
1001
GENIUS_GENCFG4_13
1000
GEN
1001
GENIUS_GEVCFG0_13
1000
GEV
1001
GENIUS_GEFCFG0_13
1000
GEF
1001
GENIUS_DUMCFG0_13
1000
DUM
  0
APPID
  5
15BE
330
1576
100
AcDbSymbolTableRecord
100
AcDbRegAppTableRecord
  2
GENIUS_DUMCFG0_13
 70
     0
1001
GENIUS_GENCFG_13
1071
921245786
1000
15BE
1000
DUM
1070
     0
  0
APPID
  5
15BF
330
1576
100
AcDbSymbolTableRecord
100
AcDbRegAppTableRecord
  2
GENIUS_GENCFG0_13
 70
     0
1001
GENIUS_GENCFG_13
1071
1020869925
1000
15BF
1000
GEN@INFO_POS@XLATE
1070
     7
1000
GenCfgObject
1000
GenCfgShort
1000
GenCfgReal
1000
GenCfgBool
1000
GenCfgString
1000
GenCfgDim
1000
GenCfgAttrInf
1000
INFOPOINTS
1070
     0
1002
{
1000
GENINF14
1070
     0
1002
{
1000
2GENINF
1070
     4
1000
2
1002
{
1002
}
1000
5GENINF
1070
     4
1000
5
1002
{
1002
}
1000
7GENINF
1070
     4
1000
7
1002
{
1002
}
1000
9GENINF
1070
     4
1000
9
1002
{
1002
}
1000
11GENINF
1070
     4
1000
11
1002
{
1002
}
1000
14GENINF
1070
     4
1000
14
1002
{
1002
}
1002
}
1000
GENINF13
1070
     0
1002
{
1000
2GENINF
1070
     4
1000
2
1002
{
1002
}
1000
3GENINF
1070
     4
1000
3
1002
{
1002
}
1000
4GENINF
1070
     4
1000
4
1002
{
1002
}
1000
5GENINF
1070
     4
1000
5
1002
{
1002
}
1000
6GENINF
1070
     4
1000
6
1002
{
1002
}
1000
7GENINF
1070
     4
1000
7
1002
{
1002
}
1000
8GENINF
1070
     4
1000
8
1002
{
1002
}
1000
9GENINF
1070
     4
1000
9
1002
{
1002
}
1000
10GENINF
1070
     4
1000
10
1002
{
1002
}
1000
11GENINF
1070
     4
1000
11
1002
{
1002
}
1000
12GENINF
1070
     4
1000
12
1002
{
1002
}
1000
13GENINF
1070
     4
1000
13
1002
{
1002
}
1000
14GENINF
1070
     4
1000
14
1002
{
1002
}
1000
15GENINF
1070
     4
1000
15
1002
{
1002
}
1000
16GENINF
1070
     4
1000
16
1002
{
1002
}
1000
17GENINF
1070
     4
1000
17
1002
{
1002
}
1000
18GENINF
1070
     4
1000
18
1002
{
1002
}
1000
19GENINF
1070
     4
1000
19
1002
{
1002
}
1000
20GENINF
1070
     4
1000
20
1002
{
1002
}
1000
21GENINF
1070
     4
1000
21
1002
{
1002
}
1000
22GENINF
1070
     4
1000
22
1002
{
1002
}
1000
23GENINF
1070
     4
1000
23
1002
{
1002
}
1000
24GENINF
1070
     4
1000
24
1002
{
1002
}
1000
0GENINF
1070
     4
1000
0
1002
{
1002
}
1002
}
1000
GENINFO
1070
     0
1002
{
1000
3GENINF
1070
     4
1000
3
1002
{
1002
}
1000
4GENINF
1070
     4
1000
4
1002
{
1002
}
1000
5GENINF
1070
     4
1000
5
1002
{
1002
}
1000
6GENINF
1070
     4
1000
6
1002
{
1002
}
1000
7GENINF
1070
     4
1000
7
1002
{
1002
}
1000
8GENINF
1070
     4
1000
8
1002
{
1002
}
1000
9GENINF
1070
     4
1000
9
1002
{
1002
}
1000
10GENINF
1070
     4
1000
10
1002
{
1002
}
1000
11GENINF
1070
     4
1000
11
1002
{
1002
}
1000
12GENINF
1070
     4
1000
12
1002
{
1002
}
1000
13GENINF
1070
     4
1000
13
1002
{
1002
}
1000
14GENINF
1070
     4
1000
14
1002
{
1002
}
1000
15GENINF
1070
     4
1000
15
1002
{
1002
}
1000
16GENINF
1070
     4
1000
16
1002
{
1002
}
1000
17GENINF
1070
     4
1000
17
1002
{
1002
}
1000
18GENINF
1070
     4
1000
18
1002
{
1002
}
1000
19GENINF
1070
     4
1000
19
1002
{
1002
}
1000
20GENINF
1070
     4
1000
20
1002
{
1002
}
1000
21GENINF
1070
     4
1000
21
1002
{
1002
}
1000
22GENINF
1070
     4
1000
22
1002
{
1002
}
1002
}
1000
DININFO
1070
     0
1002
{
1000
ST-NAME1
1070
     4
1000
5
1002
{
1002
}
1000
ST-NAME2
1070
     4
1000
6
1002
{
1002
}
1000
ST-NORM1
1070
     4
1000
7
1002
{
1002
}
1000
ST-NORM2
1070
     4
1000
8
1002
{
1002
}
1000
ST-MAT1
1070
     4
1000
9
1002
{
1002
}
1000
ST-MAT2
1070
     4
1000
10
1002
{
1002
}
1002
}
1002
}
1000
POS_NUMBERS
1070
     0
1002
{
1000
GENPOS14
1070
     0
1002
{
1000
1GENPOS
1070
     4
1000
1
1002
{
1002
}
1000
2GENPOS
1070
     4
1000
2
1002
{
1002
}
1000
5GENPOS
1070
     4
1000
5
1002
{
1002
}
1000
7GENPOS
1070
     4
1000
7
1002
{
1002
}
1000
9GENPOS
1070
     4
1000
9
1002
{
1002
}
1000
11GENPOS
1070
     4
1000
11
1002
{
1002
}
1000
14GENPOS
1070
     4
1000
14
1002
{
1002
}
1002
}
1000
GENPOS13
1070
     0
1002
{
1000
1GENPOS
1070
     4
1000
1
1002
{
1002
}
1000
2GENPOS
1070
     4
1000
2
1002
{
1002
}
1000
3GENPOS
1070
     4
1000
3
1002
{
1002
}
1000
4GENPOS
1070
     4
1000
4
1002
{
1002
}
1000
5GENPOS
1070
     4
1000
5
1002
{
1002
}
1000
6GENPOS
1070
     4
1000
6
1002
{
1002
}
1000
7GENPOS
1070
     4
1000
7
1002
{
1002
}
1000
8GENPOS
1070
     4
1000
8
1002
{
1002
}
1000
9GENPOS
1070
     4
1000
9
1002
{
1002
}
1000
10GENPOS
1070
     4
1000
10
1002
{
1002
}
1000
11GENPOS
1070
     4
1000
11
1002
{
1002
}
1000
12GENPOS
1070
     4
1000
12
1002
{
1002
}
1000
13GENPOS
1070
     4
1000
13
1002
{
1002
}
1000
14GENPOS
1070
     4
1000
14
1002
{
1002
}
1000
15GENPOS
1070
     4
1000
15
1002
{
1002
}
1000
16GENPOS
1070
     4
1000
16
1002
{
1002
}
1000
17GENPOS
1070
     4
1000
17
1002
{
1002
}
1000
18GENPOS
1070
     4
1000
18
1002
{
1002
}
1000
19GENPOS
1070
     4
1000
19
1002
{
1002
}
1000
20GENPOS
1070
     4
1000
20
1002
{
1002
}
1000
21GENPOS
1070
     4
1000
21
1002
{
1002
}
1000
22GENPOS
1070
     4
1000
22
1002
{
1002
}
1000
23GENPOS
1070
     4
1000
23
1002
{
1002
}
1000
24GENPOS
1070
     4
1000
24
1002
{
1002
}
1000
0GENPOS
1070
     4
1000
0
1002
{
1002
}
1002
}
1000
GENPOS
1070
     0
1002
{
1000
1GENPOS
1070
     4
1000
1
1002
{
1002
}
1000
2GENPOS
1070
     4
1000
2
1002
{
1002
}
1000
3GENPOS
1070
     4
1000
3
1002
{
1002
}
1000
4GENPOS
1070
     4
1000
4
1002
{
1002
}
1000
5GENPOS
1070
     4
1000
5
1002
{
1002
}
1000
6GENPOS
1070
     4
1000
6
1002
{
1002
}
1000
7GENPOS
1070
     4
1000
7
1002
{
1002
}
1000
8GENPOS
1070
     4
1000
8
1002
{
1002
}
1000
9GENPOS
1070
     4
1000
9
1002
{
1002
}
1000
10GENPOS
1070
     4
1000
10
1002
{
1002
}
1000
11GENPOS
1070
     4
1000
11
1002
{
1002
}
1000
12GENPOS
1070
     4
1000
12
1002
{
1002
}
1000
13GENPOS
1070
     4
1000
13
1002
{
1002
}
1000
14GENPOS
1070
     4
1000
14
1002
{
1002
}
1000
15GENPOS
1070
     4
1000
15
1002
{
1002
}
1000
16GENPOS
1070
     4
1000
16
1002
{
1002
}
1000
17GENPOS
1070
     4
1000
17
1002
{
1002
}
1000
18GENPOS
1070
     4
1000
18
1002
{
1002
}
1000
19GENPOS
1070
     4
1000
19
1002
{
1002
}
1000
20GENPOS
1070
     4
1000
20
1002
{
1002
}
1000
21GENPOS
1070
     4
1000
21
1002
{
1002
}
1000
22GENPOS
1070
     4
1000
22
1002
{
1002
}
1000
23GENPOS
1070
     4
1000
23
1002
{
1002
}
1002
}
1000
DIN985
1070
     0
1002
{
1000
POSITION
1070
     4
1000
1
1002
{
1002
}
1000
MENGE
1070
     4
1000
2
1002
{
1002
}
1000
BLATT
1070
     4
1000
3
1002
{
1002
}
1000
BENENN
1070
     4
1000
5
1002
{
1002
}
1000
BENENN2
1070
     4
1000
6
1002
{
1002
}
1000
NORM
1070
     4
1000
7
1002
{
1002
}
1000
NORM2
1070
     4
1000
8
1002
{
1002
}
1000
WERKSTOFF
1070
     4
1000
9
1002
{
1002
}
1000
WERKSTOFF2
1070
     4
1000
10
1002
{
1002
}
1002
}
1000
DIN986
1070
     0
1002
{
1000
POSITION
1070
     4
1000
1
1002
{
1002
}
1000
MENGE
1070
     4
1000
2
1002
{
1002
}
1000
BLATT
1070
     4
1000
3
1002
{
1002
}
1000
BENENN
1070
     4
1000
5
1002
{
1002
}
1000
BENENN2
1070
     4
1000
6
1002
{
1002
}
1000
NORM
1070
     4
1000
7
1002
{
1002
}
1000
NORM2
1070
     4
1000
8
1002
{
1002
}
1000
WERKSTOFF
1070
     4
1000
9
1002
{
1002
}
1000
WERKSTOFF2
1070
     4
1000
10
1002
{
1002
}
1002
}
1000
DIN987
1070
     0
1002
{
1000
POSITION
1070
     4
1000
1
1002
{
1002
}
1000
MENGE
1070
     4
1000
2
1002
{
1002
}
1000
BLATT
1070
     4
1000
3
1002
{
1002
}
1000
BENENN
1070
     4
1000
5
1002
{
1002
}
1000
BENENN2
1070
     4
1000
6
1002
{
1002
}
1000
NORM
1070
     4
1000
7
1002
{
1002
}
1000
NORM2
1070
     4
1000
8
1002
{
1002
}
1000
WERKSTOFF
1070
     4
1000
9
1002
{
1002
}
1000
WERKSTOFF2
1070
     4
1000
10
1002
{
1002
}
1002
}
1002
}
  0
APPID
  5
15C0
330
1576
100
AcDbSymbolTableRecord
100
AcDbRegAppTableRecord
  2
GENIUS_GENCFG1_13
 70
     0
1001
GENIUS_GENCFG_13
1071
1020869925
1000
15C0
1000
GEN@INFO_POS
1070
     7
1000
GenCfgObject
1000
GenCfgShort
1000
GenCfgReal
1000
GenCfgBool
1000
GenCfgString
1000
GenCfgDim
1000
GenCfgAttrInf
1000
DescrText
1070
     4
1000
5, ,6, ,7, ,8
1002
{
1002
}
1000
DescrText2
1070
     4
1000
26
1002
{
1002
}
1000
VisibleAttr1
1070
     4
1000
1
1002
{
1002
}
1000
VisibleAttr2
1070
     4
1000
26
1002
{
1002
}
1000
UpdateBlock
1070
     3
1070
     1
1002
{
1002
}
1000
Attrib
1070
     0
1002
{
1000
0
1070
     6
1002
{
1000
Prompt
1070
     4
1000
(genmsg gendwg 103)
1002
{
1002
}
1000
Value
1070
     4
1000

1002
{
1002
}
1000
EditFlag
1070
     1
1070
     0
1002
{
1002
}
1000
PosInDDATTE
1070
     1
1070
    27
1002
{
1002
}
1000
FieldLen
1070
     1
1070
    -1
1002
{
1002
}
1002
}
1000
1
1070
     6
1002
{
1000
Prompt
1070
     4
1000
(genmsg gendwg 31)
1002
{
1002
}
1000
Value
1070
     4
1000
1
1002
{
1002
}
1000
EditFlag
1070
     1
1070
     1
1002
{
1002
}
1000
PosInDDATTE
1070
     1
1070
     1
1002
{
1002
}
1000
FieldLen
1070
     1
1070
    -1
1002
{
1002
}
1002
}
1000
2
1070
     6
1002
{
1000
Prompt
1070
     4
1000
(genmsg gendwg 32)
1002
{
1002
}
1000
Value
1070
     4
1000
1
1002
{
1002
}
1000
EditFlag
1070
     1
1070
     1
1002
{
1002
}
1000
PosInDDATTE
1070
     1
1070
     2
1002
{
1002
}
1000
FieldLen
1070
     1
1070
    -1
1002
{
1002
}
1002
}
1000
3
1070
     6
1002
{
1000
Prompt
1070
     4
1000
(genmsg gendwg 33)
1002
{
1002
}
1000
Value
1070
     4
1000

1002
{
1002
}
1000
EditFlag
1070
     1
1070
     1
1002
{
1002
}
1000
PosInDDATTE
1070
     1
1070
     3
1002
{
1002
}
1000
FieldLen
1070
     1
1070
    -1
1002
{
1002
}
1002
}
1000
4
1070
     6
1002
{
1000
Prompt
1070
     4
1000
(genmsg gendwg 34)
1002
{
1002
}
1000
Value
1070
     4
1000

1002
{
1002
}
1000
EditFlag
1070
     1
1070
     1
1002
{
1002
}
1000
PosInDDATTE
1070
     1
1070
     4
1002
{
1002
}
1000
FieldLen
1070
     1
1070
    -1
1002
{
1002
}
1002
}
1000
5
1070
     6
1002
{
1000
Prompt
1070
     4
1000
(genmsg gendwg 35)
1002
{
1002
}
1000
Value
1070
     4
1000

1002
{
1002
}
1000
EditFlag
1070
     1
1070
     1
1002
{
1002
}
1000
PosInDDATTE
1070
     1
1070
     5
1002
{
1002
}
1000
FieldLen
1070
     1
1070
    -1
1002
{
1002
}
1002
}
1000
6
1070
     6
1002
{
1000
Prompt
1070
     4
1000
(genmsg gendwg 36)
1002
{
1002
}
1000
Value
1070
     4
1000

1002
{
1002
}
1000
EditFlag
1070
     1
1070
     1
1002
{
1002
}
1000
PosInDDATTE
1070
     1
1070
     6
1002
{
1002
}
1000
FieldLen
1070
     1
1070
    -1
1002
{
1002
}
1002
}
1000
7
1070
     6
1002
{
1000
Prompt
1070
     4
1000
(genmsg gendwg 37)
1002
{
1002
}
1000
Value
1070
     4
1000

1002
{
1002
}
1000
EditFlag
1070
     1
1070
     1
1002
{
1002
}
1000
PosInDDATTE
1070
     1
1070
     7
1002
{
1002
}
1000
FieldLen
1070
     1
1070
    -1
1002
{
1002
}
1002
}
1000
8
1070
     6
1002
{
1000
Prompt
1070
     4
1000
(genmsg gendwg 38)
1002
{
1002
}
1000
Value
1070
     4
1000

1002
{
1002
}
1000
EditFlag
1070
     1
1070
     1
1002
{
1002
}
1000
PosInDDATTE
1070
     1
1070
     8
1002
{
1002
}
1000
FieldLen
1070
     1
1070
    -1
1002
{
1002
}
1002
}
1000
9
1070
     6
1002
{
1000
Prompt
1070
     4
1000
(genmsg gendwg 39)
1002
{
1002
}
1000
Value
1070
     4
1000

1002
{
1002
}
1000
EditFlag
1070
     1
1070
     1
1002
{
1002
}
1000
PosInDDATTE
1070
     1
1070
     9
1002
{
1002
}
1000
FieldLen
1070
     1
1070
    -1
1002
{
1002
}
1002
}
1000
10
1070
     6
1002
{
1000
Prompt
1070
     4
1000
(genmsg gendwg 40)
1002
{
1002
}
1000
Value
1070
     4
1000

1002
{
1002
}
1000
EditFlag
1070
     1
1070
     1
1002
{
1002
}
1000
PosInDDATTE
1070
     1
1070
    10
1002
{
1002
}
1000
FieldLen
1070
     1
1070
    -1
1002
{
1002
}
1002
}
1000
11
1070
     6
1002
{
1000
Prompt
1070
     4
1000
(genmsg gendwg 41)
1002
{
1002
}
1000
Value
1070
     4
1000

1002
{
1002
}
1000
EditFlag
1070
     1
1070
     1
1002
{
1002
}
1000
PosInDDATTE
1070
     1
1070
    11
1002
{
1002
}
1000
FieldLen
1070
     1
1070
    -1
1002
{
1002
}
1002
}
1000
12
1070
     6
1002
{
1000
Prompt
1070
     4
1000
(genmsg gendwg 42)
1002
{
1002
}
1000
Value
1070
     4
1000

1002
{
1002
}
1000
EditFlag
1070
     1
1070
     1
1002
{
1002
}
1000
PosInDDATTE
1070
     1
1070
    12
1002
{
1002
}
1000
FieldLen
1070
     1
1070
    -1
1002
{
1002
}
1002
}
1000
13
1070
     6
1002
{
1000
Prompt
1070
     4
1000
(genmsg gendwg 43)
1002
{
1002
}
1000
Value
1070
     4
1000

1002
{
1002
}
1000
EditFlag
1070
     1
1070
     1
1002
{
1002
}
1000
PosInDDATTE
1070
     1
1070
    13
1002
{
1002
}
1000
FieldLen
1070
     1
1070
    -1
1002
{
1002
}
1002
}
1000
14
1070
     6
1002
{
1000
Prompt
1070
     4
1000
(genmsg gendwg 44)
1002
{
1002
}
1000
Value
1070
     4
1000

1002
{
1002
}
1000
EditFlag
1070
     1
1070
     1
1002
{
1002
}
1000
PosInDDATTE
1070
     1
1070
    14
1002
{
1002
}
1000
FieldLen
1070
     1
1070
    -1
1002
{
1002
}
1002
}
1000
15
1070
     6
1002
{
1000
Prompt
1070
     4
1000
(genmsg gendwg 45)
1002
{
1002
}
1000
Value
1070
     4
1000

1002
{
1002
}
1000
EditFlag
1070
     1
1070
     1
1002
{
1002
}
1000
PosInDDATTE
1070
     1
1070
    15
1002
{
1002
}
1000
FieldLen
1070
     1
1070
    -1
1002
{
1002
}
1002
}
1000
16
1070
     6
1002
{
1000
Prompt
1070
     4
1000
(genmsg gendwg 46)
1002
{
1002
}
1000
Value
1070
     4
1000

1002
{
1002
}
1000
EditFlag
1070
     1
1070
     1
1002
{
1002
}
1000
PosInDDATTE
1070
     1
1070
    16
1002
{
1002
}
1000
FieldLen
1070
     1
1070
    -1
1002
{
1002
}
1002
}
1000
17
1070
     6
1002
{
1000
Prompt
1070
     4
1000
(genmsg gendwg 47)
1002
{
1002
}
1000
Value
1070
     4
1000

1002
{
1002
}
1000
EditFlag
1070
     1
1070
     1
1002
{
1002
}
1000
PosInDDATTE
1070
     1
1070
    17
1002
{
1002
}
1000
FieldLen
1070
     1
1070
    -1
1002
{
1002
}
1002
}
1000
18
1070
     6
1002
{
1000
Prompt
1070
     4
1000
(genmsg gendwg 48)
1002
{
1002
}
1000
Value
1070
     4
1000

1002
{
1002
}
1000
EditFlag
1070
     1
1070
     1
1002
{
1002
}
1000
PosInDDATTE
1070
     1
1070
    18
1002
{
1002
}
1000
FieldLen
1070
     1
1070
    -1
1002
{
1002
}
1002
}
1000
19
1070
     6
1002
{
1000
Prompt
1070
     4
1000
(genmsg gendwg 99)
1002
{
1002
}
1000
Value
1070
     4
1000

1002
{
1002
}
1000
EditFlag
1070
     1
1070
     1
1002
{
1002
}
1000
PosInDDATTE
1070
     1
1070
    19
1002
{
1002
}
1000
FieldLen
1070
     1
1070
    -1
1002
{
1002
}
1002
}
1000
20
1070
     6
1002
{
1000
Prompt
1070
     4
1000
(genmsg gendwg 100)
1002
{
1002
}
1000
Value
1070
     4
1000

1002
{
1002
}
1000
EditFlag
1070
     1
1070
     1
1002
{
1002
}
1000
PosInDDATTE
1070
     1
1070
    20
1002
{
1002
}
1000
FieldLen
1070
     1
1070
    -1
1002
{
1002
}
1002
}
1000
21
1070
     6
1002
{
1000
Prompt
1070
     4
1000
(genmsg gendwg 101)
1002
{
1002
}
1000
Value
1070
     4
1000

1002
{
1002
}
1000
EditFlag
1070
     1
1070
     1
1002
{
1002
}
1000
PosInDDATTE
1070
     1
1070
    21
1002
{
1002
}
1000
FieldLen
1070
     1
1070
    -1
1002
{
1002
}
1002
}
1000
22
1070
     6
1002
{
1000
Prompt
1070
     4
1000
(genmsg gendwg 102)
1002
{
1002
}
1000
Value
1070
     4
1000

1002
{
1002
}
1000
EditFlag
1070
     1
1070
     1
1002
{
1002
}
1000
PosInDDATTE
1070
     1
1070
    22
1002
{
1002
}
1000
FieldLen
1070
     1
1070
    -1
1002
{
1002
}
1002
}
1000
23
1070
     6
1002
{
1000
Prompt
1070
     4
1000
(genmsg gendwg 30)
1002
{
1002
}
1000
Value
1070
     4
1000

1002
{
1002
}
1000
EditFlag
1070
     1
1070
     1
1002
{
1002
}
1000
PosInDDATTE
1070
     1
1070
    23
1002
{
1002
}
1000
FieldLen
1070
     1
1070
    -1
1002
{
1002
}
1002
}
1000
24
1070
     6
1002
{
1000
Prompt
1070
     4
1000
(genmsg gendwg 104)
1002
{
1002
}
1000
Value
1070
     4
1000

1002
{
1002
}
1000
EditFlag
1070
     1
1070
     1
1002
{
1002
}
1000
PosInDDATTE
1070
     1
1070
    24
1002
{
1002
}
1000
FieldLen
1070
     1
1070
    -1
1002
{
1002
}
1002
}
1000
25
1070
     6
1002
{
1000
Prompt
1070
     4
1000
(genmsg gendwg 105)
1002
{
1002
}
1000
Value
1070
     4
1000

1002
{
1002
}
1000
EditFlag
1070
     1
1070
     1
1002
{
1002
}
1000
PosInDDATTE
1070
     1
1070
    25
1002
{
1002
}
1000
FieldLen
1070
     1
1070
    -1
1002
{
1002
}
1002
}
1000
26
1070
     6
1002
{
1000
Prompt
1070
     4
1000
(genmsg gendwg 106)
1002
{
1002
}
1000
Value
1070
     4
1000

1002
{
1002
}
1000
EditFlag
1070
     1
1070
     1
1002
{
1002
}
1000
PosInDDATTE
1070
     1
1070
    26
1002
{
1002
}
1000
FieldLen
1070
     1
1070
    -1
1002
{
1002
}
1002
}
1000
27
1070
     6
1002
{
1000
Prompt
1070
     4
1000
(genmsg gendwg 109)
1002
{
1002
}
1000
Value
1070
     4
1000

1002
{
1002
}
1000
EditFlag
1070
     1
1070
     2
1002
{
1002
}
1000
PosInDDATTE
1070
     1
1070
    27
1002
{
1002
}
1000
FieldLen
1070
     1
1070
    -1
1002
{
1002
}
1002
}
1002
}
1000
Xlate
1070
     0
1002
{
1000
>
1002
}
  0
APPID
  5
15C1
330
1576
100
AcDbSymbolTableRecord
100
AcDbRegAppTableRecord
  2
GENIUS_GENCFG2_13
 70
     0
1001
GENIUS_GENCFG_13
1071
1020869926
1000
15C1
1000
GEN@LAYER@DEFS
1070
     9
1000
GenCfgObject
1000
GenCfgShort
1000
GenCfgReal
1000
GenCfgBool
1000
GenCfgString
1000
GenCfgDim
1000
GenCfgAttrInf
1000
GenCfgLaySection
1000
GenCfgLayer
1000
Basic
1070
     0
1002
{
1000
0
1070
     8
1000
0
1002
{
1000
Color
1070
     1
1070
     7
1002
{
1002
}
1000
LType
1070
     4
1000
CONTINUOUS
1002
{
1002
}
1000
Base
1070
     3
1070
     0
1002
{
1002
}
1002
}
1000
1
1070
     8
1000
1
1002
{
1000
Color
1070
     1
1070
    14
1002
{
1002
}
1000
LType
1070
     4
1000
CONTINUOUS
1002
{
1002
}
1000
Base
1070
     3
1070
     0
1002
{
1002
}
1002
}
1000
2
1070
     8
1000
2
1002
{
1000
Color
1070
     1
1070
     5
1002
{
1002
}
1000
LType
1070
     4
1000
CONTINUOUS
1002
{
1002
}
1000
Base
1070
     3
1070
     0
1002
{
1002
}
1002
}
1000
3
1070
     8
1000
3
1002
{
1000
Color
1070
     1
1070
     6
1002
{
1002
}
1000
LType
1070
     4
1000
GEN3
1002
{
1002
}
1000
Base
1070
     3
1070
     0
1002
{
1002
}
1002
}
1000
4
1070
     8
1000
4
1002
{
1000
Color
1070
     1
1070
     3
1002
{
1002
}
1000
LType
1070
     4
1000
CONTINUOUS
1002
{
1002
}
1000
Base
1070
     3
1070
     0
1002
{
1002
}
1002
}
1000
5
1070
     8
1000
5
1002
{
1000
Color
1070
     1
1070
     3
1002
{
1002
}
1000
LType
1070
     4
1000
CONTINUOUS
1002
{
1002
}
1000
Base
1070
     3
1070
     0
1002
{
1002
}
1002
}
1000
6
1070
     8
1000
6
1002
{
1000
Color
1070
     1
1070
     2
1002
{
1002
}
1000
LType
1070
     4
1000
CONTINUOUS
1002
{
1002
}
1000
Base
1070
     3
1070
     0
1002
{
1002
}
1002
}
1000
7
1070
     8
1000
7
1002
{
1000
Color
1070
     1
1070
     4
1002
{
1002
}
1000
LType
1070
     4
1000
GEN7
1002
{
1002
}
1000
Base
1070
     3
1070
     0
1002
{
1002
}
1002
}
1000
8
1070
     8
1000
8
1002
{
1000
Color
1070
     1
1070
     1
1002
{
1002
}
1000
LType
1070
     4
1000
CONTINUOUS
1002
{
1002
}
1000
Base
1070
     3
1070
     0
1002
{
1002
}
1002
}
1000
3A
1070
     8
1000
3A
1002
{
1000
Color
1070
     1
1070
     6
1002
{
1002
}
1000
LType
1070
     4
1000
GEN3A
1002
{
1002
}
1000
Base
1070
     3
1070
     0
1002
{
1002
}
1002
}
1000
7A
1070
     8
1000
7A
1002
{
1000
Color
1070
     1
1070
     4
1002
{
1002
}
1000
LType
1070
     4
1000
GEN7A
1002
{
1002
}
1000
Base
1070
     3
1070
     0
1002
{
1002
}
1002
}
1000
2A
1070
     8
1000
2A
1002
{
1000
Color
1070
     1
1070
     7
1002
{
1002
}
1000
LType
1070
     4
1000
GEN7
1002
{
1002
}
1000
Base
1070
     3
1070
     0
1002
{
1002
}
1002
}
1000
4A
1070
     8
1000
4A
1002
{
1000
Color
1070
     1
1070
     3
1002
{
1002
}
1000
LType
1070
     4
1000
GEN4A
1002
{
1002
}
1000
Base
1070
     3
1070
     0
1002
{
1002
}
1002
}
1000
9
1070
     8
1000
9
1002
{
1000
Color
1070
     1
1070
   253
1002
{
1002
}
1000
LType
1070
     4
1000
CONTINUOUS
1002
{
1002
}
1000
Base
1070
     3
1070
     0
1002
{
1002
}
1002
}
1000
IP
1070
     8
1000
IP
1002
{
1000
Color
1070
     1
1070
     7
1002
{
1002
}
1000
LType
1070
     4
1000
CONTINUOUS
1002
{
1002
}
1000
Base
1070
     3
1070
     0
1002
{
1002
}
1002
}
1002
}
1000
Standard
1070
     0
1002
{
1000
0N
1070
     8
1000
0N
1002
{
1000
Color
1070
     1
1070
     7
1002
{
1002
}
1000
LType
1070
     4
1000
CONTINUOUS
1002
{
1002
}
1000
Base
1070
     3
1070
     0
1002
{
1002
}
1002
}
1000
1N
1070
     8
1000
1N
1002
{
1000
Color
1070
     1
1070
    14
1002
{
1002
}
1000
LType
1070
     4
1000
CONTINUOUS
1002
{
1002
}
1000
Base
1070
     3
1070
     0
1002
{
1002
}
1002
}
1000
2N
1070
     8
1000
2N
1002
{
1000
Color
1070
     1
1070
     5
1002
{
1002
}
1000
LType
1070
     4
1000
CONTINUOUS
1002
{
1002
}
1000
Base
1070
     3
1070
     0
1002
{
1002
}
1002
}
1000
3N
1070
     8
1000
3N
1002
{
1000
Color
1070
     1
1070
     6
1002
{
1002
}
1000
LType
1070
     4
1000
GEN3
1002
{
1002
}
1000
Base
1070
     3
1070
     0
1002
{
1002
}
1002
}
1000
4N
1070
     8
1000
4N
1002
{
1000
Color
1070
     1
1070
     3
1002
{
1002
}
1000
LType
1070
     4
1000
CONTINUOUS
1002
{
1002
}
1000
Base
1070
     3
1070
     0
1002
{
1002
}
1002
}
1000
5N
1070
     8
1000
5N
1002
{
1000
Color
1070
     1
1070
     3
1002
{
1002
}
1000
LType
1070
     4
1000
CONTINUOUS
1002
{
1002
}
1000
Base
1070
     3
1070
     0
1002
{
1002
}
1002
}
1000
6N
1070
     8
1000
6N
1002
{
1000
Color
1070
     1
1070
     2
1002
{
1002
}
1000
LType
1070
     4
1000
CONTINUOUS
1002
{
1002
}
1000
Base
1070
     3
1070
     0
1002
{
1002
}
1002
}
1000
7N
1070
     8
1000
7N
1002
{
1000
Color
1070
     1
1070
     4
1002
{
1002
}
1000
LType
1070
     4
1000
GEN7
1002
{
1002
}
1000
Base
1070
     3
1070
     0
1002
{
1002
}
1002
}
1000
8N
1070
     8
1000
8N
1002
{
1000
Color
1070
     1
1070
     1
1002
{
1002
}
1000
LType
1070
     4
1000
CONTINUOUS
1002
{
1002
}
1000
Base
1070
     3
1070
     0
1002
{
1002
}
1002
}
1000
3AN
1070
     8
1000
3AN
1002
{
1000
Color
1070
     1
1070
     6
1002
{
1002
}
1000
LType
1070
     4
1000
GEN3A
1002
{
1002
}
1000
Base
1070
     3
1070
     0
1002
{
1002
}
1002
}
1000
7AN
1070
     8
1000
7AN
1002
{
1000
Color
1070
     1
1070
     4
1002
{
1002
}
1000
LType
1070
     4
1000
GEN7A
1002
{
1002
}
1000
Base
1070
     3
1070
     0
1002
{
1002
}
1002
}
1000
2AN
1070
     8
1000
2AN
1002
{
1000
Color
1070
     1
1070
     7
1002
{
1002
}
1000
LType
1070
     4
1000
GEN7
1002
{
1002
}
1000
Base
1070
     3
1070
     0
1002
{
1002
}
1002
}
1000
4AN
1070
     8
1000
4AN
1002
{
1000
Color
1070
     1
1070
     3
1002
{
1002
}
1000
LType
1070
     4
1000
GEN4A
1002
{
1002
}
1000
Base
1070
     3
1070
     0
1002
{
1002
}
1002
}
1000
9N
1070
     8
1000
9N
1002
{
1000
Color
1070
     1
1070
   253
1002
{
1002
}
1000
LType
1070
     4
1000
CONTINUOUS
1002
{
1002
}
1000
Base
1070
     3
1070
     0
1002
{
1002
}
1002
}
1000
IPN
1070
     8
1000
IPN
1002
{
1000
Color
1070
     1
1070
     7
1002
{
1002
}
1000
LType
1070
     4
1000
CONTINUOUS
1002
{
1002
}
1000
Base
1070
     3
1070
     0
1002
{
1002
}
1002
}
1002
}
1000
Extra
1070
     0
1002
{
1000
Klin
1070
     8
1000
KLIN
1002
{
1000
Color
1070
     1
1070
     1
1002
{
1002
}
1000
LType
1070
     4
1000
CONTINUOUS
1002
{
1002
}
1000
Base
1070
     3
1070
     1
1002
{
1002
}
1002
}
1000
Info
1070
     8
1000
INFO
1002
{
1000
Color
1070
     1
1070
     4
1002
{
1002
}
1000
LType
1070
     4
1000
CONTINUOUS
1002
{
1002
}
1000
Base
1070
     3
1070
     1
1002
{
1002
}
1002
}
1000
Rahm2
1070
     8
1000
RAHM2
1002
{
1000
Color
1070
     1
1070
     1
1002
{
1002
}
1000
LType
1070
     4
1000
CONTINUOUS
1002
{
1002
}
1000
Base
1070
     3
1070
     1
1002
{
1002
}
1002
}
1000
Rahm3
1070
     8
1000
RAHM3
1002
{
1000
Color
1070
     1
1070
     2
1002
{
1002
}
1000
LType
1070
     4
1000
CONTINUOUS
1002
{
1002
}
1000
Base
1070
     3
1070
     1
1002
{
1002
}
1002
}
1000
Rahm5
1070
     8
1000
RAHM5
1002
{
1000
Color
1070
     1
1070
     7
1002
{
1002
}
1000
LType
1070
     4
1000
CONTINUOUS
1002
{
1002
}
1000
Base
1070
     3
1070
     1
1002
{
1002
}
1002
}
1000
View
1070
     8
1000
VIEW
1002
{
1000
Color
1070
     1
1070
     1
1002
{
1002
}
1000
LType
1070
     4
1000
CONTINUOUS
1002
{
1002
}
1000
Base
1070
     3
1070
     1
1002
{
1002
}
1002
}
1000
Behind
1070
     8
1000
BEHIND
1002
{
1000
Color
1070
     1
1070
   253
1002
{
1002
}
1000
LType
1070
     4
1000
CONTINUOUS
1002
{
1002
}
1000
Base
1070
     3
1070
     1
1002
{
1002
}
1002
}
1002
}
  0
APPID
  5
15C2
330
1576
100
AcDbSymbolTableRecord
100
AcDbRegAppTableRecord
  2
GENIUS_GENCFG3_13
 70
     0
1001
GENIUS_GENCFG_13
1071
1020869926
1000
15C2
1000
GEN@LAYER@ENTSORT
1070
    10
1000
GenCfgObject
1000
GenCfgShort
1000
GenCfgReal
1000
GenCfgBool
1000
GenCfgString
1000
GenCfgDim
1000
GenCfgAttrInf
1000
GenCfgLaySection
1000
GenCfgLayer
1000
GenCfgEntSort
1000
ADDL
1070
     9
1000
5
1002
{
1000
Class
1070
     4
1000
SYM
1002
{
1002
}
1000
Color
1070
     1
1070
     1
1002
{
1002
}
1000
LType
1070
     4
1000
BYLAYER
1002
{
1002
}
1002
}
1000
ALTR
1070
     9
1000
4
1002
{
1000
Class
1070
     4
1000

1002
{
1002
}
1000
Color
1070
     1
1070
     7
1002
{
1002
}
1000
LType
1070
     4
1000
GEN3A
1002
{
1002
}
1002
}
1000
BELI
1070
     9
1000
4
1002
{
1000
Class
1070
     4
1000

1002
{
1002
}
1000
Color
1070
     1
1070
   256
1002
{
1002
}
1000
LType
1070
     4
1000
BYLAYER
1002
{
1002
}
1002
}
1000
BHNV
1070
     9
1000
9
1002
{
1000
Class
1070
     4
1000
INV
1002
{
1002
}
1000
Color
1070
     1
1070
   256
1002
{
1002
}
1000
LType
1070
     4
1000
BYLAYER
1002
{
1002
}
1002
}
1000
BHNVS
1070
     9
1000
BEHIND
1002
{
1000
Class
1070
     4
1000
INV
1002
{
1002
}
1000
Color
1070
     1
1070
   256
1002
{
1002
}
1000
LType
1070
     4
1000
BYLAYER
1002
{
1002
}
1002
}
1000
BLID
1070
     9
1000
4A
1002
{
1000
Class
1070
     4
1000

1002
{
1002
}
1000
Color
1070
     1
1070
   256
1002
{
1002
}
1000
LType
1070
     4
1000
BYLAYER
1002
{
1002
}
1002
}
1000
BOAP
1070
     9
1000
4A
1002
{
1000
Class
1070
     4
1000

1002
{
1002
}
1000
Color
1070
     1
1070
   256
1002
{
1002
}
1000
LType
1070
     4
1000
BYLAYER
1002
{
1002
}
1002
}
1000
BOR2
1070
     9
1000
RAHM2
1002
{
1000
Class
1070
     4
1000
SPZ,SYM
1002
{
1002
}
1000
Color
1070
     1
1070
   256
1002
{
1002
}
1000
LType
1070
     4
1000
BYLAYER
1002
{
1002
}
1002
}
1000
BOR3
1070
     9
1000
RAHM3
1002
{
1000
Class
1070
     4
1000
SPZ,SYM
1002
{
1002
}
1000
Color
1070
     1
1070
   256
1002
{
1002
}
1000
LType
1070
     4
1000
BYLAYER
1002
{
1002
}
1002
}
1000
BOR5
1070
     9
1000
RAHM5
1002
{
1000
Class
1070
     4
1000
SPZ,SYM
1002
{
1002
}
1000
Color
1070
     1
1070
   256
1002
{
1002
}
1000
LType
1070
     4
1000
BYLAYER
1002
{
1002
}
1002
}
1000
BOR7
1070
     9
1000
RAHM5
1002
{
1000
Class
1070
     4
1000
SPZ,SYM
1002
{
1002
}
1000
Color
1070
     1
1070
     7
1002
{
1002
}
1000
LType
1070
     4
1000
CONTINUOUS
1002
{
1002
}
1002
}
1000
BPAP
1070
     9
1000
4A
1002
{
1000
Class
1070
     4
1000

1002
{
1002
}
1000
Color
1070
     1
1070
   256
1002
{
1002
}
1000
LType
1070
     4
1000
BYLAYER
1002
{
1002
}
1002
}
1000
BPEX
1070
     9
1000
4A
1002
{
1000
Class
1070
     4
1000

1002
{
1002
}
1000
Color
1070
     1
1070
   256
1002
{
1002
}
1000
LType
1070
     4
1000
BYLAYER
1002
{
1002
}
1002
}
1000
BTDI
1070
     9
1000
5
1002
{
1000
Class
1070
     4
1000
DIM,SYM
1002
{
1002
}
1000
Color
1070
     1
1070
   256
1002
{
1002
}
1000
LType
1070
     4
1000
BYLAYER
1002
{
1002
}
1002
}
1000
CAL2
1070
     9
1000
4
1002
{
1000
Class
1070
     4
1000
SYM
1002
{
1002
}
1000
Color
1070
     1
1070
   256
1002
{
1002
}
1000
LType
1070
     4
1000
BYLAYER
1002
{
1002
}
1002
}
1000
CAL3
1070
     9
1000
4
1002
{
1000
Class
1070
     4
1000
SYM
1002
{
1002
}
1000
Color
1070
     1
1070
     2
1002
{
1002
}
1000
LType
1070
     4
1000
BYLAYER
1002
{
1002
}
1002
}
1000
CAL5
1070
     9
1000
4
1002
{
1000
Class
1070
     4
1000
SYM
1002
{
1002
}
1000
Color
1070
     1
1070
     7
1002
{
1002
}
1000
LType
1070
     4
1000
BYLAYER
1002
{
1002
}
1002
}
1000
CAL7
1070
     9
1000
4
1002
{
1000
Class
1070
     4
1000
SYM
1002
{
1002
}
1000
Color
1070
     1
1070
     5
1002
{
1002
}
1000
LType
1070
     4
1000
BYLAYER
1002
{
1002
}
1002
}
1000
CENN
1070
     9
1000
7A
1002
{
1000
Class
1070
     4
1000
CEN
1002
{
1002
}
1000
Color
1070
     1
1070
   256
1002
{
1002
}
1000
LType
1070
     4
1000
BYLAYER
1002
{
1002
}
1002
}
1000
CENW
1070
     9
1000
7
1002
{
1000
Class
1070
     4
1000
CEN
1002
{
1002
}
1000
Color
1070
     1
1070
   256
1002
{
1002
}
1000
LType
1070
     4
1000
BYLAYER
1002
{
1002
}
1002
}
1000
CLIN
1070
     9
1000
KLIN
1002
{
1000
Class
1070
     4
1000
SPZ
1002
{
1002
}
1000
Color
1070
     1
1070
   256
1002
{
1002
}
1000
LType
1070
     4
1000
BYLAYER
1002
{
1002
}
1002
}
1000
CON1
1070
     9
1000
0
1002
{
1000
Class
1070
     4
1000
CON,BGD
1002
{
1002
}
1000
Color
1070
     1
1070
   256
1002
{
1002
}
1000
LType
1070
     4
1000
BYLAYER
1002
{
1002
}
1002
}
1000
CON2
1070
     9
1000
1
1002
{
1000
Class
1070
     4
1000
CON,BGD
1002
{
1002
}
1000
Color
1070
     1
1070
   256
1002
{
1002
}
1000
LType
1070
     4
1000
BYLAYER
1002
{
1002
}
1002
}
1000
CON3
1070
     9
1000
2
1002
{
1000
Class
1070
     4
1000
CON,BGD
1002
{
1002
}
1000
Color
1070
     1
1070
   256
1002
{
1002
}
1000
LType
1070
     4
1000
BYLAYER
1002
{
1002
}
1002
}
1000
CON4
1070
     9
1000
2
1002
{
1000
Class
1070
     4
1000
CON,BGD
1002
{
1002
}
1000
Color
1070
     1
1070
   256
1002
{
1002
}
1000
LType
1070
     4
1000
BYLAYER
1002
{
1002
}
1002
}
1000
DERP
1070
     9
1000
4
1002
{
1000
Class
1070
     4
1000

1002
{
1002
}
1000
Color
1070
     1
1070
   256
1002
{
1002
}
1000
LType
1070
     4
1000
BYLAYER
1002
{
1002
}
1002
}
1000
DETA
1070
     9
1000
4
1002
{
1000
Class
1070
     4
1000

1002
{
1002
}
1000
Color
1070
     1
1070
   256
1002
{
1002
}
1000
LType
1070
     4
1000
BYLAYER
1002
{
1002
}
1002
}
1000
DIAG
1070
     9
1000
5
1002
{
1000
Class
1070
     4
1000
SYM
1002
{
1002
}
1000
Color
1070
     1
1070
   256
1002
{
1002
}
1000
LType
1070
     4
1000
BYLAYER
1002
{
1002
}
1002
}
1000
DILI
1070
     9
1000
5
1002
{
1000
Class
1070
     4
1000
DIM,SYM
1002
{
1002
}
1000
Color
1070
     1
1070
   256
1002
{
1002
}
1000
LType
1070
     4
1000
BYLAYER
1002
{
1002
}
1002
}
1000
DITO2
1070
     9
1000
5
1002
{
1000
Class
1070
     4
1000
DIM,SYM
1002
{
1002
}
1000
Color
1070
     1
1070
     3
1002
{
1002
}
1000
LType
1070
     4
1000
BYLAYER
1002
{
1002
}
1002
}
1000
DITO3
1070
     9
1000
5
1002
{
1000
Class
1070
     4
1000
DIM,SYM
1002
{
1002
}
1000
Color
1070
     1
1070
     2
1002
{
1002
}
1000
LType
1070
     4
1000
BYLAYER
1002
{
1002
}
1002
}
1000
DITX
1070
     9
1000
5
1002
{
1000
Class
1070
     4
1000
DIM,SYM
1002
{
1002
}
1000
Color
1070
     1
1070
     2
1002
{
1002
}
1000
LType
1070
     4
1000
CONTINUOUS
1002
{
1002
}
1002
}
1000
DIXL
1070
     9
1000
5
1002
{
1000
Class
1070
     4
1000
DIM,SYM
1002
{
1002
}
1000
Color
1070
     1
1070
   256
1002
{
1002
}
1000
LType
1070
     4
1000
BYLAYER
1002
{
1002
}
1002
}
1000
EXMP
1070
     9
1000
4A
1002
{
1000
Class
1070
     4
1000

1002
{
1002
}
1000
Color
1070
     1
1070
   256
1002
{
1002
}
1000
LType
1070
     4
1000
BYLAYER
1002
{
1002
}
1002
}
1000
FEMN
1070
     9
1000
8
1002
{
1000
Class
1070
     4
1000

1002
{
1002
}
1000
Color
1070
     1
1070
   256
1002
{
1002
}
1000
LType
1070
     4
1000
BYLAYER
1002
{
1002
}
1002
}
1000
FEMPN
1070
     9
1000
8
1002
{
1000
Class
1070
     4
1000
SYM
1002
{
1002
}
1000
Color
1070
     1
1070
     3
1002
{
1002
}
1000
LType
1070
     4
1000
BYLAYER
1002
{
1002
}
1002
}
1000
FEMSP
1070
     9
1000
4A
1002
{
1000
Class
1070
     4
1000

1002
{
1002
}
1000
Color
1070
     1
1070
   256
1002
{
1002
}
1000
LType
1070
     4
1000
CONTINUOUS
1002
{
1002
}
1002
}
1000
FEMST
1070
     9
1000
4A
1002
{
1000
Class
1070
     4
1000
SYM
1002
{
1002
}
1000
Color
1070
     1
1070
     3
1002
{
1002
}
1000
LType
1070
     4
1000
BYLAYER
1002
{
1002
}
1002
}
1000
FEMVN
1070
     9
1000
2
1002
{
1000
Class
1070
     4
1000
CON
1002
{
1002
}
1000
Color
1070
     1
1070
   256
1002
{
1002
}
1000
LType
1070
     4
1000
BYLAYER
1002
{
1002
}
1002
}
1000
FEMVT
1070
     9
1000
2
1002
{
1000
Class
1070
     4
1000
SYM
1002
{
1002
}
1000
Color
1070
     1
1070
     3
1002
{
1002
}
1000
LType
1070
     4
1000
BYLAYER
1002
{
1002
}
1002
}
1000
FLAT
1070
     9
1000
0
1002
{
1000
Class
1070
     4
1000

1002
{
1002
}
1000
Color
1070
     1
1070
   256
1002
{
1002
}
1000
LType
1070
     4
1000
BYLAYER
1002
{
1002
}
1002
}
1000
FRAR
1070
     9
1000
4A
1002
{
1000
Class
1070
     4
1000

1002
{
1002
}
1000
Color
1070
     1
1070
   256
1002
{
1002
}
1000
LType
1070
     4
1000
BYLAYER
1002
{
1002
}
1002
}
1000
GRLI
1070
     9
1000
5
1002
{
1000
Class
1070
     4
1000
SYM
1002
{
1002
}
1000
Color
1070
     1
1070
   256
1002
{
1002
}
1000
LType
1070
     4
1000
BYLAYER
1002
{
1002
}
1002
}
1000
GVLI
1070
     9
1000
4A
1002
{
1000
Class
1070
     4
1000

1002
{
1002
}
1000
Color
1070
     1
1070
   256
1002
{
1002
}
1000
LType
1070
     4
1000
BYLAYER
1002
{
1002
}
1002
}
1000
HATC
1070
     9
1000
8
1002
{
1000
Class
1070
     4
1000
HTC,BGD
1002
{
1002
}
1000
Color
1070
     1
1070
   256
1002
{
1002
}
1000
LType
1070
     4
1000
BYLAYER
1002
{
1002
}
1002
}
1000
HIDN
1070
     9
1000
3A
1002
{
1000
Class
1070
     4
1000
HID,BGD
1002
{
1002
}
1000
Color
1070
     1
1070
   256
1002
{
1002
}
1000
LType
1070
     4
1000
BYLAYER
1002
{
1002
}
1002
}
1000
HIDW
1070
     9
1000
3
1002
{
1000
Class
1070
     4
1000
HID,BGD
1002
{
1002
}
1000
Color
1070
     1
1070
   256
1002
{
1002
}
1000
LType
1070
     4
1000
BYLAYER
1002
{
1002
}
1002
}
1000
HLIN
1070
     9
1000
4
1002
{
1000
Class
1070
     4
1000
BGD
1002
{
1002
}
1000
Color
1070
     1
1070
   256
1002
{
1002
}
1000
LType
1070
     4
1000
BYLAYER
1002
{
1002
}
1002
}
1000
HOCN
1070
     9
1000
7A
1002
{
1000
Class
1070
     4
1000
CEN
1002
{
1002
}
1000
Color
1070
     1
1070
   256
1002
{
1002
}
1000
LType
1070
     4
1000
BYLAYER
1002
{
1002
}
1002
}
1000
HOCW
1070
     9
1000
7
1002
{
1000
Class
1070
     4
1000
CEN
1002
{
1002
}
1000
Color
1070
     1
1070
   256
1002
{
1002
}
1000
LType
1070
     4
1000
BYLAYER
1002
{
1002
}
1002
}
1000
INFO
1070
     9
1000
INFO
1002
{
1000
Class
1070
     4
1000
SPZ,SYM
1002
{
1002
}
1000
Color
1070
     1
1070
   256
1002
{
1002
}
1000
LType
1070
     4
1000
BYLAYER
1002
{
1002
}
1002
}
1000
LADI
1070
     9
1000
4
1002
{
1000
Class
1070
     4
1000
BGD
1002
{
1002
}
1000
Color
1070
     1
1070
   256
1002
{
1002
}
1000
LType
1070
     4
1000
BYLAYER
1002
{
1002
}
1002
}
1000
LEAD
1070
     9
1000
5
1002
{
1000
Class
1070
     4
1000
SYM
1002
{
1002
}
1000
Color
1070
     1
1070
   256
1002
{
1002
}
1000
LType
1070
     4
1000
BYLAYER
1002
{
1002
}
1002
}
1000
N_ADDL
1070
     9
1000
5N
1002
{
1000
Class
1070
     4
1000
SYM
1002
{
1002
}
1000
Color
1070
     1
1070
     1
1002
{
1002
}
1000
LType
1070
     4
1000
BYLAYER
1002
{
1002
}
1002
}
1000
N_BHNV
1070
     9
1000
9N
1002
{
1000
Class
1070
     4
1000
INV
1002
{
1002
}
1000
Color
1070
     1
1070
   256
1002
{
1002
}
1000
LType
1070
     4
1000
BYLAYER
1002
{
1002
}
1002
}
1000
N_CON1
1070
     9
1000
0N
1002
{
1000
Class
1070
     4
1000
CON,BGD
1002
{
1002
}
1000
Color
1070
     1
1070
   256
1002
{
1002
}
1000
LType
1070
     4
1000
BYLAYER
1002
{
1002
}
1002
}
1000
N_CON2
1070
     9
1000
1N
1002
{
1000
Class
1070
     4
1000
CON,BGD
1002
{
1002
}
1000
Color
1070
     1
1070
   256
1002
{
1002
}
1000
LType
1070
     4
1000
BYLAYER
1002
{
1002
}
1002
}
1000
N_CON3
1070
     9
1000
2N
1002
{
1000
Class
1070
     4
1000
CON,BGD
1002
{
1002
}
1000
Color
1070
     1
1070
   256
1002
{
1002
}
1000
LType
1070
     4
1000
BYLAYER
1002
{
1002
}
1002
}
1000
N_CON4
1070
     9
1000
2N
1002
{
1000
Class
1070
     4
1000
CON,BGD
1002
{
1002
}
1000
Color
1070
     1
1070
   256
1002
{
1002
}
1000
LType
1070
     4
1000
BYLAYER
1002
{
1002
}
1002
}
1000
N_CENN
1070
     9
1000
7AN
1002
{
1000
Class
1070
     4
1000
CEN
1002
{
1002
}
1000
Color
1070
     1
1070
   256
1002
{
1002
}
1000
LType
1070
     4
1000
BYLAYER
1002
{
1002
}
1002
}
1000
N_CENW
1070
     9
1000
7N
1002
{
1000
Class
1070
     4
1000
CEN
1002
{
1002
}
1000
Color
1070
     1
1070
   256
1002
{
1002
}
1000
LType
1070
     4
1000
BYLAYER
1002
{
1002
}
1002
}
1000
N_DILI
1070
     9
1000
5N
1002
{
1000
Class
1070
     4
1000
DIM,SYM
1002
{
1002
}
1000
Color
1070
     1
1070
   256
1002
{
1002
}
1000
LType
1070
     4
1000
BYLAYER
1002
{
1002
}
1002
}
1000
N_DITX
1070
     9
1000
5N
1002
{
1000
Class
1070
     4
1000
DIM,SYM
1002
{
1002
}
1000
Color
1070
     1
1070
     2
1002
{
1002
}
1000
LType
1070
     4
1000
CONTINUOUS
1002
{
1002
}
1002
}
1000
N_DIXL
1070
     9
1000
5N
1002
{
1000
Class
1070
     4
1000
DIM,SYM
1002
{
1002
}
1000
Color
1070
     1
1070
   256
1002
{
1002
}
1000
LType
1070
     4
1000
BYLAYER
1002
{
1002
}
1002
}
1000
N_HATC
1070
     9
1000
8N
1002
{
1000
Class
1070
     4
1000
HTC,BGD
1002
{
1002
}
1000
Color
1070
     1
1070
   256
1002
{
1002
}
1000
LType
1070
     4
1000
BYLAYER
1002
{
1002
}
1002
}
1000
N_HIDN
1070
     9
1000
3AN
1002
{
1000
Class
1070
     4
1000
HID,BGD
1002
{
1002
}
1000
Color
1070
     1
1070
   256
1002
{
1002
}
1000
LType
1070
     4
1000
BYLAYER
1002
{
1002
}
1002
}
1000
N_HIDW
1070
     9
1000
3N
1002
{
1000
Class
1070
     4
1000
HID,BGD
1002
{
1002
}
1000
Color
1070
     1
1070
   256
1002
{
1002
}
1000
LType
1070
     4
1000
BYLAYER
1002
{
1002
}
1002
}
1000
N_NGIP
1070
     9
1000
IPN
1002
{
1000
Class
1070
     4
1000

1002
{
1002
}
1000
Color
1070
     1
1070
   256
1002
{
1002
}
1000
LType
1070
     4
1000
BYLAYER
1002
{
1002
}
1002
}
1000
N_PHAN
1070
     9
1000
4AN
1002
{
1000
Class
1070
     4
1000

1002
{
1002
}
1000
Color
1070
     1
1070
   256
1002
{
1002
}
1000
LType
1070
     4
1000
BYLAYER
1002
{
1002
}
1002
}
1000
N_POSL
1070
     9
1000
5N
1002
{
1000
Class
1070
     4
1000
SYM
1002
{
1002
}
1000
Color
1070
     1
1070
   256
1002
{
1002
}
1000
LType
1070
     4
1000
BYLAYER
1002
{
1002
}
1002
}
1000
N_TCON
1070
     9
1000
0N
1002
{
1000
Class
1070
     4
1000
CON,BGD
1002
{
1002
}
1000
Color
1070
     1
1070
   256
1002
{
1002
}
1000
LType
1070
     4
1000
BYLAYER
1002
{
1002
}
1002
}
1000
N_THLI
1070
     9
1000
4N
1002
{
1000
Class
1070
     4
1000
BGD
1002
{
1002
}
1000
Color
1070
     1
1070
   256
1002
{
1002
}
1000
LType
1070
     4
1000
BYLAYER
1002
{
1002
}
1002
}
1000
N_TLEN
1070
     9
1000
0N
1002
{
1000
Class
1070
     4
1000
CON,BGD
1002
{
1002
}
1000
Color
1070
     1
1070
   256
1002
{
1002
}
1000
LType
1070
     4
1000
BYLAYER
1002
{
1002
}
1002
}
1000
N_TXT3
1070
     9
1000
6N
1002
{
1000
Class
1070
     4
1000
SYM
1002
{
1002
}
1000
Color
1070
     1
1070
   256
1002
{
1002
}
1000
LType
1070
     4
1000
BYLAYER
1002
{
1002
}
1002
}
1000
N_VPLI
1070
     9
1000
2AN
1002
{
1000
Class
1070
     4
1000

1002
{
1002
}
1000
Color
1070
     1
1070
   256
1002
{
1002
}
1000
LType
1070
     4
1000
BYLAYER
1002
{
1002
}
1002
}
1000
NGIP
1070
     9
1000
IP
1002
{
1000
Class
1070
     4
1000

1002
{
1002
}
1000
Color
1070
     1
1070
   256
1002
{
1002
}
1000
LType
1070
     4
1000
BYLAYER
1002
{
1002
}
1002
}
1000
PAL2
1070
     9
1000
RAHM2
1002
{
1000
Class
1070
     4
1000
SPZ,SYM
1002
{
1002
}
1000
Color
1070
     1
1070
   256
1002
{
1002
}
1000
LType
1070
     4
1000
BYLAYER
1002
{
1002
}
1002
}
1000
PAL3
1070
     9
1000
RAHM3
1002
{
1000
Class
1070
     4
1000
SPZ,SYM
1002
{
1002
}
1000
Color
1070
     1
1070
   256
1002
{
1002
}
1000
LType
1070
     4
1000
BYLAYER
1002
{
1002
}
1002
}
1000
PAL5
1070
     9
1000
RAHM5
1002
{
1000
Class
1070
     4
1000
SPZ,SYM
1002
{
1002
}
1000
Color
1070
     1
1070
   256
1002
{
1002
}
1000
LType
1070
     4
1000
BYLAYER
1002
{
1002
}
1002
}
1000
PAL7
1070
     9
1000
RAHM5
1002
{
1000
Class
1070
     4
1000
SPZ,SYM
1002
{
1002
}
1000
Color
1070
     1
1070
     7
1002
{
1002
}
1000
LType
1070
     4
1000
CONTINUOUS
1002
{
1002
}
1002
}
1000
PHAN
1070
     9
1000
4A
1002
{
1000
Class
1070
     4
1000

1002
{
1002
}
1000
Color
1070
     1
1070
   256
1002
{
1002
}
1000
LType
1070
     4
1000
BYLAYER
1002
{
1002
}
1002
}
1000
POSL
1070
     9
1000
5
1002
{
1000
Class
1070
     4
1000
SYM
1002
{
1002
}
1000
Color
1070
     1
1070
   256
1002
{
1002
}
1000
LType
1070
     4
1000
BYLAYER
1002
{
1002
}
1002
}
1000
POSN
1070
     9
1000
6
1002
{
1000
Class
1070
     4
1000
SYM
1002
{
1002
}
1000
Color
1070
     1
1070
     7
1002
{
1002
}
1000
LType
1070
     4
1000
BYLAYER
1002
{
1002
}
1002
}
1000
POSREF
1070
     9
1000
6
1002
{
1000
Class
1070
     4
1000
SYM
1002
{
1002
}
1000
Color
1070
     1
1070
     5
1002
{
1002
}
1000
LType
1070
     4
1000
BYLAYER
1002
{
1002
}
1002
}
1000
POSX
1070
     9
1000
5
1002
{
1000
Class
1070
     4
1000
SYM
1002
{
1002
}
1000
Color
1070
     1
1070
     2
1002
{
1002
}
1000
LType
1070
     4
1000
CONTINUOUS
1002
{
1002
}
1002
}
1000
PSEC
1070
     9
1000
4A
1002
{
1000
Class
1070
     4
1000

1002
{
1002
}
1000
Color
1070
     1
1070
   256
1002
{
1002
}
1000
LType
1070
     4
1000
BYLAYER
1002
{
1002
}
1002
}
1000
RCGN
1070
     9
1000
7A
1002
{
1000
Class
1070
     4
1000
CEN
1002
{
1002
}
1000
Color
1070
     1
1070
   256
1002
{
1002
}
1000
LType
1070
     4
1000
BYLAYER
1002
{
1002
}
1002
}
1000
RCGW
1070
     9
1000
7
1002
{
1000
Class
1070
     4
1000
CEN
1002
{
1002
}
1000
Color
1070
     1
1070
   256
1002
{
1002
}
1000
LType
1070
     4
1000
BYLAYER
1002
{
1002
}
1002
}
1000
RFDI
1070
     9
1000
4
1002
{
1000
Class
1070
     4
1000
BGD
1002
{
1002
}
1000
Color
1070
     1
1070
   256
1002
{
1002
}
1000
LType
1070
     4
1000
BYLAYER
1002
{
1002
}
1002
}
1000
RQTR
1070
     9
1000
4
1002
{
1000
Class
1070
     4
1000

1002
{
1002
}
1000
Color
1070
     1
1070
     7
1002
{
1002
}
1000
LType
1070
     4
1000
GEN7A
1002
{
1002
}
1002
}
1000
RSBO
1070
     9
1000
4
1002
{
1000
Class
1070
     4
1000
BGD
1002
{
1002
}
1000
Color
1070
     1
1070
   256
1002
{
1002
}
1000
LType
1070
     4
1000
BYLAYER
1002
{
1002
}
1002
}
1000
SBRK
1070
     9
1000
4
1002
{
1000
Class
1070
     4
1000
BGD
1002
{
1002
}
1000
Color
1070
     1
1070
   256
1002
{
1002
}
1000
LType
1070
     4
1000
BYLAYER
1002
{
1002
}
1002
}
1000
SCEN
1070
     9
1000
7
1002
{
1000
Class
1070
     4
1000

1002
{
1002
}
1000
Color
1070
     1
1070
   256
1002
{
1002
}
1000
LType
1070
     4
1000
CONTINUOUS
1002
{
1002
}
1002
}
1000
SECT
1070
     9
1000
4
1002
{
1000
Class
1070
     4
1000
BGD
1002
{
1002
}
1000
Color
1070
     1
1070
   256
1002
{
1002
}
1000
LType
1070
     4
1000
BYLAYER
1002
{
1002
}
1002
}
1000
SELN
1070
     9
1000
7A
1002
{
1000
Class
1070
     4
1000

1002
{
1002
}
1000
Color
1070
     1
1070
   256
1002
{
1002
}
1000
LType
1070
     4
1000
BYLAYER
1002
{
1002
}
1002
}
1000
SELW
1070
     9
1000
7
1002
{
1000
Class
1070
     4
1000

1002
{
1002
}
1000
Color
1070
     1
1070
   256
1002
{
1002
}
1000
LType
1070
     4
1000
BYLAYER
1002
{
1002
}
1002
}
1000
SSYS
1070
     9
1000
0
1002
{
1000
Class
1070
     4
1000

1002
{
1002
}
1000
Color
1070
     1
1070
   256
1002
{
1002
}
1000
LType
1070
     4
1000
BYLAYER
1002
{
1002
}
1002
}
1000
STLI
1070
     9
1000
4
1002
{
1000
Class
1070
     4
1000

1002
{
1002
}
1000
Color
1070
     1
1070
     7
1002
{
1002
}
1000
LType
1070
     4
1000
GEN3A
1002
{
1002
}
1002
}
1000
SYB1
1070
     9
1000
5
1002
{
1000
Class
1070
     4
1000
SYM
1002
{
1002
}
1000
Color
1070
     1
1070
   256
1002
{
1002
}
1000
LType
1070
     4
1000
BYLAYER
1002
{
1002
}
1002
}
1000
SYB2
1070
     9
1000
5
1002
{
1000
Class
1070
     4
1000
SYM
1002
{
1002
}
1000
Color
1070
     1
1070
   256
1002
{
1002
}
1000
LType
1070
     4
1000
BYLAYER
1002
{
1002
}
1002
}
1000
SYB3
1070
     9
1000
6
1002
{
1000
Class
1070
     4
1000
SYM
1002
{
1002
}
1000
Color
1070
     1
1070
   256
1002
{
1002
}
1000
LType
1070
     4
1000
CONTINUOUS
1002
{
1002
}
1002
}
1000
SYB5
1070
     9
1000
5
1002
{
1000
Class
1070
     4
1000
SYM
1002
{
1002
}
1000
Color
1070
     1
1070
     7
1002
{
1002
}
1000
LType
1070
     4
1000
BYLAYER
1002
{
1002
}
1002
}
1000
SYMN
1070
     9
1000
7A
1002
{
1000
Class
1070
     4
1000
CEN
1002
{
1002
}
1000
Color
1070
     1
1070
   256
1002
{
1002
}
1000
LType
1070
     4
1000
BYLAYER
1002
{
1002
}
1002
}
1000
SYMW
1070
     9
1000
7
1002
{
1000
Class
1070
     4
1000
CEN
1002
{
1002
}
1000
Color
1070
     1
1070
   256
1002
{
1002
}
1000
LType
1070
     4
1000
BYLAYER
1002
{
1002
}
1002
}
1000
TCON
1070
     9
1000
0
1002
{
1000
Class
1070
     4
1000
CON,BGD
1002
{
1002
}
1000
Color
1070
     1
1070
   256
1002
{
1002
}
1000
LType
1070
     4
1000
BYLAYER
1002
{
1002
}
1002
}
1000
THLI
1070
     9
1000
4
1002
{
1000
Class
1070
     4
1000
BGD
1002
{
1002
}
1000
Color
1070
     1
1070
   256
1002
{
1002
}
1000
LType
1070
     4
1000
BYLAYER
1002
{
1002
}
1002
}
1000
TIT2
1070
     9
1000
RAHM2
1002
{
1000
Class
1070
     4
1000
SPZ,SYM
1002
{
1002
}
1000
Color
1070
     1
1070
   256
1002
{
1002
}
1000
LType
1070
     4
1000
BYLAYER
1002
{
1002
}
1002
}
1000
TIT3
1070
     9
1000
RAHM3
1002
{
1000
Class
1070
     4
1000
SPZ,SYM
1002
{
1002
}
1000
Color
1070
     1
1070
   256
1002
{
1002
}
1000
LType
1070
     4
1000
BYLAYER
1002
{
1002
}
1002
}
1000
TIT5
1070
     9
1000
RAHM5
1002
{
1000
Class
1070
     4
1000
SPZ,SYM
1002
{
1002
}
1000
Color
1070
     1
1070
   256
1002
{
1002
}
1000
LType
1070
     4
1000
BYLAYER
1002
{
1002
}
1002
}
1000
TIT7
1070
     9
1000
RAHM5
1002
{
1000
Class
1070
     4
1000
SPZ,SYM
1002
{
1002
}
1000
Color
1070
     1
1070
     7
1002
{
1002
}
1000
LType
1070
     4
1000
CONTINUOUS
1002
{
1002
}
1002
}
1000
TLEN
1070
     9
1000
0
1002
{
1000
Class
1070
     4
1000
CON,BGD
1002
{
1002
}
1000
Color
1070
     1
1070
   256
1002
{
1002
}
1000
LType
1070
     4
1000
BYLAYER
1002
{
1002
}
1002
}
1000
TRKN
1070
     9
1000
7A
1002
{
1000
Class
1070
     4
1000

1002
{
1002
}
1000
Color
1070
     1
1070
   256
1002
{
1002
}
1000
LType
1070
     4
1000
BYLAYER
1002
{
1002
}
1002
}
1000
TRKW
1070
     9
1000
7
1002
{
1000
Class
1070
     4
1000

1002
{
1002
}
1000
Color
1070
     1
1070
   256
1002
{
1002
}
1000
LType
1070
     4
1000
BYLAYER
1002
{
1002
}
1002
}
1000
TRLI
1070
     9
1000
4
1002
{
1000
Class
1070
     4
1000
BGD
1002
{
1002
}
1000
Color
1070
     1
1070
   256
1002
{
1002
}
1000
LType
1070
     4
1000
BYLAYER
1002
{
1002
}
1002
}
1000
TXT1
1070
     9
1000
6
1002
{
1000
Class
1070
     4
1000
SYM
1002
{
1002
}
1000
Color
1070
     1
1070
     2
1002
{
1002
}
1000
LType
1070
     4
1000
BYLAYER
1002
{
1002
}
1002
}
1000
TXT2
1070
     9
1000
6
1002
{
1000
Class
1070
     4
1000
SYM
1002
{
1002
}
1000
Color
1070
     1
1070
     2
1002
{
1002
}
1000
LType
1070
     4
1000
BYLAYER
1002
{
1002
}
1002
}
1000
TXT3
1070
     9
1000
6
1002
{
1000
Class
1070
     4
1000
SYM
1002
{
1002
}
1000
Color
1070
     1
1070
   256
1002
{
1002
}
1000
LType
1070
     4
1000
BYLAYER
1002
{
1002
}
1002
}
1000
TXT5
1070
     9
1000
6
1002
{
1000
Class
1070
     4
1000
SYM
1002
{
1002
}
1000
Color
1070
     1
1070
     7
1002
{
1002
}
1000
LType
1070
     4
1000
BYLAYER
1002
{
1002
}
1002
}
1000
TXT7
1070
     9
1000
6
1002
{
1000
Class
1070
     4
1000
SYM
1002
{
1002
}
1000
Color
1070
     1
1070
     7
1002
{
1002
}
1000
LType
1070
     4
1000
BYLAYER
1002
{
1002
}
1002
}
1000
VIEW
1070
     9
1000
VIEW
1002
{
1000
Class
1070
     4
1000
SPZ
1002
{
1002
}
1000
Color
1070
     1
1070
   256
1002
{
1002
}
1000
LType
1070
     4
1000
BYLAYER
1002
{
1002
}
1002
}
1000
VPLI
1070
     9
1000
2A
1002
{
1000
Class
1070
     4
1000

1002
{
1002
}
1000
Color
1070
     1
1070
   256
1002
{
1002
}
1000
LType
1070
     4
1000
BYLAYER
1002
{
1002
}
1002
}
1000
ZIZA
1070
     9
1000
4
1002
{
1000
Class
1070
     4
1000
BGD
1002
{
1002
}
1000
Color
1070
     1
1070
   256
1002
{
1002
}
1000
LType
1070
     4
1000
GENZIGZAG
1002
{
1002
}
1002
}
  0
APPID
  5
15C3
330
1576
100
AcDbSymbolTableRecord
100
AcDbRegAppTableRecord
  2
GENIUS_GENCFG4_13
 70
     0
1001
GENIUS_GENCFG_13
1071
1020869962
1000
15C3
1000
GEN
1070
     9
1000
GenCfgObject
1000
GenCfgShort
1000
GenCfgReal
1000
GenCfgBool
1000
GenCfgString
1000
GenCfgDim
1000
GenCfgLaySection
1000
GenCfgLType
1000
GenCfgFilter
1000
Balloon
1070
     0
1002
{
1000
GenIF
1070
     1
1070
     0
1002
{
1002
}
1000
GenPosInc
1070
     1
1070
     1
1002
{
1002
}
1000
GenPosBlk
1070
     1
1070
     8
1002
{
1002
}
1000
GenPosVar
1070
     1
1070
     0
1002
{
1002
}
1000
GenZiCir
1070
     2
1040
1.5
1002
{
1002
}
1000
MaxCharForCenteredText
1070
     1
1070
    30
1002
{
1002
}
1000
Snap
1070
     0
1002
{
1000
ActivationRadius
1070
     2
1040
1.0
1002
{
1002
}
1000
M
1070
     0
1002
{
1000
SnapStepX
1070
     2
1040
20.0
1002
{
1002
}
1000
SnapStepY
1070
     2
1040
10.0
1002
{
1002
}
1002
}
1000
I
1070
     0
1002
{
1000
SnapStepX
1070
     2
1040
1.0
1002
{
1002
}
1000
SnapStepY
1070
     2
1040
0.5
1002
{
1002
}
1002
}
1002
}
1002
}
1000
Centerline
1070
     0
1002
{
1000
ScaleNot
1070
     3
1070
     0
1002
{
1002
}
1000
M
1070
     0
1002
{
1000
GenCenAng
1070
     4
1000
45|90|135
1002
{
1002
}
1000
GenCenDia
1070
     2
1040
10.0
1002
{
1002
}
1000
GenCenDias
1070
     4
1000
10|20|30
1002
{
1002
}
1000
GenCenDist
1070
     2
1040
3.0
1002
{
1002
}
1000
GenCenLen
1070
     2
1040
10.0
1002
{
1002
}
1000
GenCenOff
1070
     2
1040
10.0
1002
{
1002
}
1002
}
1000
I
1070
     0
1002
{
1000
GenCenAng
1070
     4
1000
45|90|135
1002
{
1002
}
1000
GenCenDia
1070
     2
1040
0.5
1002
{
1002
}
1000
GenCenDias
1070
     4
1000
0.5|1.0|1.5
1002
{
1002
}
1000
GenCenDist
1070
     2
1040
0.125
1002
{
1002
}
1000
GenCenLen
1070
     2
1040
0.5
1002
{
1002
}
1000
GenCenOff
1070
     2
1040
0.5
1002
{
1002
}
1002
}
1002
}
1000
CLine
1070
     0
1002
{
1000
CAngArray
1070
     4
1000
30|45|60
1002
{
1002
}
1000
Typ
1070
     4
1000
XLINE
1002
{
1002
}
1000
M
1070
     0
1002
{
1000
CLinArray
1070
     4
1000
10|20|30
1002
{
1002
}
1002
}
1000
I
1070
     0
1002
{
1000
CLinArray
1070
     4
1000
0.125|0.25|0.5
1002
{
1002
}
1002
}
1002
}
1000
Detail
1070
     0
1002
{
1002
}
1000
Dimension
1070
     5
1002
{
1000
DIMALT
1070
     1
1070
     0
1002
{
1002
}
1000
DIMALTD
1070
     1
1070
     2
1002
{
1002
}
1000
DIMALTTD
1070
     1
1070
     4
1002
{
1002
}
1000
DIMALTTZ
1070
     1
1070
     0
1002
{
1002
}
1000
DIMALTU
1070
     1
1070
     2
1002
{
1002
}
1000
DIMALTZ
1070
     1
1070
     0
1002
{
1002
}
1000
DIMAUNIT
1070
     1
1070
     0
1002
{
1002
}
1000
DIMBLK
1070
     4
1000

1002
{
1002
}
1000
DIMBLK1
1070
     4
1000

1002
{
1002
}
1000
DIMBLK2
1070
     4
1000

1002
{
1002
}
1000
DIMCLRD
1070
     1
1070
   256
1002
{
1002
}
1000
DIMCLRE
1070
     1
1070
   256
1002
{
1002
}
1000
DIMCLRT
1070
     1
1070
     2
1002
{
1002
}
1000
DIMDLE
1070
     2
1040
0.0
1002
{
1002
}
1000
DIMFIT
1070
     1
1070
     3
1002
{
1002
}
1000
DIMJUST
1070
     1
1070
     0
1002
{
1002
}
1000
DIMLFAC
1070
     2
1040
1.0
1002
{
1002
}
1000
DIMLIM
1070
     1
1070
     0
1002
{
1002
}
1000
DIMPOST
1070
     4
1000

1002
{
1002
}
1000
DIMRND
1070
     2
1040
0.0
1002
{
1002
}
1000
DIMSAH
1070
     1
1070
     0
1002
{
1002
}
1000
DIMSCALE
1070
     2
1040
1.0
1002
{
1002
}
1000
DIMSD1
1070
     1
1070
     0
1002
{
1002
}
1000
DIMSD2
1070
     1
1070
     0
1002
{
1002
}
1000
DIMSE1
1070
     1
1070
     0
1002
{
1002
}
1000
DIMSE2
1070
     1
1070
     0
1002
{
1002
}
1000
DIMSOXD
1070
     1
1070
     0
1002
{
1002
}
1000
DIMTAD
1070
     1
1070
     0
1002
{
1002
}
1000
DIMTFAC
1070
     2
1040
0.71
1002
{
1002
}
1000
DIMTIH
1070
     1
1070
     0
1002
{
1002
}
1000
DIMTIX
1070
     1
1070
     0
1002
{
1002
}
1000
DIMTM
1070
     2
1040
0.1
1002
{
1002
}
1000
DIMTOFL
1070
     1
1070
     0
1002
{
1002
}
1000
DIMTOH
1070
     1
1070
     0
1002
{
1002
}
1000
DIMTOL
1070
     1
1070
     0
1002
{
1002
}
1000
DIMTOLJ
1070
     1
1070
     1
1002
{
1002
}
1000
DIMTP
1070
     2
1040
0.1
1002
{
1002
}
1000
DIMTSZ
1070
     2
1040
0.0
1002
{
1002
}
1000
DIMTVP
1070
     2
1040
0.0
1002
{
1002
}
1000
DIMTXSTY
1070
     4
1000
STANDARD
1002
{
1002
}
1000
DIMTZIN
1070
     1
1070
     0
1002
{
1002
}
1000
DIMUNIT
1070
     1
1070
     2
1002
{
1002
}
1000
DIMUPT
1070
     1
1070
     0
1002
{
1002
}
1000
M
1070
     0
1002
{
1000
DIMALTF
1070
     2
1040
0.03937
1002
{
1002
}
1000
DIMAPOST
1070
     4
1000
"
1002
{
1002
}
1000
DIMASZ
1070
     2
1040
2.5
1002
{
1002
}
1000
DIMCEN
1070
     2
1040
0.0
1002
{
1002
}
1000
DIMDEC
1070
     1
1070
     2
1002
{
1002
}
1000
DIMDLI
1070
     2
1040
7.0
1002
{
1002
}
1000
DIMEXE
1070
     2
1040
1.0
1002
{
1002
}
1000
DIMEXO
1070
     2
1040
1.0
1002
{
1002
}
1000
DIMGAP
1070
     2
1040
0.6
1002
{
1002
}
1000
DIMTDEC
1070
     1
1070
     3
1002
{
1002
}
1000
DIMTXT
1070
     2
1040
3.5
1002
{
1002
}
1000
DIMZIN
1070
     1
1070
     8
1002
{
1002
}
1002
}
1000
I
1070
     0
1002
{
1000
DIMALTF
1070
     2
1040
25.4
1002
{
1002
}
1000
DIMAPOST
1070
     4
1000
mm
1002
{
1002
}
1000
DIMASZ
1070
     2
1040
0.1
1002
{
1002
}
1000
DIMCEN
1070
     2
1040
0.0
1002
{
1002
}
1000
DIMDEC
1070
     1
1070
     4
1002
{
1002
}
1000
DIMDLI
1070
     2
1040
0.5
1002
{
1002
}
1000
DIMEXE
1070
     2
1040
0.1
1002
{
1002
}
1000
DIMEXO
1070
     2
1040
0.05
1002
{
1002
}
1000
DIMGAP
1070
     2
1040
0.06
1002
{
1002
}
1000
DIMTDEC
1070
     1
1070
     4
1002
{
1002
}
1000
DIMTXT
1070
     2
1040
0.12
1002
{
1002
}
1000
DIMZIN
1070
     1
1070
     7
1002
{
1002
}
1002
}
1000
GEN-ISO
1070
     5
1002
{
1000
NAME
1070
     4
1000
GEN-ISO
1002
{
1002
}
1000
DIMTAD
1070
     1
1070
     1
1002
{
1002
}
1000
DIMTOLJ
1070
     1
1070
     0
1002
{
1002
}
1000
DIMTOFL
1070
     1
1070
     1
1002
{
1002
}
1000
M
1070
     0
1002
{
1002
}
1000
I
1070
     0
1002
{
1002
}
1002
}
1000
GEN-ISO-POS
1070
     5
1002
{
1000
NAME
1070
     4
1000
GEN-ISO-POS
1002
{
1002
}
1000
DIMTOLJ
1070
     1
1070
     0
1002
{
1002
}
1000
DIMTXSTY
1070
     4
1000
STANDARD
1002
{
1002
}
1000
M
1070
     0
1002
{
1000
DIMASZ
1070
     2
1040
2.5
1002
{
1002
}
1000
DIMGAP
1070
     2
1040
1.5
1002
{
1002
}
1000
DIMTXT
1070
     2
1040
5.0
1002
{
1002
}
1002
}
1000
I
1070
     0
1002
{
1000
DIMASZ
1070
     2
1040
0.1
1002
{
1002
}
1000
DIMGAP
1070
     2
1040
0.06
1002
{
1002
}
1000
DIMTXT
1070
     2
1040
0.2
1002
{
1002
}
1002
}
1002
}
1000
GEN-ISO-CIR
1070
     5
1002
{
1000
NAME
1070
     4
1000
GEN-ISO$3
1002
{
1002
}
1000
DIMFIT
1070
     1
1070
     0
1002
{
1002
}
1000
DIMTAD
1070
     1
1070
     1
1002
{
1002
}
1000
DIMTOH
1070
     1
1070
     1
1002
{
1002
}
1000
DIMTOLJ
1070
     1
1070
     0
1002
{
1002
}
1000
DIMUPT
1070
     1
1070
     1
1002
{
1002
}
1000
M
1070
     0
1002
{
1002
}
1000
I
1070
     0
1002
{
1002
}
1002
}
1000
GEN-ISO-RAD
1070
     5
1002
{
1000
NAME
1070
     4
1000
GEN-ISO$4
1002
{
1002
}
1000
DIMFIT
1070
     1
1070
     0
1002
{
1002
}
1000
DIMTAD
1070
     1
1070
     1
1002
{
1002
}
1000
DIMTIH
1070
     1
1070
     0
1002
{
1002
}
1000
DIMTIX
1070
     1
1070
     0
1002
{
1002
}
1000
DIMTOH
1070
     1
1070
     1
1002
{
1002
}
1000
DIMTOLJ
1070
     1
1070
     0
1002
{
1002
}
1000
DIMTOFL
1070
     1
1070
     0
1002
{
1002
}
1000
DIMUPT
1070
     1
1070
     1
1002
{
1002
}
1000
M
1070
     0
1002
{
1002
}
1000
I
1070
     0
1002
{
1002
}
1002
}
1000
GEN-ISO-ORD
1070
     5
1002
{
1000
NAME
1070
     4
1000
GEN-ISO$6
1002
{
1002
}
1000
DIMTOLJ
1070
     1
1070
     0
1002
{
1002
}
1000
M
1070
     0
1002
{
1002
}
1000
I
1070
     0
1002
{
1002
}
1002
}
1000
GEN-ISO-AXE-F
1070
     5
1002
{
1000
NAME
1070
     4
1000
GEN-ISO-AXE-F
1002
{
1002
}
1000
DIMSE1
1070
     1
1070
     1
1002
{
1002
}
1000
DIMSE2
1070
     1
1070
     1
1002
{
1002
}
1000
DIMTAD
1070
     1
1070
     1
1002
{
1002
}
1000
DIMTOLJ
1070
     1
1070
     0
1002
{
1002
}
1000
DIMTOFL
1070
     1
1070
     1
1002
{
1002
}
1000
M
1070
     0
1002
{
1002
}
1000
I
1070
     0
1002
{
1002
}
1002
}
1000
GEN-ISO-AXE-H
1070
     5
1002
{
1000
NAME
1070
     4
1000
GEN-ISO-AXE-H
1002
{
1002
}
1000
DIMBLK1
1070
     4
1000
GENAXEH
1002
{
1002
}
1000
DIMLFAC
1070
     2
1040
2.0
1002
{
1002
}
1000
DIMSAH
1070
     1
1070
     1
1002
{
1002
}
1000
DIMSE1
1070
     1
1070
     1
1002
{
1002
}
1000
DIMSE2
1070
     1
1070
     1
1002
{
1002
}
1000
DIMTAD
1070
     1
1070
     1
1002
{
1002
}
1000
DIMTOLJ
1070
     1
1070
     0
1002
{
1002
}
1000
DIMTOFL
1070
     1
1070
     1
1002
{
1002
}
1000
M
1070
     0
1002
{
1002
}
1000
I
1070
     0
1002
{
1002
}
1002
}
1000
GEN-ANSI
1070
     5
1002
{
1000
NAME
1070
     4
1000
GEN-ANSI
1002
{
1002
}
1000
DIMTIH
1070
     1
1070
     1
1002
{
1002
}
1000
DIMTOH
1070
     1
1070
     1
1002
{
1002
}
1000
DIMTAD
1070
     1
1070
     0
1002
{
1002
}
1000
DIMTOLJ
1070
     1
1070
     1
1002
{
1002
}
1000
M
1070
     0
1002
{
1002
}
1000
I
1070
     0
1002
{
1002
}
1002
}
1000
GEN-ANSI-POS
1070
     5
1002
{
1000
NAME
1070
     4
1000
GEN-ANSI-POS
1002
{
1002
}
1000
DIMTOLJ
1070
     1
1070
     1
1002
{
1002
}
1000
DIMTXSTY
1070
     4
1000
STANDARD
1002
{
1002
}
1000
M
1070
     0
1002
{
1000
DIMASZ
1070
     2
1040
2.5
1002
{
1002
}
1000
DIMGAP
1070
     2
1040
1.5
1002
{
1002
}
1000
DIMTXT
1070
     2
1040
5.0
1002
{
1002
}
1002
}
1000
I
1070
     0
1002
{
1000
DIMASZ
1070
     2
1040
0.1
1002
{
1002
}
1000
DIMGAP
1070
     2
1040
0.06
1002
{
1002
}
1000
DIMTXT
1070
     2
1040
0.2
1002
{
1002
}
1002
}
1002
}
1000
GEN-ANSI-CIR
1070
     5
1002
{
1000
NAME
1070
     4
1000
GEN-ANSI$3
1002
{
1002
}
1000
DIMFIT
1070
     1
1070
     0
1002
{
1002
}
1000
DIMTAD
1070
     1
1070
     0
1002
{
1002
}
1000
DIMTIH
1070
     1
1070
     1
1002
{
1002
}
1000
DIMTIX
1070
     1
1070
     0
1002
{
1002
}
1000
DIMTOFL
1070
     1
1070
     0
1002
{
1002
}
1000
DIMTOH
1070
     1
1070
     1
1002
{
1002
}
1000
DIMTOLJ
1070
     1
1070
     1
1002
{
1002
}
1000
DIMUPT
1070
     1
1070
     1
1002
{
1002
}
1000
M
1070
     0
1002
{
1002
}
1000
I
1070
     0
1002
{
1002
}
1002
}
1000
GEN-ANSI-RAD
1070
     5
1002
{
1000
NAME
1070
     4
1000
GEN-ANSI$4
1002
{
1002
}
1000
DIMFIT
1070
     1
1070
     0
1002
{
1002
}
1000
DIMTAD
1070
     1
1070
     0
1002
{
1002
}
1000
DIMTIH
1070
     1
1070
     1
1002
{
1002
}
1000
DIMTIX
1070
     1
1070
     0
1002
{
1002
}
1000
DIMTOFL
1070
     1
1070
     0
1002
{
1002
}
1000
DIMTOH
1070
     1
1070
     1
1002
{
1002
}
1000
DIMTOLJ
1070
     1
1070
     1
1002
{
1002
}
1000
DIMUPT
1070
     1
1070
     1
1002
{
1002
}
1000
M
1070
     0
1002
{
1002
}
1000
I
1070
     0
1002
{
1002
}
1002
}
1000
GEN-ANSI-ORD
1070
     5
1002
{
1000
NAME
1070
     4
1000
GEN-ANSI$6
1002
{
1002
}
1000
DIMTAD
1070
     1
1070
     0
1002
{
1002
}
1000
DIMTIH
1070
     1
1070
     1
1002
{
1002
}
1000
DIMTOH
1070
     1
1070
     1
1002
{
1002
}
1000
DIMTOLJ
1070
     1
1070
     1
1002
{
1002
}
1000
M
1070
     0
1002
{
1002
}
1000
I
1070
     0
1002
{
1002
}
1002
}
1000
GEN-ANSI-AXE-F
1070
     5
1002
{
1000
NAME
1070
     4
1000
GEN-ANSI-AXE-F
1002
{
1002
}
1000
DIMBLK1
1070
     4
1000
GENAXEH
1002
{
1002
}
1000
DIMSAH
1070
     1
1070
     1
1002
{
1002
}
1000
DIMSE1
1070
     1
1070
     1
1002
{
1002
}
1000
DIMSE2
1070
     1
1070
     1
1002
{
1002
}
1000
DIMTAD
1070
     1
1070
     0
1002
{
1002
}
1000
DIMTIH
1070
     1
1070
     1
1002
{
1002
}
1000
DIMTOH
1070
     1
1070
     1
1002
{
1002
}
1000
DIMTOLJ
1070
     1
1070
     1
1002
{
1002
}
1000
M
1070
     0
1002
{
1002
}
1000
I
1070
     0
1002
{
1002
}
1002
}
1000
GEN-ANSI-AXE-H
1070
     5
1002
{
1000
NAME
1070
     4
1000
GEN-ANSI-AXE-H
1002
{
1002
}
1000
DIMBLK1
1070
     4
1000
GENAXEH
1002
{
1002
}
1000
DIMLFAC
1070
     2
1040
2.0
1002
{
1002
}
1000
DIMSAH
1070
     1
1070
     1
1002
{
1002
}
1000
DIMSE1
1070
     1
1070
     1
1002
{
1002
}
1000
DIMSE2
1070
     1
1070
     1
1002
{
1002
}
1000
DIMTAD
1070
     1
1070
     0
1002
{
1002
}
1000
DIMTOFL
1070
     1
1070
     1
1002
{
1002
}
1000
DIMTOLJ
1070
     1
1070
     1
1002
{
1002
}
1000
M
1070
     0
1002
{
1002
}
1000
I
1070
     0
1002
{
1002
}
1002
}
1002
}
1000
DimSet
1070
     0
1002
{
1000
ChainSum
1070
     3
1070
     0
1002
{
1002
}
1000
DimDclTyp0
1070
     4
1000
dim23
1002
{
1002
}
1000
HorBra
1070
     3
1070
     0
1002
{
1002
}
1000
StrDia
1070
     4
1000
%%c<>
1002
{
1002
}
1000
StrRad
1070
     4
1000
R<>
1002
{
1002
}
1000
TextMinus
1070
     4
1000
<>
1002
{
1002
}
1000
TextPlus
1070
     4
1000
<>
1002
{
1002
}
1000
M
1070
     0
1002
{
1000
DimdliFirst
1070
     2
1040
10.0
1002
{
1002
}
1000
PointMakeDist
1070
     2
1040
10.0
1002
{
1002
}
1002
}
1000
I
1070
     0
1002
{
1000
DimdliFirst
1070
     2
1040
0.5
1002
{
1002
}
1000
PointMakeDist
1070
     2
1040
0.5
1002
{
1002
}
1002
}
1000
FitGrade
1070
     4
1000
h7
1002
{
1002
}
1002
}
1000
Drawing
1070
     0
1002
{
1000
ChamferDimMode
1070
     1
1070
     2
1002
{
1002
}
1000
Gen_Fiso
1070
    -3
1040
1.0
1002
{
1002
}
1000
GenDimStil
1070
     4
1000
ISO
1002
{
1002
}
1000
GenDwgUScale
1070
     2
1040
1.0
1002
{
1002
}
1000
GenInch
1070
     4
1000
M
1002
{
1002
}
1000
GenPlotScale
1070
     4
1000
1:5
1002
{
1002
}
1000
Revisi
1070
     4
1000
0
1002
{
1002
}
1000
Version
1070
    -5
1000
14.01/Apr  1 1998
1002
{
1002
}
1000
Platform
1070
    -5
1000
WINNT
1002
{
1002
}
1002
}
1000
DwgVar
1070
     0
1002
{
1000
M
1070
     0
1002
{
1002
}
1000
I
1070
     0
1002
{
1002
}
1002
}
1000
Hatch
1070
     0
1002
{
1000
GenHtcFlag
1070
     3
1070
     0
1002
{
1002
}
1002
}
1000
Info_Pos
1070
     0
1002
{
1000
>
1002
}
1000
Layer
1070
     6
1002
{
1000
Defs
1070
     0
1002
{
1000
>
1002
}
1000
EntSort
1070
     0
1002
{
1000
>
1002
}
1000
Match
1070
     0
1002
{
1002
}
1000
Settings
1070
     0
1002
{
1000
FocGrNC
1070
     3
1070
     0
1002
{
1002
}
1000
FocGrLo
1070
     3
1070
     0
1002
{
1002
}
1000
FocLoNC
1070
     3
1070
     0
1002
{
1002
}
1000
FocusCol
1070
     1
1070
   253
1002
{
1002
}
1000
GenStdLG
1070
     4
1000

1002
{
1002
}
1000
LayMatch
1070
     3
1070
     0
1002
{
1002
}
1000
LgOff
1070
     3
1070
     0
1002
{
1002
}
1000
CurLG
1070
    -5
1000

1002
{
1002
}
1002
}
1002
}
1000
LType
1070
     0
1002
{
1000
GEN3
1070
     7
1000
genius.lin
1002
{
1002
}
1000
GEN7
1070
     7
1000
genius.lin
1002
{
1002
}
1000
GEN4A
1070
     7
1000
genius.lin
1002
{
1002
}
1000
GEN3A
1070
     7
1000
genius.lin
1002
{
1002
}
1000
GEN7A
1070
     7
1000
genius.lin
1002
{
1002
}
1000
GENZIGZAG
1070
     7
1000
genius.lin
1002
{
1002
}
1002
}
1000
Objecter
1070
     0
1002
{
1000
CreateGroups
1070
     3
1070
     0
1002
{
1002
}
1000
LaySwitch
1070
     3
1070
     1
1002
{
1002
}
1000
LastObj
1070
    -5
1000
16D2
1002
{
1002
}
1000
TimeStamp
1070
    -5
1000
20020508.16584000
1002
{
1002
}
1002
}
1000
OSWiz
1070
     0
1002
{
1000
Filter
1070
     0
1002
{
1000
HATCH
1070
     8
1002
{
1000
EntityType
1070
     4
1000
LINE
1002
{
1002
}
1000
Layer
1070
     4
1000
8,8N,*-8,*-8N
1002
{
1002
}
1000
Linetype
1070
     4
1000
*
1002
{
1002
}
1000
Color
1070
     4
1000
*
1002
{
1002
}
1000
ApplyInDims
1070
     3
1070
     1
1002
{
1002
}
1002
}
1000
SYMBOLS
1070
     8
1002
{
1000
EntityType
1070
     4
1000
*
1002
{
1002
}
1000
Layer
1070
     4
1000
[5-6],[5-6]N,*-[5-6],*-[5-6]N
1002
{
1002
}
1000
Linetype
1070
     4
1000
*
1002
{
1002
}
1000
Color
1070
     4
1000
*
1002
{
1002
}
1000
ApplyInDims
1070
     3
1070
     1
1002
{
1002
}
1002
}
1000
FEM
1070
     8
1002
{
1000
EntityType
1070
     4
1000
*
1002
{
1002
}
1000
Layer
1070
     4
1000
4A,4AN,*-4A,*-4AN
1002
{
1002
}
1000
Linetype
1070
     4
1000
*
1002
{
1002
}
1000
Color
1070
     4
1000
*
1002
{
1002
}
1000
ApplyInDims
1070
     3
1070
     1
1002
{
1002
}
1002
}
1002
}
1002
}
1000
PaList
1070
     0
1002
{
1000
AutoUpdatePartList
1070
     1
1070
     0
1002
{
1002
}
1000
ReadInfoPoint
1070
     3
1070
     0
1002
{
1002
}
1000
ReadPosNr
1070
     3
1070
     1
1002
{
1002
}
1000
RevStr
1070
     4
1000
0
1002
{
1002
}
1002
}
1000
Paper
1070
     0
1002
{
1002
}
1000
PartDB
1070
     0
1002
{
1000
GenDbOwner
1070
     4
1000

1002
{
1002
}
1002
}
1000
System
1070
     0
1002
{
1000
Menu
1070
     4
1000
GEV
1002
{
1002
}
1002
}
1000
Title
1070
     0
1002
{
1000
MakeView
1070
     1
1070
     2
1002
{
1002
}
1002
}
1000
Tools
1070
     0
1002
{
1000
Trans
1070
     0
1002
{
1000
Drawingtranslation
1070
    -4
1070
     1
1002
{
1002
}
1000
upreserve
1070
     3
1070
     0
1002
{
1002
}
1000
originally_on
1070
    -4
1070
     0
1002
{
1002
}
1000
sourcelang
1070
    -5
1000
D
1002
{
1002
}
1002
}
1002
}
  0
APPID
  5
15C4
330
1576
100
AcDbSymbolTableRecord
100
AcDbRegAppTableRecord
  2
GENIUS_GEVCFG0_13
 70
     0
1001
GENIUS_GENCFG_13
1071
1020869926
1000
15C4
1000
GEV
1070
     1
1000
GenCfgObject
1000
VED
1070
     0
1002
{
1002
}
  0
APPID
  5
15DE
330
1576
100
AcDbSymbolTableRecord
100
AcDbRegAppTableRecord
  2
GEV_VCCNULL_SWITCH_OFF
 70
     0
  0
APPID
  5
15EC
330
1576
100
AcDbSymbolTableRecord
100
AcDbRegAppTableRecord
  2
GENIUS_GENDTOL_13
 70
     0
  0
APPID
  5
16A4
330
1576
100
AcDbSymbolTableRecord
100
AcDbRegAppTableRecord
  2
GENIUS_GENBLLY_14
 70
     0
  0
APPID
  5
16A5
330
1576
100
AcDbSymbolTableRecord
100
AcDbRegAppTableRecord
  2
GENIUS_GENODEF_13
 70
     0
  0
APPID
  5
16A6
330
1576
100
AcDbSymbolTableRecord
100
AcDbRegAppTableRecord
  2
GENIUS_GENOBJ-N-CRS_13
 70
     0
  0
APPID
  5
16A7
330
1576
100
AcDbSymbolTableRecord
100
AcDbRegAppTableRecord
  2
GENIUS_GENOREF_13
 70
     0
  0
APPID
  5
16A8
330
1576
100
AcDbSymbolTableRecord
100
AcDbRegAppTableRecord
  2
GENIUS_GENOLIS_13
 70
     0
  0
APPID
  5
16A9
330
1576
100
AcDbSymbolTableRecord
100
AcDbRegAppTableRecord
  2
GENIUS_GEFCFG0_13
 70
     0
1001
GENIUS_GENCFG_13
1071
920890938
1000
16A9
1000
GEF
1070
     5
1000
GenCfgObject
1000
GenCfgString
1000
GenCfgReal
1000
GenCfgShort
1000
GenCfgBool
1000
System
1070
     0
1002
{
1002
}
1000
Prese
1070
     0
1002
{
1000
Funk
1070
     1
1000

1002
{
1002
}
1000
FunkDef
1070
     1
1000

1002
{
1002
}
1000
GefIso
1070
     1
1000
DIN
1002
{
1002
}
1002
}
1000
FEM
1070
     0
1002
{
1000
LayGroup
1070
     1
1000
FEM
1002
{
1002
}
1000
IncrCoef
1070
     2
1040
0.0
1002
{
1002
}
1002
}
1000
Shaft
1070
     0
1002
{
1000
Interrupt
1070
     3
1070
     0
1002
{
1002
}
1002
}
1000
PartDb
1070
     0
1002
{
1000
PartCreate
1070
     0
1002
{
1002
}
1000
SCP
1070
     0
1002
{
1002
}
1000
Symbol
1070
     0
1002
{
1002
}
1002
}
1000
Symbol
1070
     0
1002
{
1000
WeldStyle
1070
     1
1000
ISO
1002
{
1002
}
1000
WeldSize
1070
     2
1040
1.0
1002
{
1002
}
1000
WeldFlag
1070
     4
1070
     1
1002
{
1002
}
1000
WeldOffset
1070
     4
1070
     1
1002
{
1002
}
1000
TolCType
1070
     1
1000
ISO
1002
{
1002
}
1000
TolCSize
1070
     2
1040
1.0
1002
{
1002
}
1000
STextureSize
1070
     2
1040
1.0
1002
{
1002
}
1000
SurfaceType
1070
     1
1000

1002
{
1002
}
1000
M
1070
     0
1002
{
1000
WeldWidth
1070
     2
1040
3.0
1002
{
1002
}
1002
}
1000
I
1070
     0
1002
{
1000
WeldWidth
1070
     2
1040
0.125
1002
{
1002
}
1002
}
1002
}
  0
APPID
  5
16AA
330
1576
100
AcDbSymbolTableRecord
100
AcDbRegAppTableRecord
  2
GENIUS_VERSION2
 70
     0
  0
APPID
  5
16AB
330
1576
100
AcDbSymbolTableRecord
100
AcDbRegAppTableRecord
  2
GENIUS_GENREC_14
 70
     0
  0
APPID
  5
16AC
330
1576
100
AcDbSymbolTableRecord
100
AcDbRegAppTableRecord
  2
GENIUS_GENOBJ-N-REC_13
 70
     0
  0
APPID
  5
16AD
330
1576
100
AcDbSymbolTableRecord
100
AcDbRegAppTableRecord
  2
GENIUS_GENOBJ-N-TIT_13
 70
     0
  0
APPID
  5
16AE
330
1576
100
AcDbSymbolTableRecord
100
AcDbRegAppTableRecord
  2
GENIUS_GENTITLE_13
 70
     0
  0
APPID
  5
16AF
330
1576
100
AcDbSymbolTableRecord
100
AcDbRegAppTableRecord
  2
GENIUS_GENZVEED_13
 70
     0
  0
APPID
  5
16B0
330
1576
100
AcDbSymbolTableRecord
100
AcDbRegAppTableRecord
  2
GENIUS_GENOBJ-N-SDF_13
 70
     0
  0
APPID
  5
16B1
330
1576
100
AcDbSymbolTableRecord
100
AcDbRegAppTableRecord
  2
GENIUS_GENSCREG_13
 70
     0
  0
APPID
  5
16B2
330
1576
100
AcDbSymbolTableRecord
100
AcDbRegAppTableRecord
  2
GENIUS_GENBLKED_14
 70
     0
  0
APPID
  5
1780
330
1576
100
AcDbSymbolTableRecord
100
AcDbRegAppTableRecord
  2
MCAD_NO_VIS
 70
     0
  0
APPID
  5
1781
330
1576
100
AcDbSymbolTableRecord
100
AcDbRegAppTableRecord
  2
ACAD_TEMP_GRAPHIC
 70
     0
  0
APPID
  5
17B1
330
1576
100
AcDbSymbolTableRecord
100
AcDbRegAppTableRecord
  2
AD_DRAW
 70
     0
  0
APPID
  5
17B4
330
1576
100
AcDbSymbolTableRecord
100
AcDbRegAppTableRecord
  2
ACATTRIBSERVICES
 70
     0
  0
APPID
  5
17D4
330
1576
100
AcDbSymbolTableRecord
100
AcDbRegAppTableRecord
  2
DESIGNERASSEMBLIES
 70
     0
  0
APPID
  5
17DA
330
1576
100
AcDbSymbolTableRecord
100
AcDbRegAppTableRecord
  2
ACADM_DIM_EDIT
 70
     0
  0
APPID
  5
17DB
330
1576
100
AcDbSymbolTableRecord
100
AcDbRegAppTableRecord
  2
AMDT_DM_ADJ
 70
     0
  0
APPID
  5
180D
330
1576
100
AcDbSymbolTableRecord
100
AcDbRegAppTableRecord
  2
ACAD_DSTYLE_DIMARC_LENGTH_SYMBOL
 70
     0
  0
APPID
  5
180E
330
1576
100
AcDbSymbolTableRecord
100
AcDbRegAppTableRecord
  2
ACAD_DSTYLE_DIMJOGGED_JOGANGLE_SYMBOL
 70
     0
  0
ENDTAB
  0
TABLE
  2
DIMSTYLE
  5
1577
330
0
100
AcDbSymbolTable
 70
     9
100
AcDbDimStyleTable
 71
     0
  0
DIMSTYLE
105
159E
102
{ACAD_REACTORS
330
116D
330
1177
330
1315
330
131F
330
1334
330
133E
330
1433
330
143F
102
}
330
1577
100
AcDbSymbolTableRecord
100
AcDbDimStyleTableRecord
  2
GEN-ISO
 70
     0
  4
"
 40
5.0
 41
2.5
 42
1.0
 43
7.0
 44
1.0
 47
0.1
 48
0.1
 73
     0
 74
     0
 77
     1
 78
     8
140
3.5
141
0.0
143
0.03937
146
0.71
147
0.6
172
     1
176
   256
177
   256
178
     2
271
     2
272
     3
274
     4
283
     0
340
157C
  0
DIMSTYLE
105
180C
330
1577
100
AcDbSymbolTableRecord
100
AcDbDimStyleTableRecord
  2
AM_DIN
 70
     0
  4
"
 41
2.5
 42
1.0
 43
10.0
 44
1.0
 47
0.1
 48
0.1
 73
     0
 74
     0
 77
     1
 78
     8
 79
     2
140
3.5
141
0.0
143
0.0393701
146
0.71
147
1.5
172
     1
176
   256
177
   256
178
     2
271
     2
272
     3
274
     4
283
     0
284
     8
340
157C
371
    -1
372
    -1
1001
ACAD_DSTYLE_DIMARC_LENGTH_SYMBOL
1070
   379
1070
     0
1001
ACAD_DSTYLE_DIMJOGGED_JOGANGLE_SYMBOL
1070
   384
1040
1.570796326794896
  0
DIMSTYLE
105
181D
330
1577
100
AcDbSymbolTableRecord
100
AcDbDimStyleTableRecord
  2
AM_DIN$3
 70
     0
  4
"
 41
2.5
 42
1.0
 43
10.0
 44
1.0
 47
0.1
 48
0.1
 73
     0
 77
     1
 78
     8
 79
     2
140
3.5
141
0.0
143
0.0393701
146
0.71
147
1.5
176
   256
177
   256
178
     2
271
     2
272
     3
274
     4
283
     0
284
     8
288
     1
289
     0
340
157C
371
    -1
372
    -1
1001
ACAD_DSTYLE_DIMARC_LENGTH_SYMBOL
1070
   379
1070
     0
1001
ACAD_DSTYLE_DIMJOGGED_JOGANGLE_SYMBOL
1070
   384
1040
1.570796326794896
  0
DIMSTYLE
105
1822
330
1577
100
AcDbSymbolTableRecord
100
AcDbDimStyleTableRecord
  2
AM_DIN$4
 70
     0
  4
"
 41
2.5
 42
1.0
 43
10.0
 44
1.0
 47
0.1
 48
0.1
 73
     0
 77
     1
 78
     8
 79
     2
140
3.5
141
0.0
143
0.0393701
146
0.71
147
1.5
176
   256
177
   256
178
     2
271
     2
272
     3
274
     4
283
     0
284
     8
288
     1
289
     0
340
157C
371
    -1
372
    -1
1001
ACAD_DSTYLE_DIMARC_LENGTH_SYMBOL
1070
   379
1070
     0
1001
ACAD_DSTYLE_DIMJOGGED_JOGANGLE_SYMBOL
1070
   384
1040
1.570796326794896
  0
DIMSTYLE
105
1827
330
1577
100
AcDbSymbolTableRecord
100
AcDbDimStyleTableRecord
  2
AM_DIN$6
 70
     0
  4
"
 41
2.5
 42
1.0
 43
10.0
 44
1.0
 47
0.1
 48
0.1
 73
     0
 74
     0
 78
     8
 79
     2
140
3.5
141
0.0
143
0.0393701
146
0.71
147
1.5
172
     1
176
   256
177
   256
178
     2
271
     2
272
     3
274
     4
283
     0
284
     8
340
157C
371
    -1
372
    -1
1001
ACAD_DSTYLE_DIMARC_LENGTH_SYMBOL
1070
   379
1070
     0
1001
ACAD_DSTYLE_DIMJOGGED_JOGANGLE_SYMBOL
1070
   384
1040
1.570796326794896
  0
DIMSTYLE
105
182C
330
1577
100
AcDbSymbolTableRecord
100
AcDbDimStyleTableRecord
  2
AM_DIN$7
 70
     0
  4
"
 41
2.5
 42
1.0
 43
10.0
 44
1.0
 47
0.1
 48
0.1
 73
     0
 74
     0
 77
     1
 78
     8
 79
     2
140
5.0
141
0.0
143
0.0393701
146
0.71
147
1.5
172
     1
176
   256
177
   256
178
     2
271
     2
272
     3
274
     4
283
     0
284
     8
340
157C
371
    -1
372
    -1
1001
ACAD_DSTYLE_DIMARC_LENGTH_SYMBOL
1070
   379
1070
     0
1001
ACAD_DSTYLE_DIMJOGGED_JOGANGLE_SYMBOL
1070
   384
1040
1.570796326794896
  0
DIMSTYLE
105
1831
330
1577
100
AcDbSymbolTableRecord
100
AcDbDimStyleTableRecord
  2
AM_DIN$SF
 70
     0
  4
"
 41
2.5
 42
1.0
 43
10.0
 44
1.0
 47
0.1
 48
0.1
 73
     0
 74
     0
 75
     1
 76
     1
 77
     1
 78
     8
 79
     2
140
3.5
141
0.0
143
0.0393701
146
0.71
147
1.5
172
     1
176
   256
177
   256
178
     2
271
     2
272
     3
274
     4
283
     0
284
     8
340
157C
371
    -1
372
    -1
1001
ACAD_DSTYLE_DIMARC_LENGTH_SYMBOL
1070
   379
1070
     0
1001
ACAD_DSTYLE_DIMJOGGED_JOGANGLE_SYMBOL
1070
   384
1040
1.570796326794896
  0
DIMSTYLE
105
183A
330
1577
100
AcDbSymbolTableRecord
100
AcDbDimStyleTableRecord
  2
AM_DIN$SH
 70
     0
  4
"
 41
2.5
 42
1.0
 43
10.0
 44
1.0
 47
0.1
 48
0.1
 73
     0
 74
     0
 75
     1
 76
     1
 77
     1
 78
     8
 79
     2
140
3.5
141
0.0
143
0.0393701
144
2.0
146
0.71
147
1.5
172
     1
173
     1
176
   256
177
   256
178
     2
271
     2
272
     3
274
     4
283
     0
284
     8
340
157C
343
1832
371
    -1
372
    -1
1001
ACAD_DSTYLE_DIMARC_LENGTH_SYMBOL
1070
   379
1070
     0
1001
ACAD_DSTYLE_DIMJOGGED_JOGANGLE_SYMBOL
1070
   384
1040
1.570796326794896
  0
ENDTAB
  0
TABLE
  2
BLOCK_RECORD
  5
156E
330
0
100
AcDbSymbolTable
 70
    28
  0
BLOCK_RECORD
  5
1585
330
156E
100
AcDbSymbolTableRecord
100
AcDbBlockTableRecord
  2
*MODEL_SPACE
340
1778
  0
BLOCK_RECORD
  5
1582
330
156E
100
AcDbSymbolTableRecord
100
AcDbBlockTableRecord
  2
*PAPER_SPACE
340
1779
  0
BLOCK_RECORD
  5
15A2
330
156E
100
AcDbSymbolTableRecord
100
AcDbBlockTableRecord
  2
*X0
340
0
102
{BLKREFS
331
11F7
102
}
  0
BLOCK_RECORD
  5
15A3
330
156E
100
AcDbSymbolTableRecord
100
AcDbBlockTableRecord
  2
*X1
340
0
102
{BLKREFS
331
125E
102
}
  0
BLOCK_RECORD
  5
15A4
330
156E
100
AcDbSymbolTableRecord
100
AcDbBlockTableRecord
  2
*X2
340
0
102
{BLKREFS
331
12C6
102
}
  0
BLOCK_RECORD
  5
15A5
330
156E
100
AcDbSymbolTableRecord
100
AcDbBlockTableRecord
  2
*X3
340
0
102
{BLKREFS
331
12E9
102
}
  0
BLOCK_RECORD
  5
15A6
330
156E
100
AcDbSymbolTableRecord
100
AcDbBlockTableRecord
  2
*X4
340
0
102
{BLKREFS
331
130C
102
}
  0
BLOCK_RECORD
  5
15AC
330
156E
100
AcDbSymbolTableRecord
100
AcDbBlockTableRecord
  2
*X5
340
0
102
{BLKREFS
331
139D
102
}
  0
BLOCK_RECORD
  5
15AD
330
156E
100
AcDbSymbolTableRecord
100
AcDbBlockTableRecord
  2
*X6
340
0
102
{BLKREFS
331
13CC
102
}
  0
BLOCK_RECORD
  5
15AE
330
156E
100
AcDbSymbolTableRecord
100
AcDbBlockTableRecord
  2
*X7
340
0
102
{BLKREFS
331
1429
102
}
  0
BLOCK_RECORD
  5
15B1
330
156E
100
AcDbSymbolTableRecord
100
AcDbBlockTableRecord
  2
*X8
340
0
102
{BLKREFS
331
1461
102
}
  0
BLOCK_RECORD
  5
15B2
330
156E
100
AcDbSymbolTableRecord
100
AcDbBlockTableRecord
  2
*X9
340
0
102
{BLKREFS
331
1481
102
}
  0
BLOCK_RECORD
  5
15B3
330
156E
100
AcDbSymbolTableRecord
100
AcDbBlockTableRecord
  2
*X10
340
0
102
{BLKREFS
331
14A1
102
}
  0
BLOCK_RECORD
  5
15B4
330
156E
100
AcDbSymbolTableRecord
100
AcDbBlockTableRecord
  2
*X11
340
0
102
{BLKREFS
331
14C1
102
}
  0
BLOCK_RECORD
  5
15DF
330
156E
100
AcDbSymbolTableRecord
100
AcDbBlockTableRecord
  2
*D12
340
0
  0
BLOCK_RECORD
  5
15FC
330
156E
100
AcDbSymbolTableRecord
100
AcDbBlockTableRecord
  2
*D13
340
0
  0
BLOCK_RECORD
  5
1614
330
156E
100
AcDbSymbolTableRecord
100
AcDbBlockTableRecord
  2
*D14
340
0
  0
BLOCK_RECORD
  5
1620
330
156E
100
AcDbSymbolTableRecord
100
AcDbBlockTableRecord
  2
*D15
340
0
  0
BLOCK_RECORD
  5
1637
330
156E
100
AcDbSymbolTableRecord
100
AcDbBlockTableRecord
  2
*D16
340
0
  0
BLOCK_RECORD
  5
1643
330
156E
100
AcDbSymbolTableRecord
100
AcDbBlockTableRecord
  2
*D17
340
0
  0
BLOCK_RECORD
  5
164E
330
156E
100
AcDbSymbolTableRecord
100
AcDbBlockTableRecord
  2
*D18
340
0
  0
BLOCK_RECORD
  5
1667
330
156E
100
AcDbSymbolTableRecord
100
AcDbBlockTableRecord
  2
*D20
340
0
  0
BLOCK_RECORD
  5
1675
330
156E
100
AcDbSymbolTableRecord
100
AcDbBlockTableRecord
  2
KATALOG_LEER
340
0
102
{BLKREFS
331
16B4
331
16D1
102
}
  0
BLOCK_RECORD
  5
1832
330
156E
100
AcDbSymbolTableRecord
100
AcDbBlockTableRecord
  2
GENAXEH
340
0
  0
ENDTAB
  0
ENDSEC
  0
SECTION
  2
BLOCKS
  0
BLOCK
  5
1586
330
1585
100
AcDbEntity
  8
0
100
AcDbBlockBegin
  2
*MODEL_SPACE
 70
     0
 10
0.0
 20
0.0
 30
0.0
  3
*MODEL_SPACE
  1

  0
ENDBLK
  5
1587
330
1585
100
AcDbEntity
  8
0
100
AcDbBlockEnd
  0
BLOCK
  5
1583
330
1582
100
AcDbEntity
 67
     1
  8
0
100
AcDbBlockBegin
  2
*PAPER_SPACE
 70
     0
 10
0.0
 20
0.0
 30
0.0
  3
*PAPER_SPACE
  1

  0
ENDBLK
  5
1584
330
1582
100
AcDbEntity
 67
     1
  8
0
100
AcDbBlockEnd
  0
BLOCK
  5
11BC
330
15A2
100
AcDbEntity
  8
0
100
AcDbBlockBegin
  2
*X0
 70
     1
 10
0.0
 20
0.0
 30
0.0
  3
*X0
  1

  0
LINE
  5
11BD
330
15A2
100
AcDbEntity
  8
8
100
AcDbLine
 10
458.7369999999999
 20
1077.068
 30
0.0
 11
461.2369999999999
 21
1077.068
 31
0.0
  0
LINE
  5
11BE
330
15A2
100
AcDbEntity
  8
8
100
AcDbLine
 10
581.2369999999999
 20
1077.068
 30
0.0
 11
583.7369999999999
 21
1077.068
 31
0.0
  0
LINE
  5
11BF
330
15A2
100
AcDbEntity
  8
8
100
AcDbLine
 10
458.7369999999999
 20
1080.243
 30
0.0
 11
461.2369999999999
 21
1080.243
 31
0.0
  0
LINE
  5
11C0
330
15A2
100
AcDbEntity
  8
8
100
AcDbLine
 10
581.2369999999999
 20
1080.243
 30
0.0
 11
583.7369999999999
 21
1080.243
 31
0.0
  0
LINE
  5
11C1
330
15A2
100
AcDbEntity
  8
8
100
AcDbLine
 10
458.7369999999999
 20
1083.418
 30
0.0
 11
461.2369999999999
 21
1083.418
 31
0.0
  0
LINE
  5
11C2
330
15A2
100
AcDbEntity
  8
8
100
AcDbLine
 10
581.2369999999999
 20
1083.418
 30
0.0
 11
583.7369999999999
 21
1083.418
 31
0.0
  0
LINE
  5
11C3
330
15A2
100
AcDbEntity
  8
8
100
AcDbLine
 10
458.7369999999999
 20
1086.593
 30
0.0
 11
461.2369999999999
 21
1086.593
 31
0.0
  0
LINE
  5
11C4
330
15A2
100
AcDbEntity
  8
8
100
AcDbLine
 10
581.2369999999999
 20
1086.593
 30
0.0
 11
583.7369999999999
 21
1086.593
 31
0.0
  0
LINE
  5
11C5
330
15A2
100
AcDbEntity
  8
8
100
AcDbLine
 10
458.7369999999999
 20
1089.768
 30
0.0
 11
461.2369999999999
 21
1089.768
 31
0.0
  0
LINE
  5
11C6
330
15A2
100
AcDbEntity
  8
8
100
AcDbLine
 10
581.2369999999999
 20
1089.768
 30
0.0
 11
583.7369999999999
 21
1089.768
 31
0.0
  0
LINE
  5
11C7
330
15A2
100
AcDbEntity
  8
8
100
AcDbLine
 10
458.7369999999999
 20
1092.943
 30
0.0
 11
461.2369999999999
 21
1092.943
 31
0.0
  0
LINE
  5
11C8
330
15A2
100
AcDbEntity
  8
8
100
AcDbLine
 10
581.2369999999999
 20
1092.943
 30
0.0
 11
583.7369999999999
 21
1092.943
 31
0.0
  0
LINE
  5
11C9
330
15A2
100
AcDbEntity
  8
8
100
AcDbLine
 10
458.7369999999999
 20
1096.118
 30
0.0
 11
461.2369999999999
 21
1096.118
 31
0.0
  0
LINE
  5
11CA
330
15A2
100
AcDbEntity
  8
8
100
AcDbLine
 10
581.2369999999999
 20
1096.118
 30
0.0
 11
583.7369999999999
 21
1096.118
 31
0.0
  0
LINE
  5
11CB
330
15A2
100
AcDbEntity
  8
8
100
AcDbLine
 10
458.7369999999999
 20
1099.293
 30
0.0
 11
461.2369999999999
 21
1099.293
 31
0.0
  0
LINE
  5
11CC
330
15A2
100
AcDbEntity
  8
8
100
AcDbLine
 10
581.2369999999999
 20
1099.293
 30
0.0
 11
583.7369999999999
 21
1099.293
 31
0.0
  0
LINE
  5
11CD
330
15A2
100
AcDbEntity
  8
8
100
AcDbLine
 10
458.7369999999999
 20
1102.468
 30
0.0
 11
461.2369999999999
 21
1102.468
 31
0.0
  0
LINE
  5
11CE
330
15A2
100
AcDbEntity
  8
8
100
AcDbLine
 10
581.2369999999999
 20
1102.468
 30
0.0
 11
583.7369999999999
 21
1102.468
 31
0.0
  0
LINE
  5
11CF
330
15A2
100
AcDbEntity
  8
8
100
AcDbLine
 10
458.7369999999999
 20
1105.643
 30
0.0
 11
461.2369999999999
 21
1105.643
 31
0.0
  0
LINE
  5
11D0
330
15A2
100
AcDbEntity
  8
8
100
AcDbLine
 10
581.2369999999999
 20
1105.643
 30
0.0
 11
583.7369999999999
 21
1105.643
 31
0.0
  0
LINE
  5
11D1
330
15A2
100
AcDbEntity
  8
8
100
AcDbLine
 10
458.7369999999999
 20
1108.818
 30
0.0
 11
461.2369999999999
 21
1108.818
 31
0.0
  0
LINE
  5
11D2
330
15A2
100
AcDbEntity
  8
8
100
AcDbLine
 10
581.2369999999999
 20
1108.818
 30
0.0
 11
583.7369999999999
 21
1108.818
 31
0.0
  0
LINE
  5
11D3
330
15A2
100
AcDbEntity
  8
8
100
AcDbLine
 10
458.7369999999999
 20
1111.993
 30
0.0
 11
461.2369999999999
 21
1111.993
 31
0.0
  0
LINE
  5
11D4
330
15A2
100
AcDbEntity
  8
8
100
AcDbLine
 10
581.2369999999999
 20
1111.993
 30
0.0
 11
583.7369999999999
 21
1111.993
 31
0.0
  0
LINE
  5
11D5
330
15A2
100
AcDbEntity
  8
8
100
AcDbLine
 10
458.7369999999999
 20
1115.168
 30
0.0
 11
461.2369999999999
 21
1115.168
 31
0.0
  0
LINE
  5
11D6
330
15A2
100
AcDbEntity
  8
8
100
AcDbLine
 10
581.2369999999999
 20
1115.168
 30
0.0
 11
583.7369999999999
 21
1115.168
 31
0.0
  0
LINE
  5
11D7
330
15A2
100
AcDbEntity
  8
8
100
AcDbLine
 10
458.7369999999999
 20
1118.343
 30
0.0
 11
461.2369999999999
 21
1118.343
 31
0.0
  0
LINE
  5
11D8
330
15A2
100
AcDbEntity
  8
8
100
AcDbLine
 10
581.2369999999999
 20
1118.343
 30
0.0
 11
583.7369999999999
 21
1118.343
 31
0.0
  0
LINE
  5
11D9
330
15A2
100
AcDbEntity
  8
8
100
AcDbLine
 10
458.7369999999999
 20
1121.518
 30
0.0
 11
461.2369999999999
 21
1121.518
 31
0.0
  0
LINE
  5
11DA
330
15A2
100
AcDbEntity
  8
8
100
AcDbLine
 10
581.2369999999999
 20
1121.518
 30
0.0
 11
583.7369999999999
 21
1121.518
 31
0.0
  0
LINE
  5
11DB
330
15A2
100
AcDbEntity
  8
8
100
AcDbLine
 10
458.7369999999999
 20
1124.693
 30
0.0
 11
461.2369999999999
 21
1124.693
 31
0.0
  0
LINE
  5
11DC
330
15A2
100
AcDbEntity
  8
8
100
AcDbLine
 10
581.2369999999999
 20
1124.693
 30
0.0
 11
583.7369999999999
 21
1124.693
 31
0.0
  0
LINE
  5
11DD
330
15A2
100
AcDbEntity
  8
8
100
AcDbLine
 10
458.7369999999999
 20
1127.868
 30
0.0
 11
461.2369999999999
 21
1127.868
 31
0.0
  0
LINE
  5
11DE
330
15A2
100
AcDbEntity
  8
8
100
AcDbLine
 10
581.2369999999999
 20
1127.868
 30
0.0
 11
583.7369999999999
 21
1127.868
 31
0.0
  0
LINE
  5
11DF
330
15A2
100
AcDbEntity
  8
8
100
AcDbLine
 10
458.7369999999999
 20
1131.043
 30
0.0
 11
461.2369999999999
 21
1131.043
 31
0.0
  0
LINE
  5
11E0
330
15A2
100
AcDbEntity
  8
8
100
AcDbLine
 10
581.2369999999999
 20
1131.043
 30
0.0
 11
583.7369999999999
 21
1131.043
 31
0.0
  0
LINE
  5
11E1
330
15A2
100
AcDbEntity
  8
8
100
AcDbLine
 10
458.7369999999999
 20
1134.218
 30
0.0
 11
461.2369999999999
 21
1134.218
 31
0.0
  0
LINE
  5
11E2
330
15A2
100
AcDbEntity
  8
8
100
AcDbLine
 10
581.2369999999999
 20
1134.218
 30
0.0
 11
583.7369999999999
 21
1134.218
 31
0.0
  0
LINE
  5
11E3
330
15A2
100
AcDbEntity
  8
8
100
AcDbLine
 10
458.7369999999999
 20
1137.393
 30
0.0
 11
461.2369999999999
 21
1137.393
 31
0.0
  0
LINE
  5
11E4
330
15A2
100
AcDbEntity
  8
8
100
AcDbLine
 10
581.2369999999999
 20
1137.393
 30
0.0
 11
583.7369999999999
 21
1137.393
 31
0.0
  0
LINE
  5
11E5
330
15A2
100
AcDbEntity
  8
8
100
AcDbLine
 10
459.051
 20
1140.568
 30
0.0
 11
461.633
 21
1140.568
 31
0.0
  0
LINE
  5
11E6
330
15A2
100
AcDbEntity
  8
8
100
AcDbLine
 10
580.8419999999999
 20
1140.568
 30
0.0
 11
583.424
 21
1140.568
 31
0.0
  0
LINE
  5
11E7
330
15A2
100
AcDbEntity
  8
8
100
AcDbLine
 10
459.9549999999999
 20
1143.743
 30
0.0
 11
462.7069999999999
 21
1143.743
 31
0.0
  0
LINE
  5
11E8
330
15A2
100
AcDbEntity
  8
8
100
AcDbLine
 10
579.768
 20
1143.743
 30
0.0
 11
582.5199999999999
 21
1143.743
 31
0.0
  0
LINE
  5
11E9
330
15A2
100
AcDbEntity
  8
8
100
AcDbLine
 10
461.563
 20
1146.918
 30
0.0
 11
464.691
 21
1146.918
 31
0.0
  0
LINE
  5
11EA
330
15A2
100
AcDbEntity
  8
8
100
AcDbLine
 10
516.3819999999999
 20
1146.918
 30
0.0
 11
526.093
 21
1146.918
 31
0.0
  0
LINE
  5
11EB
330
15A2
100
AcDbEntity
  8
8
100
AcDbLine
 10
577.784
 20
1146.918
 30
0.0
 11
580.9119999999999
 21
1146.918
 31
0.0
  0
LINE
  5
11EC
330
15A2
100
AcDbEntity
  8
8
100
AcDbLine
 10
464.1899999999999
 20
1150.093
 30
0.0
 11
468.343
 21
1150.093
 31
0.0
  0
LINE
  5
11ED
330
15A2
100
AcDbEntity
  8
8
100
AcDbLine
 10
513.623
 20
1150.093
 30
0.0
 11
516.7119999999999
 21
1150.093
 31
0.0
  0
LINE
  5
11EE
330
15A2
100
AcDbEntity
  8
8
100
AcDbLine
 10
525.763
 20
1150.093
 30
0.0
 11
528.852
 21
1150.093
 31
0.0
  0
LINE
  5
11EF
330
15A2
100
AcDbEntity
  8
8
100
AcDbLine
 10
574.1319999999999
 20
1150.093
 30
0.0
 11
578.2849999999999
 21
1150.093
 31
0.0
  0
LINE
  5
11F0
330
15A2
100
AcDbEntity
  8
8
100
AcDbLine
 10
468.9049999999999
 20
1153.268
 30
0.0
 11
485.5019999999999
 21
1153.268
 31
0.0
  0
LINE
  5
11F1
330
15A2
100
AcDbEntity
  8
8
100
AcDbLine
 10
511.7869999999999
 20
1153.268
 30
0.0
 11
514.677
 21
1153.268
 31
0.0
  0
LINE
  5
11F2
330
15A2
100
AcDbEntity
  8
8
100
AcDbLine
 10
527.798
 20
1153.268
 30
0.0
 11
530.6879999999999
 21
1153.268
 31
0.0
  0
LINE
  5
11F3
330
15A2
100
AcDbEntity
  8
8
100
AcDbLine
 10
556.972
 20
1153.268
 30
0.0
 11
573.57
 21
1153.268
 31
0.0
  0
LINE
  5
11F4
330
15A2
100
AcDbEntity
  8
8
100
AcDbLine
 10
493.1099999999999
 20
1156.443
 30
0.0
 11
512.4179999999999
 21
1156.443
 31
0.0
  0
LINE
  5
11F5
330
15A2
100
AcDbEntity
  8
8
100
AcDbLine
 10
530.057
 20
1156.443
 30
0.0
 11
549.363
 21
1156.443
 31
0.0
  0
ENDBLK
  5
11F6
330
15A2
100
AcDbEntity
  8
0
100
AcDbBlockEnd
  0
BLOCK
  5
1237
330
15A3
100
AcDbEntity
  8
0
100
AcDbBlockBegin
  2
*X1
 70
     1
 10
0.0
 20
0.0
 30
0.0
  3
*X1
  1

  0
LINE
  5
1238
330
15A3
100
AcDbEntity
  8
8
100
AcDbLine
 10
476.142
 20
1016.743
 30
0.0
 11
481.2369999999999
 21
1016.743
 31
0.0
  0
LINE
  5
1239
330
15A3
100
AcDbEntity
  8
8
100
AcDbLine
 10
478.028
 20
1019.918
 30
0.0
 11
481.2369999999999
 21
1019.918
 31
0.0
  0
LINE
  5
123A
330
15A3
100
AcDbEntity
  8
8
100
AcDbLine
 10
477.773
 20
1023.093
 30
0.0
 11
481.2369999999999
 21
1023.093
 31
0.0
  0
LINE
  5
123B
330
15A3
100
AcDbEntity
  8
8
100
AcDbLine
 10
476.288
 20
1026.268
 30
0.0
 11
481.2369999999999
 21
1026.268
 31
0.0
  0
LINE
  5
123C
330
15A3
100
AcDbEntity
  8
8
100
AcDbLine
 10
476.2369999999999
 20
1029.443
 30
0.0
 11
481.2369999999999
 21
1029.443
 31
0.0
  0
LINE
  5
123D
330
15A3
100
AcDbEntity
  8
8
100
AcDbLine
 10
476.6759999999999
 20
1032.618
 30
0.0
 11
481.2369999999999
 21
1032.618
 31
0.0
  0
LINE
  5
123E
330
15A3
100
AcDbEntity
  8
8
100
AcDbLine
 10
478.164
 20
1035.793
 30
0.0
 11
481.2369999999999
 21
1035.793
 31
0.0
  0
LINE
  5
123F
330
15A3
100
AcDbEntity
  8
8
100
AcDbLine
 10
478.008
 20
1038.968
 30
0.0
 11
481.2369999999999
 21
1038.968
 31
0.0
  0
LINE
  5
1240
330
15A3
100
AcDbEntity
  8
8
100
AcDbLine
 10
472.7809999999999
 20
1042.143
 30
0.0
 11
481.2369999999999
 21
1042.143
 31
0.0
  0
LINE
  5
1241
330
15A3
100
AcDbEntity
  8
8
100
AcDbLine
 10
477.8609999999999
 20
1045.318
 30
0.0
 11
481.2369999999999
 21
1045.318
 31
0.0
  0
LINE
  5
1242
330
15A3
100
AcDbEntity
  8
8
100
AcDbLine
 10
477.99
 20
1048.493
 30
0.0
 11
481.2369999999999
 21
1048.493
 31
0.0
  0
LINE
  5
1243
330
15A3
100
AcDbEntity
  8
8
100
AcDbLine
 10
460.8369999999999
 20
1051.668
 30
0.0
 11
481.702
 21
1051.668
 31
0.0
  0
LINE
  5
1244
330
15A3
100
AcDbEntity
  8
8
100
AcDbLine
 10
472.2369999999999
 20
1054.843
 30
0.0
 11
483.4469999999999
 21
1054.843
 31
0.0
  0
LINE
  5
1245
330
15A3
100
AcDbEntity
  8
8
100
AcDbLine
 10
482.37
 20
1058.018
 30
0.0
 11
487.3759999999999
 21
1058.018
 31
0.0
  0
LINE
  5
1246
330
15A3
100
AcDbEntity
  8
8
100
AcDbLine
 10
487.565
 20
1061.193
 30
0.0
 11
491.392
 21
1061.193
 31
0.0
  0
LINE
  5
1247
330
15A3
100
AcDbEntity
  8
8
100
AcDbLine
 10
490.957
 20
1064.368
 30
0.0
 11
494.204
 21
1064.368
 31
0.0
  0
LINE
  5
1248
330
15A3
100
AcDbEntity
  8
8
100
AcDbLine
 10
493.398
 20
1067.543
 30
0.0
 11
496.3019999999999
 21
1067.543
 31
0.0
  0
LINE
  5
1249
330
15A3
100
AcDbEntity
  8
8
100
AcDbLine
 10
495.095
 20
1070.718
 30
0.0
 11
497.7459999999999
 21
1070.718
 31
0.0
  0
LINE
  5
124A
330
15A3
100
AcDbEntity
  8
8
100
AcDbLine
 10
496.234
 20
1073.893
 30
0.0
 11
499.7189999999999
 21
1073.893
 31
0.0
  0
LINE
  5
124B
330
15A3
100
AcDbEntity
  8
8
100
AcDbLine
 10
496.923
 20
1077.068
 30
0.0
 11
499.6969999999999
 21
1077.068
 31
0.0
  0
LINE
  5
124C
330
15A3
100
AcDbEntity
  8
8
100
AcDbLine
 10
497.183
 20
1080.243
 30
0.0
 11
499.674
 21
1080.243
 31
0.0
  0
LINE
  5
124D
330
15A3
100
AcDbEntity
  8
8
100
AcDbLine
 10
497.2369999999999
 20
1083.418
 30
0.0
 11
499.67
 21
1083.418
 31
0.0
  0
LINE
  5
124E
330
15A3
100
AcDbEntity
  8
8
100
AcDbLine
 10
497.2369999999999
 20
1086.593
 30
0.0
 11
499.674
 21
1086.593
 31
0.0
  0
LINE
  5
124F
330
15A3
100
AcDbEntity
  8
8
100
AcDbLine
 10
497.2369999999999
 20
1089.768
 30
0.0
 11
499.678
 21
1089.768
 31
0.0
  0
LINE
  5
1250
330
15A3
100
AcDbEntity
  8
8
100
AcDbLine
 10
497.2369999999999
 20
1092.943
 30
0.0
 11
499.6819999999999
 21
1092.943
 31
0.0
  0
LINE
  5
1251
330
15A3
100
AcDbEntity
  8
8
100
AcDbLine
 10
497.2369999999999
 20
1096.118
 30
0.0
 11
499.6869999999999
 21
1096.118
 31
0.0
  0
LINE
  5
1252
330
15A3
100
AcDbEntity
  8
8
100
AcDbLine
 10
497.2369999999999
 20
1099.293
 30
0.0
 11
499.6909999999999
 21
1099.293
 31
0.0
  0
LINE
  5
1253
330
15A3
100
AcDbEntity
  8
8
100
AcDbLine
 10
497.2369999999999
 20
1102.468
 30
0.0
 11
499.695
 21
1102.468
 31
0.0
  0
LINE
  5
1254
330
15A3
100
AcDbEntity
  8
8
100
AcDbLine
 10
497.2369999999999
 20
1105.643
 30
0.0
 11
499.699
 21
1105.643
 31
0.0
  0
LINE
  5
1255
330
15A3
100
AcDbEntity
  8
8
100
AcDbLine
 10
497.2369999999999
 20
1108.818
 30
0.0
 11
499.704
 21
1108.818
 31
0.0
  0
LINE
  5
1256
330
15A3
100
AcDbEntity
  8
8
100
AcDbLine
 10
497.2369999999999
 20
1111.993
 30
0.0
 11
499.708
 21
1111.993
 31
0.0
  0
LINE
  5
1257
330
15A3
100
AcDbEntity
  8
8
100
AcDbLine
 10
497.2369999999999
 20
1115.168
 30
0.0
 11
499.7119999999999
 21
1115.168
 31
0.0
  0
LINE
  5
1258
330
15A3
100
AcDbEntity
  8
8
100
AcDbLine
 10
497.2369999999999
 20
1118.343
 30
0.0
 11
499.7169999999999
 21
1118.343
 31
0.0
  0
LINE
  5
1259
330
15A3
100
AcDbEntity
  8
8
100
AcDbLine
 10
497.2369999999999
 20
1121.518
 30
0.0
 11
499.7209999999999
 21
1121.518
 31
0.0
  0
LINE
  5
125A
330
15A3
100
AcDbEntity
  8
8
100
AcDbLine
 10
497.2369999999999
 20
1124.693
 30
0.0
 11
499.725
 21
1124.693
 31
0.0
  0
LINE
  5
125B
330
15A3
100
AcDbEntity
  8
8
100
AcDbLine
 10
497.2369999999999
 20
1127.868
 30
0.0
 11
499.729
 21
1127.868
 31
0.0
  0
LINE
  5
125C
330
15A3
100
AcDbEntity
  8
8
100
AcDbLine
 10
497.2369999999999
 20
1131.043
 30
0.0
 11
499.734
 21
1131.043
 31
0.0
  0
ENDBLK
  5
125D
330
15A3
100
AcDbEntity
  8
0
100
AcDbBlockEnd
  0
BLOCK
  5
129F
330
15A4
100
AcDbEntity
  8
0
100
AcDbBlockBegin
  2
*X2
 70
     1
 10
0.0
 20
0.0
 30
0.0
  3
*X2
  1

  0
LINE
  5
12A0
330
15A4
100
AcDbEntity
  8
8
100
AcDbLine
 10
561.2369999999999
 20
1016.743
 30
0.0
 11
566.473
 21
1016.743
 31
0.0
  0
LINE
  5
12A1
330
15A4
100
AcDbEntity
  8
8
100
AcDbLine
 10
561.2369999999999
 20
1019.918
 30
0.0
 11
564.3869999999999
 21
1019.918
 31
0.0
  0
LINE
  5
12A2
330
15A4
100
AcDbEntity
  8
8
100
AcDbLine
 10
561.2369999999999
 20
1023.093
 30
0.0
 11
564.6619999999999
 21
1023.093
 31
0.0
  0
LINE
  5
12A3
330
15A4
100
AcDbEntity
  8
8
100
AcDbLine
 10
561.2369999999999
 20
1026.268
 30
0.0
 11
566.187
 21
1026.268
 31
0.0
  0
LINE
  5
12A4
330
15A4
100
AcDbEntity
  8
8
100
AcDbLine
 10
561.2369999999999
 20
1029.443
 30
0.0
 11
566.237
 21
1029.443
 31
0.0
  0
LINE
  5
12A5
330
15A4
100
AcDbEntity
  8
8
100
AcDbLine
 10
561.2369999999999
 20
1032.618
 30
0.0
 11
565.798
 21
1032.618
 31
0.0
  0
LINE
  5
12A6
330
15A4
100
AcDbEntity
  8
8
100
AcDbLine
 10
561.2369999999999
 20
1035.793
 30
0.0
 11
564.311
 21
1035.793
 31
0.0
  0
LINE
  5
12A7
330
15A4
100
AcDbEntity
  8
8
100
AcDbLine
 10
561.2369999999999
 20
1038.968
 30
0.0
 11
564.4709999999999
 21
1038.968
 31
0.0
  0
LINE
  5
12A8
330
15A4
100
AcDbEntity
  8
8
100
AcDbLine
 10
561.2369999999999
 20
1042.143
 30
0.0
 11
569.693
 21
1042.143
 31
0.0
  0
LINE
  5
12A9
330
15A4
100
AcDbEntity
  8
8
100
AcDbLine
 10
561.2369999999999
 20
1045.318
 30
0.0
 11
564.6219999999999
 21
1045.318
 31
0.0
  0
LINE
  5
12AA
330
15A4
100
AcDbEntity
  8
8
100
AcDbLine
 10
561.2369999999999
 20
1048.493
 30
0.0
 11
564.4919999999999
 21
1048.493
 31
0.0
  0
LINE
  5
12AB
330
15A4
100
AcDbEntity
  8
8
100
AcDbLine
 10
560.7669999999999
 20
1051.668
 30
0.0
 11
581.638
 21
1051.668
 31
0.0
  0
LINE
  5
12AC
330
15A4
100
AcDbEntity
  8
8
100
AcDbLine
 10
559.0209999999999
 20
1054.843
 30
0.0
 11
570.237
 21
1054.843
 31
0.0
  0
LINE
  5
12AD
330
15A4
100
AcDbEntity
  8
8
100
AcDbLine
 10
555.102
 20
1058.018
 30
0.0
 11
560.1169999999999
 21
1058.018
 31
0.0
  0
LINE
  5
12AE
330
15A4
100
AcDbEntity
  8
8
100
AcDbLine
 10
551.0919999999999
 20
1061.193
 30
0.0
 11
554.919
 21
1061.193
 31
0.0
  0
LINE
  5
12AF
330
15A4
100
AcDbEntity
  8
8
100
AcDbLine
 10
548.2779999999999
 20
1064.368
 30
0.0
 11
551.5259999999999
 21
1064.368
 31
0.0
  0
LINE
  5
12B0
330
15A4
100
AcDbEntity
  8
8
100
AcDbLine
 10
546.178
 20
1067.543
 30
0.0
 11
549.083
 21
1067.543
 31
0.0
  0
LINE
  5
12B1
330
15A4
100
AcDbEntity
  8
8
100
AcDbLine
 10
544.73
 20
1070.718
 30
0.0
 11
547.386
 21
1070.718
 31
0.0
  0
LINE
  5
12B2
330
15A4
100
AcDbEntity
  8
8
100
AcDbLine
 10
542.738
 20
1073.893
 30
0.0
 11
546.241
 21
1073.893
 31
0.0
  0
LINE
  5
12B3
330
15A4
100
AcDbEntity
  8
8
100
AcDbLine
 10
542.738
 20
1077.068
 30
0.0
 11
545.556
 21
1077.068
 31
0.0
  0
LINE
  5
12B4
330
15A4
100
AcDbEntity
  8
8
100
AcDbLine
 10
542.738
 20
1080.243
 30
0.0
 11
545.2919999999998
 21
1080.243
 31
0.0
  0
LINE
  5
12B5
330
15A4
100
AcDbEntity
  8
8
100
AcDbLine
 10
542.738
 20
1083.418
 30
0.0
 11
545.237
 21
1083.418
 31
0.0
  0
LINE
  5
12B6
330
15A4
100
AcDbEntity
  8
8
100
AcDbLine
 10
542.738
 20
1086.593
 30
0.0
 11
545.237
 21
1086.593
 31
0.0
  0
LINE
  5
12B7
330
15A4
100
AcDbEntity
  8
8
100
AcDbLine
 10
542.738
 20
1089.768
 30
0.0
 11
545.237
 21
1089.768
 31
0.0
  0
LINE
  5
12B8
330
15A4
100
AcDbEntity
  8
8
100
AcDbLine
 10
542.738
 20
1092.943
 30
0.0
 11
545.237
 21
1092.943
 31
0.0
  0
LINE
  5
12B9
330
15A4
100
AcDbEntity
  8
8
100
AcDbLine
 10
542.738
 20
1096.118
 30
0.0
 11
545.237
 21
1096.118
 31
0.0
  0
LINE
  5
12BA
330
15A4
100
AcDbEntity
  8
8
100
AcDbLine
 10
542.738
 20
1099.293
 30
0.0
 11
545.237
 21
1099.293
 31
0.0
  0
LINE
  5
12BB
330
15A4
100
AcDbEntity
  8
8
100
AcDbLine
 10
542.738
 20
1102.468
 30
0.0
 11
545.237
 21
1102.468
 31
0.0
  0
LINE
  5
12BC
330
15A4
100
AcDbEntity
  8
8
100
AcDbLine
 10
542.738
 20
1105.643
 30
0.0
 11
545.237
 21
1105.643
 31
0.0
  0
LINE
  5
12BD
330
15A4
100
AcDbEntity
  8
8
100
AcDbLine
 10
542.738
 20
1108.818
 30
0.0
 11
545.237
 21
1108.818
 31
0.0
  0
LINE
  5
12BE
330
15A4
100
AcDbEntity
  8
8
100
AcDbLine
 10
542.738
 20
1111.993
 30
0.0
 11
545.237
 21
1111.993
 31
0.0
  0
LINE
  5
12BF
330
15A4
100
AcDbEntity
  8
8
100
AcDbLine
 10
542.738
 20
1115.168
 30
0.0
 11
545.237
 21
1115.168
 31
0.0
  0
LINE
  5
12C0
330
15A4
100
AcDbEntity
  8
8
100
AcDbLine
 10
542.738
 20
1118.343
 30
0.0
 11
545.237
 21
1118.343
 31
0.0
  0
LINE
  5
12C1
330
15A4
100
AcDbEntity
  8
8
100
AcDbLine
 10
542.738
 20
1121.518
 30
0.0
 11
545.237
 21
1121.518
 31
0.0
  0
LINE
  5
12C2
330
15A4
100
AcDbEntity
  8
8
100
AcDbLine
 10
542.738
 20
1124.693
 30
0.0
 11
545.237
 21
1124.693
 31
0.0
  0
LINE
  5
12C3
330
15A4
100
AcDbEntity
  8
8
100
AcDbLine
 10
542.738
 20
1127.868
 30
0.0
 11
545.237
 21
1127.868
 31
0.0
  0
LINE
  5
12C4
330
15A4
100
AcDbEntity
  8
8
100
AcDbLine
 10
542.738
 20
1131.043
 30
0.0
 11
545.237
 21
1131.043
 31
0.0
  0
ENDBLK
  5
12C5
330
15A4
100
AcDbEntity
  8
0
100
AcDbBlockEnd
  0
BLOCK
  5
12E3
330
15A5
100
AcDbEntity
  8
0
100
AcDbBlockBegin
  2
*X3
 70
     1
 10
0.0
 20
0.0
 30
0.0
  3
*X3
  1

  0
LINE
  5
12E4
330
15A5
100
AcDbEntity
  8
8
100
AcDbLine
 10
567.1319999999999
 20
1033.15
 30
0.0
 11
571.992
 21
1038.01
 31
0.0
  0
LINE
  5
12E5
330
15A5
100
AcDbEntity
  8
8
100
AcDbLine
 10
564.67
 20
1035.178
 30
0.0
 11
569.964
 21
1040.472
 31
0.0
  0
LINE
  5
12E6
330
15A5
100
AcDbEntity
  8
8
100
AcDbLine
 10
571.806
 20
1035.47
 30
0.0
 11
566.683
 21
1040.593
 31
0.0
  0
LINE
  5
12E7
330
15A5
100
AcDbEntity
  8
8
100
AcDbLine
 10
569.5149999999999
 20
1033.271
 30
0.0
 11
564.484
 21
1038.302
 31
0.0
  0
ENDBLK
  5
12E8
330
15A5
100
AcDbEntity
  8
0
100
AcDbBlockEnd
  0
BLOCK
  5
1306
330
15A6
100
AcDbEntity
  8
0
100
AcDbBlockBegin
  2
*X4
 70
     1
 10
0.0
 20
0.0
 30
0.0
  3
*X4
  1

  0
LINE
  5
1307
330
15A6
100
AcDbEntity
  8
8
100
AcDbLine
 10
472.9599999999999
 20
1033.271
 30
0.0
 11
477.991
 21
1038.302
 31
0.0
  0
LINE
  5
1308
330
15A6
100
AcDbEntity
  8
8
100
AcDbLine
 10
470.669
 20
1035.47
 30
0.0
 11
475.7919999999999
 21
1040.592
 31
0.0
  0
LINE
  5
1309
330
15A6
100
AcDbEntity
  8
8
100
AcDbLine
 10
477.805
 20
1035.178
 30
0.0
 11
472.5119999999999
 21
1040.472
 31
0.0
  0
LINE
  5
130A
330
15A6
100
AcDbEntity
  8
8
100
AcDbLine
 10
475.344
 20
1033.15
 30
0.0
 11
470.483
 21
1038.01
 31
0.0
  0
ENDBLK
  5
130B
330
15A6
100
AcDbEntity
  8
0
100
AcDbBlockEnd
  0
BLOCK
  5
1378
330
15AC
100
AcDbEntity
  8
0
100
AcDbBlockBegin
  2
*X5
 70
     1
 10
0.0
 20
0.0
 30
0.0
  3
*X5
  1

  0
LINE
  5
1379
330
15AC
100
AcDbEntity
  8
8
100
AcDbLine
 10
466.399
 20
972.8279999999999
 30
0.0
 11
472.0609999999999
 21
978.49
 31
0.0
  0
LINE
  5
137A
330
15AC
100
AcDbEntity
  8
8
100
AcDbLine
 10
466.255
 20
981.6649999999999
 30
0.0
 11
471.9369999999999
 21
987.3469999999999
 31
0.0
  0
LINE
  5
137B
330
15AC
100
AcDbEntity
  8
8
100
AcDbLine
 10
466.1119999999999
 20
990.502
 30
0.0
 11
471.1359999999999
 21
995.5249999999999
 31
0.0
  0
LINE
  5
137C
330
15AC
100
AcDbEntity
  8
8
100
AcDbLine
 10
465.969
 20
999.3389999999999
 30
0.0
 11
470.9419999999999
 21
1004.312
 31
0.0
  0
LINE
  5
137D
330
15AC
100
AcDbEntity
  8
8
100
AcDbLine
 10
465.8249999999999
 20
1008.176
 30
0.0
 11
470.803
 21
1013.153
 31
0.0
  0
LINE
  5
137E
330
15AC
100
AcDbEntity
  8
8
100
AcDbLine
 10
465.6819999999999
 20
1017.012
 30
0.0
 11
470.665
 21
1021.995
 31
0.0
  0
LINE
  5
137F
330
15AC
100
AcDbEntity
  8
8
100
AcDbLine
 10
465.5389999999999
 20
1025.849
 30
0.0
 11
470.5259999999999
 21
1030.837
 31
0.0
  0
LINE
  5
1380
330
15AC
100
AcDbEntity
  8
8
100
AcDbLine
 10
465.395
 20
1034.686
 30
0.0
 11
470.4119999999999
 21
1039.703
 31
0.0
  0
LINE
  5
1381
330
15AC
100
AcDbEntity
  8
8
100
AcDbLine
 10
463.703
 20
1041.974
 30
0.0
 11
470.0239999999999
 21
1048.295
 31
0.0
  0
LINE
  5
1382
330
15AC
100
AcDbEntity
  8
8
100
AcDbLine
 10
459.7979999999999
 20
1047.049
 30
0.0
 11
463.6519999999999
 21
1050.904
 31
0.0
  0
LINE
  5
1383
330
15AC
100
AcDbEntity
  8
8
100
AcDbLine
 10
454.0869999999999
 20
1050.319
 30
0.0
 11
458.935
 21
1055.166
 31
0.0
  0
LINE
  5
1384
330
15AC
100
AcDbEntity
  8
8
100
AcDbLine
 10
445.985
 20
1051.196
 30
0.0
 11
450.692
 21
1055.904
 31
0.0
  0
LINE
  5
1385
330
15AC
100
AcDbEntity
  8
8
100
AcDbLine
 10
438.4769999999999
 20
1052.669
 30
0.0
 11
442.443
 21
1056.635
 31
0.0
  0
LINE
  5
1386
330
15AC
100
AcDbEntity
  8
8
100
AcDbLine
 10
432.2169999999999
 20
1055.39
 30
0.0
 11
435.876
 21
1059.048
 31
0.0
  0
LINE
  5
1387
330
15AC
100
AcDbEntity
  8
8
100
AcDbLine
 10
426.859
 20
1059.011
 30
0.0
 11
430.461
 21
1062.614
 31
0.0
  0
LINE
  5
1388
330
15AC
100
AcDbEntity
  8
8
100
AcDbLine
 10
422.2979999999999
 20
1063.431
 30
0.0
 11
425.997
 21
1067.129
 31
0.0
  0
LINE
  5
1389
330
15AC
100
AcDbEntity
  8
8
100
AcDbLine
 10
418.6709999999999
 20
1068.784
 30
0.0
 11
422.4819999999999
 21
1072.595
 31
0.0
  0
LINE
  5
138A
330
15AC
100
AcDbEntity
  8
8
100
AcDbLine
 10
415.983
 20
1075.076
 30
0.0
 11
420.1419999999999
 21
1079.235
 31
0.0
  0
LINE
  5
138B
330
15AC
100
AcDbEntity
  8
8
100
AcDbLine
 10
414.538
 20
1082.612
 30
0.0
 11
419.1709999999999
 21
1087.245
 31
0.0
  0
LINE
  5
138C
330
15AC
100
AcDbEntity
  8
8
100
AcDbLine
 10
413.579
 20
1090.633
 30
0.0
 11
418.724
 21
1095.778
 31
0.0
  0
LINE
  5
138D
330
15AC
100
AcDbEntity
  8
8
100
AcDbLine
 10
409.452
 20
1095.486
 30
0.0
 11
413.869
 21
1099.903
 31
0.0
  0
LINE
  5
138E
330
15AC
100
AcDbEntity
  8
8
100
AcDbLine
 10
402.6269999999999
 20
1097.641
 30
0.0
 11
406.709
 21
1101.723
 31
0.0
  0
LINE
  5
138F
330
15AC
100
AcDbEntity
  8
8
100
AcDbLine
 10
395.544
 20
1099.539
 30
0.0
 11
399.626
 21
1103.621
 31
0.0
  0
LINE
  5
1390
330
15AC
100
AcDbEntity
  8
8
100
AcDbLine
 10
388.462
 20
1101.437
 30
0.0
 11
392.544
 21
1105.519
 31
0.0
  0
LINE
  5
1391
330
15AC
100
AcDbEntity
  8
8
100
AcDbLine
 10
381.379
 20
1103.334
 30
0.0
 11
385.461
 21
1107.417
 31
0.0
  0
LINE
  5
1392
330
15AC
100
AcDbEntity
  8
8
100
AcDbLine
 10
374.297
 20
1105.232
 30
0.0
 11
378.379
 21
1109.314
 31
0.0
  0
LINE
  5
1393
330
15AC
100
AcDbEntity
  8
8
100
AcDbLine
 10
367.214
 20
1107.13
 30
0.0
 11
371.296
 21
1111.212
 31
0.0
  0
LINE
  5
1394
330
15AC
100
AcDbEntity
  8
8
100
AcDbLine
 10
360.1319999999999
 20
1109.028
 30
0.0
 11
364.214
 21
1113.11
 31
0.0
  0
LINE
  5
1395
330
15AC
100
AcDbEntity
  8
8
100
AcDbLine
 10
353.049
 20
1110.925
 30
0.0
 11
357.131
 21
1115.008
 31
0.0
  0
LINE
  5
1396
330
15AC
100
AcDbEntity
  8
8
100
AcDbLine
 10
345.967
 20
1112.823
 30
0.0
 11
350.049
 21
1116.905
 31
0.0
  0
LINE
  5
1397
330
15AC
100
AcDbEntity
  8
8
100
AcDbLine
 10
337.5669999999999
 20
1113.404
 30
0.0
 11
342.991
 21
1118.828
 31
0.0
  0
LINE
  5
1398
330
15AC
100
AcDbEntity
  8
8
100
AcDbLine
 10
328.587
 20
1113.404
 30
0.0
 11
338.587
 21
1123.404
 31
0.0
  0
LINE
  5
1399
330
15AC
100
AcDbEntity
  8
8
100
AcDbLine
 10
319.606
 20
1113.404
 30
0.0
 11
325.106
 21
1118.904
 31
0.0
  0
LINE
  5
139A
330
15AC
100
AcDbEntity
  8
8
100
AcDbLine
 10
310.626
 20
1113.404
 30
0.0
 11
316.126
 21
1118.903
 31
0.0
  0
LINE
  5
139B
330
15AC
100
AcDbEntity
  8
8
100
AcDbLine
 10
306.238
 20
1117.995
 30
0.0
 11
307.145
 21
1118.903
 31
0.0
  0
ENDBLK
  5
139C
330
15AC
100
AcDbEntity
  8
0
100
AcDbBlockEnd
  0
BLOCK
  5
13B9
330
15AD
100
AcDbEntity
  8
0
100
AcDbBlockBegin
  2
*X6
 70
     1
 10
0.0
 20
0.0
 30
0.0
  3
*X6
  1

  0
LINE
  5
13BA
330
15AD
100
AcDbEntity
  8
8
100
AcDbLine
 10
411.283
 20
1142.219
 30
0.0
 11
416.0409999999999
 21
1146.976
 31
0.0
  0
LINE
  5
13BB
330
15AD
100
AcDbEntity
  8
8
100
AcDbLine
 10
410.836
 20
1150.752
 30
0.0
 11
415.594
 21
1155.509
 31
0.0
  0
LINE
  5
13BC
330
15AD
100
AcDbEntity
  8
8
100
AcDbLine
 10
410.3889999999999
 20
1159.285
 30
0.0
 11
415.1459999999999
 21
1164.042
 31
0.0
  0
LINE
  5
13BD
330
15AD
100
AcDbEntity
  8
8
100
AcDbLine
 10
409.9409999999999
 20
1167.818
 30
0.0
 11
414.699
 21
1172.575
 31
0.0
  0
LINE
  5
13BE
330
15AD
100
AcDbEntity
  8
8
100
AcDbLine
 10
407.538
 20
1174.394
 30
0.0
 11
414.2519999999999
 21
1181.108
 31
0.0
  0
LINE
  5
13BF
330
15AD
100
AcDbEntity
  8
8
100
AcDbLine
 10
401.785
 20
1177.622
 30
0.0
 11
410.0669999999999
 21
1185.903
 31
0.0
  0
LINE
  5
13C0
330
15AD
100
AcDbEntity
  8
8
100
AcDbLine
 10
393.087
 20
1177.904
 30
0.0
 11
401.086
 21
1185.903
 31
0.0
  0
LINE
  5
13C1
330
15AD
100
AcDbEntity
  8
8
100
AcDbLine
 10
384.107
 20
1177.904
 30
0.0
 11
392.106
 21
1185.903
 31
0.0
  0
LINE
  5
13C2
330
15AD
100
AcDbEntity
  8
8
100
AcDbLine
 10
375.126
 20
1177.904
 30
0.0
 11
383.126
 21
1185.903
 31
0.0
  0
LINE
  5
13C3
330
15AD
100
AcDbEntity
  8
8
100
AcDbLine
 10
366.1459999999999
 20
1177.904
 30
0.0
 11
374.146
 21
1185.903
 31
0.0
  0
LINE
  5
13C4
330
15AD
100
AcDbEntity
  8
8
100
AcDbLine
 10
357.166
 20
1177.904
 30
0.0
 11
365.165
 21
1185.903
 31
0.0
  0
LINE
  5
13C5
330
15AD
100
AcDbEntity
  8
8
100
AcDbLine
 10
348.186
 20
1177.904
 30
0.0
 11
356.185
 21
1185.903
 31
0.0
  0
LINE
  5
13C6
330
15AD
100
AcDbEntity
  8
8
100
AcDbLine
 10
335.232
 20
1173.93
 30
0.0
 11
347.205
 21
1185.903
 31
0.0
  0
LINE
  5
13C7
330
15AD
100
AcDbEntity
  8
8
100
AcDbLine
 10
330.225
 20
1177.904
 30
0.0
 11
338.225
 21
1185.903
 31
0.0
  0
LINE
  5
13C8
330
15AD
100
AcDbEntity
  8
8
100
AcDbLine
 10
321.245
 20
1177.904
 30
0.0
 11
329.244
 21
1185.903
 31
0.0
  0
LINE
  5
13C9
330
15AD
100
AcDbEntity
  8
8
100
AcDbLine
 10
312.265
 20
1177.904
 30
0.0
 11
320.264
 21
1185.903
 31
0.0
  0
LINE
  5
13CA
330
15AD
100
AcDbEntity
  8
8
100
AcDbLine
 10
306.4
 20
1181.02
 30
0.0
 11
311.284
 21
1185.903
 31
0.0
  0
ENDBLK
  5
13CB
330
15AD
100
AcDbEntity
  8
0
100
AcDbBlockEnd
  0
BLOCK
  5
1403
330
15AE
100
AcDbEntity
  8
0
100
AcDbBlockBegin
  2
*X7
 70
     1
 10
0.0
 20
0.0
 30
0.0
  3
*X7
  1

  0
LINE
  5
1404
330
15AE
100
AcDbEntity
  8
8
100
AcDbLine
 10
570.2809999999999
 20
968.947
 30
0.0
 11
576.109
 21
974.7749999999999
 31
0.0
  0
LINE
  5
1405
330
15AE
100
AcDbEntity
  8
8
100
AcDbLine
 10
570.408
 20
978.054
 30
0.0
 11
576.2569999999999
 21
983.9030000000001
 31
0.0
  0
LINE
  5
1406
330
15AE
100
AcDbEntity
  8
8
100
AcDbLine
 10
570.535
 20
987.162
 30
0.0
 11
576.405
 21
993.031
 31
0.0
  0
LINE
  5
1407
330
15AE
100
AcDbEntity
  8
8
100
AcDbLine
 10
571.4209999999999
 20
997.0269999999999
 30
0.0
 11
576.553
 21
1002.159
 31
0.0
  0
LINE
  5
1408
330
15AE
100
AcDbEntity
  8
8
100
AcDbLine
 10
571.58
 20
1006.167
 30
0.0
 11
576.7
 21
1011.287
 31
0.0
  0
LINE
  5
1409
330
15AE
100
AcDbEntity
  8
8
100
AcDbLine
 10
571.739
 20
1015.307
 30
0.0
 11
576.8480000000001
 21
1020.416
 31
0.0
  0
LINE
  5
140A
330
15AE
100
AcDbEntity
  8
8
100
AcDbLine
 10
614.1739999999999
 20
1057.741
 30
0.0
 11
620.84
 21
1064.407
 31
0.0
  0
LINE
  5
140B
330
15AE
100
AcDbEntity
  8
8
100
AcDbLine
 10
734.337
 20
1177.904
 30
0.0
 11
736.1419999999999
 21
1179.71
 31
0.0
  0
LINE
  5
140C
330
15AE
100
AcDbEntity
  8
8
100
AcDbLine
 10
571.8989999999999
 20
1024.446
 30
0.0
 11
576.996
 21
1029.544
 31
0.0
  0
LINE
  5
140D
330
15AE
100
AcDbEntity
  8
8
100
AcDbLine
 10
598.854
 20
1051.401
 30
0.0
 11
606.4349999999999
 21
1058.982
 31
0.0
  0
LINE
  5
140E
330
15AE
100
AcDbEntity
  8
8
100
AcDbLine
 10
619.95
 20
1072.498
 30
0.0
 11
627.586
 21
1080.134
 31
0.0
  0
LINE
  5
140F
330
15AE
100
AcDbEntity
  8
8
100
AcDbLine
 10
725.3560000000001
 20
1177.904
 30
0.0
 11
733.15
 21
1185.697
 31
0.0
  0
LINE
  5
1410
330
15AE
100
AcDbEntity
  8
8
100
AcDbLine
 10
572.0579999999999
 20
1033.586
 30
0.0
 11
577.6619999999999
 21
1039.19
 31
0.0
  0
LINE
  5
1411
330
15AE
100
AcDbEntity
  8
8
100
AcDbLine
 10
588.848
 20
1050.375
 30
0.0
 11
594.518
 21
1056.045
 31
0.0
  0
LINE
  5
1412
330
15AE
100
AcDbEntity
  8
8
100
AcDbLine
 10
623.1709999999999
 20
1084.699
 30
0.0
 11
628.455
 21
1089.983
 31
0.0
  0
LINE
  5
1413
330
15AE
100
AcDbEntity
  8
8
100
AcDbLine
 10
716.376
 20
1177.904
 30
0.0
 11
724.376
 21
1185.903
 31
0.0
  0
LINE
  5
1414
330
15AE
100
AcDbEntity
  8
8
100
AcDbLine
 10
572.218
 20
1042.726
 30
0.0
 11
580.396
 21
1050.904
 31
0.0
  0
LINE
  5
1415
330
15AE
100
AcDbEntity
  8
8
100
AcDbLine
 10
583.131
 20
1053.639
 30
0.0
 11
585.395
 21
1055.904
 31
0.0
  0
LINE
  5
1416
330
15AE
100
AcDbEntity
  8
8
100
AcDbLine
 10
623.6679999999999
 20
1094.176
 30
0.0
 11
628.952
 21
1099.46
 31
0.0
  0
LINE
  5
1417
330
15AE
100
AcDbEntity
  8
8
100
AcDbLine
 10
707.396
 20
1177.904
 30
0.0
 11
715.395
 21
1185.903
 31
0.0
  0
LINE
  5
1418
330
15AE
100
AcDbEntity
  8
8
100
AcDbLine
 10
624.1649999999999
 20
1103.653
 30
0.0
 11
629.449
 21
1108.937
 31
0.0
  0
LINE
  5
1419
330
15AE
100
AcDbEntity
  8
8
100
AcDbLine
 10
699.6439999999998
 20
1179.132
 30
0.0
 11
706.4149999999999
 21
1185.903
 31
0.0
  0
LINE
  5
141A
330
15AE
100
AcDbEntity
  8
8
100
AcDbLine
 10
624.6609999999999
 20
1113.13
 30
0.0
 11
629.945
 21
1118.414
 31
0.0
  0
LINE
  5
141B
330
15AE
100
AcDbEntity
  8
8
100
AcDbLine
 10
691.1319999999999
 20
1179.6
 30
0.0
 11
697.4349999999999
 21
1185.903
 31
0.0
  0
LINE
  5
141C
330
15AE
100
AcDbEntity
  8
8
100
AcDbLine
 10
625.158
 20
1122.607
 30
0.0
 11
630.442
 21
1127.891
 31
0.0
  0
LINE
  5
141D
330
15AE
100
AcDbEntity
  8
8
100
AcDbLine
 10
681.827
 20
1179.275
 30
0.0
 11
688.455
 21
1185.903
 31
0.0
  0
LINE
  5
141E
330
15AE
100
AcDbEntity
  8
8
100
AcDbLine
 10
625.6549999999999
 20
1132.084
 30
0.0
 11
630.9389999999999
 21
1137.368
 31
0.0
  0
LINE
  5
141F
330
15AE
100
AcDbEntity
  8
8
100
AcDbLine
 10
672.521
 20
1178.95
 30
0.0
 11
679.4739999999999
 21
1185.903
 31
0.0
  0
LINE
  5
1420
330
15AE
100
AcDbEntity
  8
8
100
AcDbLine
 10
626.1509999999999
 20
1141.561
 30
0.0
 11
631.4349999999999
 21
1146.845
 31
0.0
  0
LINE
  5
1421
330
15AE
100
AcDbEntity
  8
8
100
AcDbLine
 10
663.058
 20
1178.467
 30
0.0
 11
670.4939999999999
 21
1185.903
 31
0.0
  0
LINE
  5
1422
330
15AE
100
AcDbEntity
  8
8
100
AcDbLine
 10
626.648
 20
1151.038
 30
0.0
 11
631.932
 21
1156.321
 31
0.0
  0
LINE
  5
1423
330
15AE
100
AcDbEntity
  8
8
100
AcDbLine
 10
653.753
 20
1178.143
 30
0.0
 11
661.5139999999999
 21
1185.903
 31
0.0
  0
LINE
  5
1424
330
15AE
100
AcDbEntity
  8
8
100
AcDbLine
 10
627.1449999999999
 20
1160.515
 30
0.0
 11
632.4289999999999
 21
1165.798
 31
0.0
  0
LINE
  5
1425
330
15AE
100
AcDbEntity
  8
8
100
AcDbLine
 10
644.577
 20
1177.947
 30
0.0
 11
652.533
 21
1185.903
 31
0.0
  0
LINE
  5
1426
330
15AE
100
AcDbEntity
  8
8
100
AcDbLine
 10
627.6409999999999
 20
1169.991
 30
0.0
 11
643.5529999999999
 21
1185.903
 31
0.0
  0
LINE
  5
1427
330
15AE
100
AcDbEntity
  8
8
100
AcDbLine
 10
628.138
 20
1179.468
 30
0.0
 11
634.5729999999999
 21
1185.903
 31
0.0
  0
ENDBLK
  5
1428
330
15AE
100
AcDbEntity
  8
0
100
AcDbBlockEnd
  0
BLOCK
  5
144F
330
15B1
100
AcDbEntity
  8
0
100
AcDbBlockBegin
  2
*X8
 70
     1
 10
0.0
 20
0.0
 30
0.0
  3
*X8
  1

  0
LINE
  5
1450
330
15B1
100
AcDbEntity
  8
8
100
AcDbLine
 10
320.116
 20
1118.903
 30
0.0
 11
324.7
 21
1123.487
 31
0.0
  0
LINE
  5
1451
330
15B1
100
AcDbEntity
  8
8
100
AcDbLine
 10
315.626
 20
1118.904
 30
0.0
 11
317.626
 21
1120.904
 31
0.0
  0
LINE
  5
1452
330
15B1
100
AcDbEntity
  8
8
100
AcDbLine
 10
323.968
 20
1127.245
 30
0.0
 11
325.149
 21
1128.426
 31
0.0
  0
LINE
  5
1453
330
15B1
100
AcDbEntity
  8
8
100
AcDbLine
 10
311.136
 20
1118.904
 30
0.0
 11
313.136
 21
1120.903
 31
0.0
  0
LINE
  5
1454
330
15B1
100
AcDbEntity
  8
8
100
AcDbLine
 10
303.146
 20
1115.404
 30
0.0
 11
306.238
 21
1118.495
 31
0.0
  0
LINE
  5
1455
330
15B1
100
AcDbEntity
  8
8
100
AcDbLine
 10
306.646
 20
1118.904
 30
0.0
 11
312.148
 21
1124.405
 31
0.0
  0
LINE
  5
1456
330
15B1
100
AcDbEntity
  8
8
100
AcDbLine
 10
302.238
 20
1118.985
 30
0.0
 11
304.156
 21
1120.904
 31
0.0
  0
LINE
  5
1457
330
15B1
100
AcDbEntity
  8
8
100
AcDbLine
 10
324.711
 20
1123.615
 30
0.0
 11
322.899
 21
1125.428
 31
0.0
  0
LINE
  5
1458
330
15B1
100
AcDbEntity
  8
8
100
AcDbLine
 10
324.337
 20
1119.499
 30
0.0
 11
321.236
 21
1122.601
 31
0.0
  0
LINE
  5
1459
330
15B1
100
AcDbEntity
  8
8
100
AcDbLine
 10
320.443
 20
1118.903
 30
0.0
 11
318.443
 21
1120.904
 31
0.0
  0
LINE
  5
145A
330
15B1
100
AcDbEntity
  8
8
100
AcDbLine
 10
313.134
 20
1126.213
 30
0.0
 11
312.943
 21
1126.404
 31
0.0
  0
LINE
  5
145B
330
15B1
100
AcDbEntity
  8
8
100
AcDbLine
 10
315.953
 20
1118.903
 30
0.0
 11
313.953
 21
1120.904
 31
0.0
  0
LINE
  5
145C
330
15B1
100
AcDbEntity
  8
8
100
AcDbLine
 10
311.549
 20
1123.308
 30
0.0
 11
310.095
 21
1124.761
 31
0.0
  0
LINE
  5
145D
330
15B1
100
AcDbEntity
  8
8
100
AcDbLine
 10
311.463
 20
1118.904
 30
0.0
 11
307.85
 21
1122.516
 31
0.0
  0
LINE
  5
145E
330
15B1
100
AcDbEntity
  8
8
100
AcDbLine
 10
306.973
 20
1118.904
 30
0.0
 11
304.973
 21
1120.904
 31
0.0
  0
LINE
  5
145F
330
15B1
100
AcDbEntity
  8
8
100
AcDbLine
 10
305.982
 20
1115.404
 30
0.0
 11
302.238
 21
1119.148
 31
0.0
  0
ENDBLK
  5
1460
330
15B1
100
AcDbEntity
  8
0
100
AcDbBlockEnd
  0
BLOCK
  5
1470
330
15B2
100
AcDbEntity
  8
0
100
AcDbBlockBegin
  2
*X9
 70
     1
 10
0.0
 20
0.0
 30
0.0
  3
*X9
  1

  0
LINE
  5
1471
330
15B2
100
AcDbEntity
  8
8
100
AcDbLine
 10
323.011
 20
1171.189
 30
0.0
 11
324.737
 21
1172.915
 31
0.0
  0
LINE
  5
1472
330
15B2
100
AcDbEntity
  8
8
100
AcDbLine
 10
321.348
 20
1174.016
 30
0.0
 11
324.362
 21
1177.031
 31
0.0
  0
LINE
  5
1473
330
15B2
100
AcDbEntity
  8
8
100
AcDbLine
 10
318.745
 20
1175.904
 30
0.0
 11
320.745
 21
1177.903
 31
0.0
  0
LINE
  5
1474
330
15B2
100
AcDbEntity
  8
8
100
AcDbLine
 10
310.246
 20
1171.895
 30
0.0
 11
311.655
 21
1173.304
 31
0.0
  0
LINE
  5
1475
330
15B2
100
AcDbEntity
  8
8
100
AcDbLine
 10
314.255
 20
1175.904
 30
0.0
 11
316.254
 21
1177.903
 31
0.0
  0
LINE
  5
1476
330
15B2
100
AcDbEntity
  8
8
100
AcDbLine
 10
308.001
 20
1174.14
 30
0.0
 11
311.764
 21
1177.903
 31
0.0
  0
LINE
  5
1477
330
15B2
100
AcDbEntity
  8
8
100
AcDbLine
 10
305.274
 20
1175.904
 30
0.0
 11
307.274
 21
1177.903
 31
0.0
  0
LINE
  5
1478
330
15B2
100
AcDbEntity
  8
8
100
AcDbLine
 10
302.238
 20
1177.357
 30
0.0
 11
306.238
 21
1181.357
 31
0.0
  0
LINE
  5
1479
330
15B2
100
AcDbEntity
  8
8
100
AcDbLine
 10
324.73
 20
1172.988
 30
0.0
 11
319.815
 21
1177.903
 31
0.0
  0
LINE
  5
147A
330
15B2
100
AcDbEntity
  8
8
100
AcDbLine
 10
325.179
 20
1168.049
 30
0.0
 11
324.399
 21
1168.829
 31
0.0
  0
LINE
  5
147B
330
15B2
100
AcDbEntity
  8
8
100
AcDbLine
 10
317.324
 20
1175.904
 30
0.0
 11
315.325
 21
1177.903
 31
0.0
  0
LINE
  5
147C
330
15B2
100
AcDbEntity
  8
8
100
AcDbLine
 10
312.834
 20
1175.904
 30
0.0
 11
310.835
 21
1177.903
 31
0.0
  0
LINE
  5
147D
330
15B2
100
AcDbEntity
  8
8
100
AcDbLine
 10
312.51
 20
1171.738
 30
0.0
 11
306.344
 21
1177.903
 31
0.0
  0
LINE
  5
147E
330
15B2
100
AcDbEntity
  8
8
100
AcDbLine
 10
306.238
 20
1178.01
 30
0.0
 11
302.844
 21
1181.404
 31
0.0
  0
LINE
  5
147F
330
15B2
100
AcDbEntity
  8
8
100
AcDbLine
 10
303.8540000000001
 20
1175.904
 30
0.0
 11
302.238
 21
1177.52
 31
0.0
  0
ENDBLK
  5
1480
330
15B2
100
AcDbEntity
  8
0
100
AcDbBlockEnd
  0
BLOCK
  5
1491
330
15B3
100
AcDbEntity
  8
0
100
AcDbBlockBegin
  2
*X10
 70
     1
 10
0.0
 20
0.0
 30
0.0
  3
*X10
  1

  0
LINE
  5
1492
330
15B3
100
AcDbEntity
  8
8
100
AcDbLine
 10
689.721
 20
1190.903
 30
0.0
 11
696.2369999999999
 21
1197.42
 31
0.0
  0
LINE
  5
1493
330
15B3
100
AcDbEntity
  8
8
100
AcDbLine
 10
685.2310000000001
 20
1190.903
 30
0.0
 11
693.2310000000001
 21
1198.904
 31
0.0
  0
LINE
  5
1494
330
15B3
100
AcDbEntity
  8
8
100
AcDbLine
 10
680.741
 20
1190.903
 30
0.0
 11
688.741
 21
1198.904
 31
0.0
  0
LINE
  5
1495
330
15B3
100
AcDbEntity
  8
8
100
AcDbLine
 10
676.251
 20
1190.903
 30
0.0
 11
684.251
 21
1198.904
 31
0.0
  0
LINE
  5
1496
330
15B3
100
AcDbEntity
  8
8
100
AcDbLine
 10
671.761
 20
1190.903
 30
0.0
 11
679.761
 21
1198.904
 31
0.0
  0
LINE
  5
1497
330
15B3
100
AcDbEntity
  8
8
100
AcDbLine
 10
667.2710000000001
 20
1190.903
 30
0.0
 11
675.271
 21
1198.904
 31
0.0
  0
LINE
  5
1498
330
15B3
100
AcDbEntity
  8
8
100
AcDbLine
 10
662.7799999999999
 20
1190.903
 30
0.0
 11
670.7799999999999
 21
1198.904
 31
0.0
  0
LINE
  5
1499
330
15B3
100
AcDbEntity
  8
8
100
AcDbLine
 10
658.2899999999999
 20
1190.903
 30
0.0
 11
666.2899999999999
 21
1198.904
 31
0.0
  0
LINE
  5
149A
330
15B3
100
AcDbEntity
  8
8
100
AcDbLine
 10
653.7999999999999
 20
1190.903
 30
0.0
 11
661.7999999999999
 21
1198.904
 31
0.0
  0
LINE
  5
149B
330
15B3
100
AcDbEntity
  8
8
100
AcDbLine
 10
649.3099999999999
 20
1190.903
 30
0.0
 11
657.3099999999999
 21
1198.904
 31
0.0
  0
LINE
  5
149C
330
15B3
100
AcDbEntity
  8
8
100
AcDbLine
 10
644.82
 20
1190.903
 30
0.0
 11
652.82
 21
1198.904
 31
0.0
  0
LINE
  5
149D
330
15B3
100
AcDbEntity
  8
8
100
AcDbLine
 10
640.4580000000001
 20
1191.032
 30
0.0
 11
648.33
 21
1198.904
 31
0.0
  0
LINE
  5
149E
330
15B3
100
AcDbEntity
  8
8
100
AcDbLine
 10
638.7369999999999
 20
1193.801
 30
0.0
 11
643.84
 21
1198.904
 31
0.0
  0
LINE
  5
149F
330
15B3
100
AcDbEntity
  8
8
100
AcDbLine
 10
638.7369999999999
 20
1198.291
 30
0.0
 11
639.35
 21
1198.904
 31
0.0
  0
ENDBLK
  5
14A0
330
15B3
100
AcDbEntity
  8
0
100
AcDbBlockEnd
  0
BLOCK
  5
14B1
330
15B4
100
AcDbEntity
  8
0
100
AcDbBlockBegin
  2
*X11
 70
     1
 10
0.0
 20
0.0
 30
0.0
  3
*X11
  1

  0
LINE
  5
14B2
330
15B4
100
AcDbEntity
  8
8
100
AcDbLine
 10
397.8630000000001
 20
1190.903
 30
0.0
 11
403.737
 21
1196.778
 31
0.0
  0
LINE
  5
14B3
330
15B4
100
AcDbEntity
  8
8
100
AcDbLine
 10
393.373
 20
1190.903
 30
0.0
 11
401.373
 21
1198.904
 31
0.0
  0
LINE
  5
14B4
330
15B4
100
AcDbEntity
  8
8
100
AcDbLine
 10
388.883
 20
1190.903
 30
0.0
 11
396.883
 21
1198.904
 31
0.0
  0
LINE
  5
14B5
330
15B4
100
AcDbEntity
  8
8
100
AcDbLine
 10
384.393
 20
1190.903
 30
0.0
 11
392.393
 21
1198.904
 31
0.0
  0
LINE
  5
14B6
330
15B4
100
AcDbEntity
  8
8
100
AcDbLine
 10
379.902
 20
1190.903
 30
0.0
 11
387.902
 21
1198.904
 31
0.0
  0
LINE
  5
14B7
330
15B4
100
AcDbEntity
  8
8
100
AcDbLine
 10
375.412
 20
1190.903
 30
0.0
 11
383.412
 21
1198.904
 31
0.0
  0
LINE
  5
14B8
330
15B4
100
AcDbEntity
  8
8
100
AcDbLine
 10
370.922
 20
1190.903
 30
0.0
 11
378.922
 21
1198.904
 31
0.0
  0
LINE
  5
14B9
330
15B4
100
AcDbEntity
  8
8
100
AcDbLine
 10
366.432
 20
1190.903
 30
0.0
 11
374.432
 21
1198.904
 31
0.0
  0
LINE
  5
14BA
330
15B4
100
AcDbEntity
  8
8
100
AcDbLine
 10
361.9419999999999
 20
1190.903
 30
0.0
 11
369.9419999999999
 21
1198.904
 31
0.0
  0
LINE
  5
14BB
330
15B4
100
AcDbEntity
  8
8
100
AcDbLine
 10
357.452
 20
1190.903
 30
0.0
 11
365.452
 21
1198.904
 31
0.0
  0
LINE
  5
14BC
330
15B4
100
AcDbEntity
  8
8
100
AcDbLine
 10
352.962
 20
1190.903
 30
0.0
 11
360.962
 21
1198.904
 31
0.0
  0
LINE
  5
14BD
330
15B4
100
AcDbEntity
  8
8
100
AcDbLine
 10
348.508
 20
1190.94
 30
0.0
 11
356.472
 21
1198.904
 31
0.0
  0
LINE
  5
14BE
330
15B4
100
AcDbEntity
  8
8
100
AcDbLine
 10
346.2709999999999
 20
1193.193
 30
0.0
 11
351.981
 21
1198.904
 31
0.0
  0
LINE
  5
14BF
330
15B4
100
AcDbEntity
  8
8
100
AcDbLine
 10
346.237
 20
1197.65
 30
0.0
 11
347.491
 21
1198.904
 31
0.0
  0
ENDBLK
  5
14C0
330
15B4
100
AcDbEntity
  8
0
100
AcDbBlockEnd
  0
BLOCK
  5
162C
330
15DF
100
AcDbEntity
  8
0
100
AcDbBlockBegin
  2
*D12
 70
     1
 10
0.0
 20
0.0
 30
0.0
  3
*D12
  1
GEVFRAME
  0
LINE
  5
162D
330
15DF
100
AcDbEntity
  8
0
  6
ByBlock
100
AcDbLine
 10
301.239
 20
1177.904
 30
0.0
 11
256.188
 21
1177.904
 31
0.0
  0
LINE
  5
162E
330
15DF
100
AcDbEntity
  8
0
  6
ByBlock
100
AcDbLine
 10
301.238
 20
1118.903
 30
0.0
 11
256.188
 21
1118.903
 31
0.0
  0
LINE
  5
162F
330
15DF
100
AcDbEntity
  8
0
  6
ByBlock
100
AcDbLine
 10
261.188
 20
1165.404
 30
0.0
 11
261.188
 21
1131.403
 31
0.0
  0
SOLID
  5
1630
330
15DF
100
AcDbEntity
  8
0
  6
ByBlock
100
AcDbTrace
 10
259.104667
 20
1165.404
 30
0.0
 11
263.271333
 21
1165.404
 31
0.0
 12
261.188
 22
1177.904
 32
0.0
 13
261.188
 23
1177.904
 33
0.0
  0
SOLID
  5
1631
330
15DF
100
AcDbEntity
  8
0
  6
ByBlock
100
AcDbTrace
 10
259.104667
 20
1131.403
 30
0.0
 11
263.271333
 21
1131.403
 31
0.0
 12
261.188
 22
1118.903
 32
0.0
 13
261.188
 23
1118.903
 33
0.0
  0
MTEXT
  5
1632
330
15DF
100
AcDbEntity
  8
0
  6
ByBlock
 62
     2
100
AcDbMText
 10
249.438
 20
1148.4035
 30
0.0
 40
17.5
 41
0.0
 71
     5
 72
     1
  1
\U+220559 
 11
0.0
 21
1.0
 31
0.0
 73
     1
 44
1.0
1001
ACAD
1000
MTEXTBEGIN
1070
    73
1070
     1
1070
    44
1040
1.0
1070
    74
1070
     0
1000
MTEXTEND
  0
POINT
  5
1633
330
15DF
100
AcDbEntity
  8
DEFPOINTS
  6
ByBlock
 62
     0
100
AcDbPoint
 10
306.2390000000001
 20
1177.904
 30
0.0
  0
POINT
  5
1634
330
15DF
100
AcDbEntity
  8
DEFPOINTS
  6
ByBlock
 62
     0
100
AcDbPoint
 10
306.238
 20
1118.903
 30
0.0
  0
POINT
  5
1635
330
15DF
100
AcDbEntity
  8
DEFPOINTS
  6
ByBlock
 62
     0
100
AcDbPoint
 10
261.188
 20
1118.903
 30
0.0
  0
ENDBLK
  5
1636
330
15DF
100
AcDbEntity
  8
0
100
AcDbBlockEnd
  0
BLOCK
  5
1729
330
15FC
100
AcDbEntity
  8
0
100
AcDbBlockBegin
  2
*D13
 70
     1
 10
0.0
 20
0.0
 30
0.0
  3
*D13
  1

  0
LINE
  5
172A
330
15FC
100
AcDbEntity
  8
0
  6
ByBlock
100
AcDbLine
 10
157.223379
 20
339.584275
 30
0.0
 11
157.223379
 21
462.195275
 31
0.0
  0
LINE
  5
172B
330
15FC
100
AcDbEntity
  8
0
  6
ByBlock
100
AcDbLine
 10
587.2203789999999
 20
339.584275
 30
0.0
 11
587.2203789999999
 21
462.195275
 31
0.0
  0
LINE
  5
172C
330
15FC
100
AcDbEntity
  8
0
  6
ByBlock
100
AcDbLine
 10
169.723379
 20
457.195275
 30
0.0
 11
574.7203789999999
 21
457.195275
 31
0.0
  0
SOLID
  5
172D
330
15FC
100
AcDbEntity
  8
0
  6
ByBlock
100
AcDbTrace
 10
169.723379
 20
459.278608
 30
0.0
 11
169.723379
 21
455.111941
 31
0.0
 12
157.223379
 22
457.195275
 32
0.0
 13
157.223379
 23
457.195275
 33
0.0
  0
SOLID
  5
172E
330
15FC
100
AcDbEntity
  8
0
  6
ByBlock
100
AcDbTrace
 10
574.7203789999999
 20
459.278608
 30
0.0
 11
574.7203789999999
 21
455.111941
 31
0.0
 12
587.2203789999999
 22
457.195275
 32
0.0
 13
587.2203789999999
 23
457.195275
 33
0.0
  0
MTEXT
  5
172F
330
15FC
100
AcDbEntity
  8
0
  6
ByBlock
 62
     2
100
AcDbMText
 10
371.042379
 20
468.945275
 30
0.0
 40
17.5
 41
0.0
 71
     5
 72
     1
  1
\U+2205  430 
 73
     1
 44
1.0
1001
ACAD
1000
MTEXTBEGIN
1070
    73
1070
     1
1070
    44
1040
1.0
1070
    74
1070
     0
1000
MTEXTEND
  0
POINT
  5
1730
330
15FC
100
AcDbEntity
  8
DEFPOINTS
  6
ByBlock
 62
     0
100
AcDbPoint
 10
157.223379
 20
334.584275
 30
0.0
  0
POINT
  5
1731
330
15FC
100
AcDbEntity
  8
DEFPOINTS
  6
ByBlock
 62
     0
100
AcDbPoint
 10
587.2203789999999
 20
334.584275
 30
0.0
  0
POINT
  5
1732
330
15FC
100
AcDbEntity
  8
DEFPOINTS
  6
ByBlock
 62
     0
100
AcDbPoint
 10
587.2203789999999
 20
457.195275
 30
0.0
  0
ENDBLK
  5
1733
330
15FC
100
AcDbEntity
  8
0
100
AcDbBlockEnd
  0
BLOCK
  5
1615
330
1614
100
AcDbEntity
  8
0
100
AcDbBlockBegin
  2
*D14
 70
     1
 10
0.0
 20
0.0
 30
0.0
  3
*D14
  1
GEVFRAME
  0
LINE
  5
1616
330
1614
100
AcDbEntity
  8
0
  6
ByBlock
100
AcDbLine
 10
407.2359999999999
 20
1195.903
 30
0.0
 11
407.2359999999999
 21
1257.908
 31
0.0
  0
LINE
  5
1617
330
1614
100
AcDbEntity
  8
0
  6
ByBlock
100
AcDbLine
 10
635.2380000000001
 20
1195.903
 30
0.0
 11
635.2380000000001
 21
1257.908
 31
0.0
  0
LINE
  5
1618
330
1614
100
AcDbEntity
  8
0
  6
ByBlock
100
AcDbLine
 10
419.7359999999999
 20
1252.908
 30
0.0
 11
622.7380000000001
 21
1252.908
 31
0.0
  0
SOLID
  5
1619
330
1614
100
AcDbEntity
  8
0
  6
ByBlock
100
AcDbTrace
 10
419.7359999999999
 20
1254.991333
 30
0.0
 11
419.7359999999999
 21
1250.824667
 31
0.0
 12
407.2359999999999
 22
1252.908
 32
0.0
 13
407.2359999999999
 23
1252.908
 33
0.0
  0
SOLID
  5
161A
330
1614
100
AcDbEntity
  8
0
  6
ByBlock
100
AcDbTrace
 10
622.7380000000001
 20
1254.991333
 30
0.0
 11
622.7380000000001
 21
1250.824667
 31
0.0
 12
635.2380000000001
 22
1252.908
 32
0.0
 13
635.2380000000001
 23
1252.908
 33
0.0
  0
MTEXT
  5
161B
330
1614
100
AcDbEntity
  8
0
  6
ByBlock
 62
     2
100
AcDbMText
 10
522.709
 20
1264.659722
 30
0.0
 40
17.5
 41
0.0
 71
     5
 72
     1
  1
\U+2205  228 
 73
     1
 44
1.0
1001
ACAD
1000
MTEXTBEGIN
1070
    73
1070
     1
1070
    44
1040
1.0
1070
    74
1070
     0
1000
MTEXTEND
  0
POINT
  5
161C
330
1614
100
AcDbEntity
  8
DEFPOINTS
  6
ByBlock
 62
     0
100
AcDbPoint
 10
407.2359999999999
 20
1190.903
 30
0.0
  0
POINT
  5
161D
330
1614
100
AcDbEntity
  8
DEFPOINTS
  6
ByBlock
 62
     0
100
AcDbPoint
 10
635.2380000000001
 20
1190.903
 30
0.0
  0
POINT
  5
161E
330
1614
100
AcDbEntity
  8
DEFPOINTS
  6
ByBlock
 62
     0
100
AcDbPoint
 10
635.2380000000001
 20
1252.908
 30
0.0
  0
ENDBLK
  5
161F
330
1614
100
AcDbEntity
  8
0
100
AcDbBlockEnd
  0
BLOCK
  5
16E6
330
1620
100
AcDbEntity
  8
0
100
AcDbBlockBegin
  2
*D15
 70
     1
 10
0.0
 20
0.0
 30
0.0
  3
*D15
  1

  0
LINE
  5
16E7
330
1620
100
AcDbEntity
  8
0
  6
ByBlock
100
AcDbLine
 10
200.911379
 20
305.084275
 30
0.0
 11
218.393379
 21
305.084275
 31
0.0
  0
LINE
  5
16E8
330
1620
100
AcDbEntity
  8
0
  6
ByBlock
100
AcDbLine
 10
213.393379
 20
317.584275
 30
0.0
 11
213.393379
 21
330.083275
 31
0.0
  0
LINE
  5
16E9
330
1620
100
AcDbEntity
  8
0
  6
ByBlock
100
AcDbLine
 10
213.393379
 20
342.583275
 30
0.0
 11
213.393379
 21
409.706275
 31
0.0
  0
SOLID
  5
16EA
330
1620
100
AcDbEntity
  8
0
  6
ByBlock
100
AcDbTrace
 10
211.310046
 20
317.584275
 30
0.0
 11
215.476713
 21
317.584275
 31
0.0
 12
213.393379
 22
305.084275
 32
0.0
 13
213.393379
 23
305.084275
 33
0.0
  0
SOLID
  5
16EB
330
1620
100
AcDbEntity
  8
0
  6
ByBlock
100
AcDbTrace
 10
211.310046
 20
330.083275
 30
0.0
 11
215.476713
 21
330.083275
 31
0.0
 12
213.393379
 22
342.583275
 32
0.0
 13
213.393379
 23
342.583275
 33
0.0
  0
MTEXT
  5
16EC
330
1620
100
AcDbEntity
  8
0
  6
ByBlock
 62
     2
100
AcDbMText
 10
201.643379
 20
397.081275
 30
0.0
 40
17.5
 41
0.0
 71
     5
 72
     1
  1
38
 11
0.0
 21
1.0
 31
0.0
 73
     1
 44
1.0
1001
ACAD
1000
MTEXTBEGIN
1070
    73
1070
     1
1070
    44
1040
1.0
1070
    74
1070
     0
1000
MTEXTEND
  0
POINT
  5
16ED
330
1620
100
AcDbEntity
  8
DEFPOINTS
  6
ByBlock
 62
     0
100
AcDbPoint
 10
195.911379
 20
305.084275
 30
0.0
  0
POINT
  5
16EE
330
1620
100
AcDbEntity
  8
DEFPOINTS
  6
ByBlock
 62
     0
100
AcDbPoint
 10
213.393379
 20
342.583275
 30
0.0
  0
POINT
  5
16EF
330
1620
100
AcDbEntity
  8
DEFPOINTS
  6
ByBlock
 62
     0
100
AcDbPoint
 10
213.393379
 20
342.583275
 30
0.0
  0
ENDBLK
  5
16F0
330
1620
100
AcDbEntity
  8
0
100
AcDbBlockEnd
  0
BLOCK
  5
1638
330
1637
100
AcDbEntity
  8
0
100
AcDbBlockBegin
  2
*D16
 70
     1
 10
0.0
 20
0.0
 30
0.0
  3
*D16
  1
GEVFRAME
  0
LINE
  5
1639
330
1637
100
AcDbEntity
  8
0
  6
ByBlock
100
AcDbLine
 10
588.7369999999999
 20
1073.904
 30
0.0
 11
680.776
 21
1073.904
 31
0.0
  0
LINE
  5
163A
330
1637
100
AcDbEntity
  8
0
  6
ByBlock
100
AcDbLine
 10
550.2369999999999
 20
1133.904
 30
0.0
 11
680.776
 21
1133.904
 31
0.0
  0
LINE
  5
163B
330
1637
100
AcDbEntity
  8
0
  6
ByBlock
100
AcDbLine
 10
675.7760000000001
 20
1086.404
 30
0.0
 11
675.7760000000001
 21
1121.404
 31
0.0
  0
SOLID
  5
163C
330
1637
100
AcDbEntity
  8
0
  6
ByBlock
100
AcDbTrace
 10
673.692667
 20
1086.404
 30
0.0
 11
677.8593329999999
 21
1086.404
 31
0.0
 12
675.7760000000001
 22
1073.904
 32
0.0
 13
675.7760000000001
 23
1073.904
 33
0.0
  0
SOLID
  5
163D
330
1637
100
AcDbEntity
  8
0
  6
ByBlock
100
AcDbTrace
 10
673.692667
 20
1121.404
 30
0.0
 11
677.8593329999999
 21
1121.404
 31
0.0
 12
675.7760000000001
 22
1133.904
 32
0.0
 13
675.7760000000001
 23
1133.904
 33
0.0
  0
MTEXT
  5
163E
330
1637
100
AcDbEntity
  8
0
  6
ByBlock
 62
     2
100
AcDbMText
 10
664.026
 20
1110.427
 30
0.0
 40
17.5
 41
0.0
 71
     5
 72
     1
  1
 60 
 11
0.0
 21
1.0
 31
0.0
 73
     1
 44
1.0
1001
ACAD
1000
MTEXTBEGIN
1070
    73
1070
     1
1070
    44
1040
1.0
1070
    74
1070
     0
1000
MTEXTEND
  0
POINT
  5
163F
330
1637
100
AcDbEntity
  8
DEFPOINTS
  6
ByBlock
 62
     0
100
AcDbPoint
 10
583.7369999999999
 20
1073.904
 30
0.0
  0
POINT
  5
1640
330
1637
100
AcDbEntity
  8
DEFPOINTS
  6
ByBlock
 62
     0
100
AcDbPoint
 10
545.237
 20
1133.904
 30
0.0
  0
POINT
  5
1641
330
1637
100
AcDbEntity
  8
DEFPOINTS
  6
ByBlock
 62
     0
100
AcDbPoint
 10
675.7760000000001
 20
1133.904
 30
0.0
  0
ENDBLK
  5
1642
330
1637
100
AcDbEntity
  8
0
100
AcDbBlockEnd
  0
BLOCK
  5
1644
330
1643
100
AcDbEntity
  8
0
100
AcDbBlockBegin
  2
*D17
 70
     1
 10
0.0
 20
0.0
 30
0.0
  3
*D17
  1
GEVFRAME
  0
LINE
  5
1645
330
1643
100
AcDbEntity
  8
0
  6
ByBlock
100
AcDbLine
 10
598.1180000000001
 20
1050.904
 30
0.0
 11
680.776
 21
1050.904
 31
0.0
  0
LINE
  5
1646
330
1643
100
AcDbEntity
  8
0
  6
ByBlock
100
AcDbLine
 10
675.7760000000001
 20
1038.404
 30
0.0
 11
675.7760000000001
 21
978.404
 31
0.0
  0
SOLID
  5
1647
330
1643
100
AcDbEntity
  8
0
  6
ByBlock
100
AcDbTrace
 10
673.692667
 20
1038.404
 30
0.0
 11
677.8593329999999
 21
1038.404
 31
0.0
 12
675.7760000000001
 22
1050.904
 32
0.0
 13
675.7760000000001
 23
1050.904
 33
0.0
  0
SOLID
  5
1648
330
1643
100
AcDbEntity
  8
0
  6
ByBlock
100
AcDbTrace
 10
673.692667
 20
978.404
 30
0.0
 11
677.8593329999999
 21
978.404
 31
0.0
 12
675.7760000000001
 22
965.904
 32
0.0
 13
675.7760000000001
 23
965.904
 33
0.0
  0
MTEXT
  5
1649
330
1643
100
AcDbEntity
  8
0
  6
ByBlock
 62
     2
100
AcDbMText
 10
664.026
 20
1010.988
 30
0.0
 40
17.5
 41
0.0
 71
     5
 72
     1
  1
 85 
 11
0.0
 21
1.0
 31
0.0
 73
     1
 44
1.0
1001
ACAD
1000
MTEXTBEGIN
1070
    73
1070
     1
1070
    44
1040
1.0
1070
    74
1070
     0
1000
MTEXTEND
  0
POINT
  5
164A
330
1643
100
AcDbEntity
  8
DEFPOINTS
  6
ByBlock
 62
     0
100
AcDbPoint
 10
593.118
 20
1050.904
 30
0.0
  0
POINT
  5
164B
330
1643
100
AcDbEntity
  8
DEFPOINTS
  6
ByBlock
 62
     0
100
AcDbPoint
 10
675.7760000000001
 20
965.904
 30
0.0
  0
POINT
  5
164C
330
1643
100
AcDbEntity
  8
DEFPOINTS
  6
ByBlock
 62
     0
100
AcDbPoint
 10
675.7760000000001
 20
965.904
 30
0.0
  0
ENDBLK
  5
164D
330
1643
100
AcDbEntity
  8
0
100
AcDbBlockEnd
  0
BLOCK
  5
164F
330
164E
100
AcDbEntity
  8
0
100
AcDbBlockBegin
  2
*D18
 70
     1
 10
0.0
 20
0.0
 30
0.0
  3
*D18
  1
GEVFRAME
  0
LINE
  5
1650
330
164E
100
AcDbEntity
  8
0
  6
ByBlock
100
AcDbLine
 10
580.965
 20
965.904
 30
0.0
 11
844.6189999999999
 21
965.904
 31
0.0
  0
LINE
  5
1651
330
164E
100
AcDbEntity
  8
0
  6
ByBlock
100
AcDbLine
 10
737.0210000000001
 20
1185.903
 30
0.0
 11
844.6189999999999
 21
1185.903
 31
0.0
  0
LINE
  5
1652
330
164E
100
AcDbEntity
  8
0
  6
ByBlock
100
AcDbLine
 10
839.6189999999998
 20
978.404
 30
0.0
 11
839.6189999999998
 21
1173.403
 31
0.0
  0
SOLID
  5
1653
330
164E
100
AcDbEntity
  8
0
  6
ByBlock
100
AcDbTrace
 10
837.535667
 20
978.404
 30
0.0
 11
841.7023329999999
 21
978.404
 31
0.0
 12
839.6189999999998
 22
965.904
 32
0.0
 13
839.6189999999998
 23
965.904
 33
0.0
  0
SOLID
  5
1654
330
164E
100
AcDbEntity
  8
0
  6
ByBlock
100
AcDbTrace
 10
837.535667
 20
1173.403
 30
0.0
 11
841.7023329999999
 21
1173.403
 31
0.0
 12
839.6189999999998
 22
1185.903
 32
0.0
 13
839.6189999999998
 23
1185.903
 33
0.0
  0
MTEXT
  5
1655
330
164E
100
AcDbEntity
  8
0
  6
ByBlock
 62
     2
100
AcDbMText
 10
827.867278
 20
1065.35
 30
0.0
 40
17.5
 41
0.0
 71
     5
 72
     1
  1
 220 
 11
0.0
 21
1.0
 31
0.0
 73
     1
 44
1.0
1001
ACAD
1000
MTEXTBEGIN
1070
    73
1070
     1
1070
    44
1040
1.0
1070
    74
1070
     0
1000
MTEXTEND
  0
POINT
  5
1656
330
164E
100
AcDbEntity
  8
DEFPOINTS
  6
ByBlock
 62
     0
100
AcDbPoint
 10
575.965
 20
965.904
 30
0.0
  0
POINT
  5
1657
330
164E
100
AcDbEntity
  8
DEFPOINTS
  6
ByBlock
 62
     0
100
AcDbPoint
 10
732.0210000000001
 20
1185.903
 30
0.0
  0
POINT
  5
1658
330
164E
100
AcDbEntity
  8
DEFPOINTS
  6
ByBlock
 62
     0
100
AcDbPoint
 10
839.6189999999998
 20
1185.903
 30
0.0
  0
ENDBLK
  5
1659
330
164E
100
AcDbEntity
  8
0
100
AcDbBlockEnd
  0
BLOCK
  5
1668
330
1667
100
AcDbEntity
  8
0
100
AcDbBlockBegin
  2
*D20
 70
     1
 10
0.0
 20
0.0
 30
0.0
  3
*D20
  1
GEVFRAME
  0
LINE
  5
1669
330
1667
100
AcDbEntity
  8
0
  6
ByBlock
100
AcDbLine
 10
741.2360000000001
 20
1177.904
 30
0.0
 11
777.8099999999999
 21
1177.904
 31
0.0
  0
LINE
  5
166A
330
1667
100
AcDbEntity
  8
0
  6
ByBlock
100
AcDbLine
 10
772.8099999999999
 20
1198.403
 30
0.0
 11
772.8099999999999
 21
1210.903
 31
0.0
  0
LINE
  5
166B
330
1667
100
AcDbEntity
  8
0
  6
ByBlock
100
AcDbLine
 10
772.8099999999999
 20
1165.404
 30
0.0
 11
772.8099999999999
 21
1132.904
 31
0.0
  0
LINE
  5
166C
330
1667
100
AcDbEntity
  8
0
  6
ByBlock
100
AcDbLine
 10
772.8099999999999
 20
1185.903
 30
0.0
 11
772.8099999999999
 21
1177.904
 31
0.0
  0
SOLID
  5
166D
330
1667
100
AcDbEntity
  8
0
  6
ByBlock
100
AcDbTrace
 10
770.726667
 20
1198.403
 30
0.0
 11
774.8933329999999
 21
1198.403
 31
0.0
 12
772.8099999999999
 22
1185.903
 32
0.0
 13
772.8099999999999
 23
1185.903
 33
0.0
  0
SOLID
  5
166E
330
1667
100
AcDbEntity
  8
0
  6
ByBlock
100
AcDbTrace
 10
770.726667
 20
1165.404
 30
0.0
 11
774.8933329999999
 21
1165.404
 31
0.0
 12
772.8099999999999
 22
1177.904
 32
0.0
 13
772.8099999999999
 23
1177.904
 33
0.0
  0
MTEXT
  5
166F
330
1667
100
AcDbEntity
  8
0
  6
ByBlock
 62
     2
100
AcDbMText
 10
761.0599999999999
 20
1142.904
 30
0.0
 40
17.5
 41
0.0
 71
     5
 72
     1
  1
 8 
 11
0.0
 21
1.0
 31
0.0
 73
     1
 44
1.0
1001
ACAD
1000
MTEXTBEGIN
1070
    73
1070
     1
1070
    44
1040
1.0
1070
    74
1070
     0
1000
MTEXTEND
  0
POINT
  5
1670
330
1667
100
AcDbEntity
  8
DEFPOINTS
  6
ByBlock
 62
     0
100
AcDbPoint
 10
772.8099999999999
 20
1185.903
 30
0.0
  0
POINT
  5
1671
330
1667
100
AcDbEntity
  8
DEFPOINTS
  6
ByBlock
 62
     0
100
AcDbPoint
 10
736.2360000000001
 20
1177.904
 30
0.0
  0
POINT
  5
1672
330
1667
100
AcDbEntity
  8
DEFPOINTS
  6
ByBlock
 62
     0
100
AcDbPoint
 10
772.8099999999999
 20
1177.904
 30
0.0
  0
ENDBLK
  5
1673
330
1667
100
AcDbEntity
  8
0
100
AcDbBlockEnd
  0
BLOCK
  5
1676
330
1675
100
AcDbEntity
  8
0
100
AcDbBlockBegin
  2
KATALOG_LEER
 70
     0
 10
0.0
 20
0.0
 30
0.0
  3
KATALOG_LEER
  1

  0
ENDBLK
  5
1677
330
1675
100
AcDbEntity
  8
0
100
AcDbBlockEnd
  0
BLOCK
  5
1834
330
1832
100
AcDbEntity
  8
0
100
AcDbBlockBegin
  2
GENAXEH
 70
     0
 10
0.0
 20
0.0
 30
0.0
  3
GENAXEH
  1

  0
LINE
  5
1833
330
1832
100
AcDbEntity
  8
0
100
AcDbLine
 10
-1.0
 20
0.0
 30
0.0
 11
1.0
 21
0.0
 31
0.0
  0
ENDBLK
  5
1835
330
1832
100
AcDbEntity
  8
0
100
AcDbBlockEnd
  0
ENDSEC
  0
SECTION
  2
ENTITIES
  0
LINE
  5
1001
330
1585
100
AcDbEntity
  8
0
100
AcDbLine
 10
479.7213789999999
 20
347.584275
 30
0.0
 11
474.136379
 21
241.014275
 31
0.0
  0
LINE
  5
1002
330
1585
100
AcDbEntity
  8
0
100
AcDbLine
 10
421.222379
 20
212.584275
 30
0.0
 11
444.177379
 21
212.584275
 31
0.0
  0
LINE
  5
1003
330
1585
100
AcDbEntity
  8
0
100
AcDbLine
 10
483.550379
 20
325.107275
 30
0.0
 11
479.129379
 21
240.752275
 31
0.0
  0
LINE
  5
1004
330
1585
100
AcDbEntity
  8
0
100
AcDbLine
 10
479.459379
 20
342.583275
 30
0.0
 11
583.005379
 21
342.583275
 31
0.0
  0
ARC
  5
1005
330
1585
100
AcDbEntity
  8
0
100
AcDbCircle
 10
493.536379
 20
324.584275
 30
0.0
 40
10.0
100
AcDbArc
 50
90.0
 51
177.0
  0
LINE
  5
1006
330
1585
100
AcDbEntity
  8
0
100
AcDbLine
 10
587.2213789999999
 20
334.584275
 30
0.0
 11
587.0003789999999
 21
338.793275
 31
0.0
  0
ARC
  5
1007
330
1585
100
AcDbEntity
  8
0
100
AcDbCircle
 10
583.005379
 20
338.584275
 30
0.0
 40
4.0
100
AcDbArc
 50
3.0
 51
90.0
  0
LINE
  5
1008
330
1585
100
AcDbEntity
  8
0
100
AcDbLine
 10
512.8743789999999
 20
334.584275
 30
0.0
 11
587.2203789999999
 21
334.584275
 31
0.0
  0
ARC
  5
1009
330
1585
100
AcDbEntity
  8
0
100
AcDbCircle
 10
444.177379
 20
242.584275
 30
0.0
 40
30.0
100
AcDbArc
 50
270.0
 51
357.0
  0
ARC
  5
100A
330
1585
100
AcDbEntity
  8
0
100
AcDbCircle
 10
444.177379
 20
242.584275
 30
0.0
 40
35.0
100
AcDbArc
 50
269.877
 51
357.0
  0
LINE
  5
100B
330
1585
100
AcDbEntity
  8
0
100
AcDbLine
 10
433.382379
 20
207.584275
 30
0.0
 11
434.722379
 21
212.584275
 31
0.0
  0
LINE
  5
100C
330
1585
100
AcDbEntity
  8
0
100
AcDbLine
 10
422.3853789999999
 20
152.584275
 30
0.0
 11
423.293379
 21
204.584275
 31
0.0
  0
LINE
  5
100D
330
1585
100
AcDbEntity
  8
0
100
AcDbLine
 10
426.9503789999999
 20
122.584275
 30
0.0
 11
428.072379
 21
191.863275
 31
0.0
  0
ARC
  5
100E
330
1585
100
AcDbEntity
  8
0
100
AcDbCircle
 10
444.0673789999999
 20
191.584275
 30
0.0
 40
16.0
100
AcDbArc
 50
89.87700000000002
 51
179.0
  0
LINE
  5
100F
330
1585
100
AcDbEntity
  8
0
100
AcDbLine
 10
423.291379
 20
204.584275
 30
0.0
 11
424.383379
 21
207.584275
 31
0.0
  0
LINE
  5
1010
330
1585
100
AcDbEntity
  8
0
100
AcDbLine
 10
421.222379
 20
122.596275
 30
0.0
 11
421.5713789999999
 21
147.584275
 31
0.0
  0
LINE
  5
1011
330
1585
100
AcDbEntity
  8
0
100
AcDbLine
 10
421.5713789999999
 20
147.584275
 30
0.0
 11
422.3853789999999
 21
152.584275
 31
0.0
  0
LINE
  5
1012
330
1585
100
AcDbEntity
  8
0
100
AcDbLine
 10
257.958379
 20
342.584275
 30
0.0
 11
258.220379
 21
347.584275
 31
0.0
  0
LINE
  5
1013
330
1585
100
AcDbEntity
  8
0
100
AcDbLine
 10
264.723379
 20
347.584275
 30
0.0
 11
270.308379
 21
241.014275
 31
0.0
  0
LINE
  5
1014
330
1585
100
AcDbEntity
  8
0
100
AcDbLine
 10
265.141379
 20
244.078275
 30
0.0
 11
265.315379
 21
240.752275
 31
0.0
  0
LINE
  5
1015
330
1585
100
AcDbEntity
  8
0
100
AcDbLine
 10
264.984379
 20
342.583275
 30
0.0
 11
161.438379
 21
342.583275
 31
0.0
  0
LINE
  5
1016
330
1585
100
AcDbEntity
  8
0
100
AcDbLine
 10
157.221379
 20
334.584275
 30
0.0
 11
157.441379
 21
338.793275
 31
0.0
  0
ARC
  5
1017
330
1585
100
AcDbEntity
  8
0
100
AcDbCircle
 10
161.438379
 20
338.584275
 30
0.0
 40
4.0
100
AcDbArc
 50
90.0
 51
177.0
  0
ARC
  5
1018
330
1585
100
AcDbEntity
  8
0
100
AcDbCircle
 10
300.267379
 20
242.584275
 30
0.0
 40
30.0
100
AcDbArc
 50
183.0
 51
270.0
  0
ARC
  5
1019
330
1585
100
AcDbEntity
  8
0
100
AcDbCircle
 10
300.267379
 20
242.584275
 30
0.0
 40
35.0
100
AcDbArc
 50
183.0
 51
270.123
  0
LINE
  5
101A
330
1585
100
AcDbEntity
  8
0
100
AcDbLine
 10
311.061379
 20
207.584275
 30
0.0
 11
309.721379
 21
212.584275
 31
0.0
  0
LINE
  5
101B
330
1585
100
AcDbEntity
  8
0
100
AcDbLine
 10
426.949379
 20
122.584275
 30
0.0
 11
317.495379
 21
122.584275
 31
0.0
  0
LINE
  5
101C
330
1585
100
AcDbEntity
  8
0
100
AcDbLine
 10
322.058379
 20
152.584275
 30
0.0
 11
321.150379
 21
204.584275
 31
0.0
  0
LINE
  5
101D
330
1585
100
AcDbEntity
  8
0
100
AcDbLine
 10
317.494379
 20
122.584275
 30
0.0
 11
316.372379
 21
191.863275
 31
0.0
  0
ARC
  5
101E
330
1585
100
AcDbEntity
  8
0
100
AcDbCircle
 10
300.376379
 20
191.584275
 30
0.0
 40
16.0
100
AcDbArc
 50
1.0
 51
90.12299999999999
  0
LINE
  5
101F
330
1585
100
AcDbEntity
  8
0
100
AcDbLine
 10
321.151379
 20
204.584275
 30
0.0
 11
320.059379
 21
207.584275
 31
0.0
  0
LINE
  5
1020
330
1585
100
AcDbEntity
  8
0
100
AcDbLine
 10
323.221379
 20
122.596275
 30
0.0
 11
322.872379
 21
147.584275
 31
0.0
  0
LINE
  5
1021
330
1585
100
AcDbEntity
  8
0
100
AcDbLine
 10
322.872379
 20
147.584275
 30
0.0
 11
322.059379
 21
152.584275
 31
0.0
  0
ARC
  5
1022
330
1585
100
AcDbEntity
  8
0
100
AcDbCircle
 10
499.959379
 20
324.584275
 30
0.0
 40
10.0
100
AcDbArc
 50
200.0
 51
339.994
  0
LINE
  5
1023
330
1585
100
AcDbEntity
  8
0
100
AcDbLine
 10
490.563379
 20
321.164275
 30
0.0
 11
488.712379
 21
331.660275
 31
0.0
  0
LINE
  5
1024
330
1585
100
AcDbEntity
  8
0
100
AcDbLine
 10
509.356379
 20
321.162275
 30
0.0
 11
511.273379
 21
332.033275
 31
0.0
  0
LINE
  5
1025
330
1585
100
AcDbEntity
  8
0
100
AcDbLine
 10
493.1883789999999
 20
334.572275
 30
0.0
 11
549.052379
 21
336.522275
 31
0.0
  0
ARC
  5
1026
330
1585
100
AcDbEntity
  8
0
100
AcDbCircle
 10
484.7723789999999
 20
330.966275
 30
0.0
 40
4.0
100
AcDbArc
 50
10.0
 51
31.195
  0
LINE
  5
1027
330
1585
100
AcDbEntity
  8
0
100
AcDbLine
 10
433.882379
 20
342.583275
 30
0.0
 11
416.561379
 21
342.583275
 31
0.0
  0
LINE
  5
1028
330
1585
100
AcDbEntity
  8
0
100
AcDbLine
 10
323.221379
 20
212.584275
 30
0.0
 11
300.267379
 21
212.584275
 31
0.0
  0
LINE
  5
1029
330
1585
100
AcDbEntity
  8
0
100
AcDbLine
 10
486.484379
 20
342.584275
 30
0.0
 11
486.2223789999999
 21
347.583275
 31
0.0
  0
LINE
  5
102A
330
1585
100
AcDbEntity
  8
0
100
AcDbLine
 10
486.2223789999999
 20
347.583275
 30
0.0
 11
435.222379
 21
347.583275
 31
0.0
  0
LINE
  5
102B
330
1585
100
AcDbEntity
  8
0
100
AcDbLine
 10
327.882379
 20
342.584275
 30
0.0
 11
329.222379
 21
347.584275
 31
0.0
  0
LINE
  5
102C
330
1585
100
AcDbEntity
  8
0
100
AcDbLine
 10
433.882379
 20
342.584275
 30
0.0
 11
435.222379
 21
347.584275
 31
0.0
  0
LINE
  5
102D
330
1585
100
AcDbEntity
  8
0
100
AcDbLine
 10
310.562379
 20
342.583275
 30
0.0
 11
309.222379
 21
347.584275
 31
0.0
  0
LINE
  5
102E
330
1585
100
AcDbEntity
  8
0
100
AcDbLine
 10
416.561379
 20
342.583275
 30
0.0
 11
415.221379
 21
347.584275
 31
0.0
  0
LINE
  5
102F
330
1585
100
AcDbEntity
  8
0
100
AcDbLine
 10
324.776379
 20
342.584275
 30
0.0
 11
326.116379
 21
347.584275
 31
0.0
  0
LINE
  5
1030
330
1585
100
AcDbEntity
  8
0
100
AcDbLine
 10
309.222379
 20
347.583275
 30
0.0
 11
258.220379
 21
347.583275
 31
0.0
  0
LINE
  5
1031
330
1585
100
AcDbEntity
  8
0
100
AcDbLine
 10
419.667379
 20
342.584275
 30
0.0
 11
418.3283789999999
 21
347.583275
 31
0.0
  0
LINE
  5
1032
330
1585
100
AcDbEntity
  8
0
100
AcDbLine
 10
418.327379
 20
347.583275
 30
0.0
 11
326.116379
 21
347.583275
 31
0.0
  0
LINE
  5
1033
330
1585
100
AcDbEntity
  8
0
100
AcDbLine
 10
327.882379
 20
342.583275
 30
0.0
 11
310.561379
 21
342.583275
 31
0.0
  0
ARC
  5
1034
330
1585
100
AcDbEntity
  8
0
100
AcDbCircle
 10
250.907379
 20
324.584275
 30
0.0
 40
10.0
100
AcDbArc
 50
3.0
 51
90.0
  0
LINE
  5
1035
330
1585
100
AcDbEntity
  8
0
100
AcDbLine
 10
182.221379
 20
334.584275
 30
0.0
 11
157.223379
 21
334.584275
 31
0.0
  0
LINE
  5
1036
330
1585
100
AcDbEntity
  8
0
100
AcDbLine
 10
419.721379
 20
169.584275
 30
0.0
 11
372.221379
 21
169.584275
 31
0.0
  0
LINE
  5
1037
330
1585
100
AcDbEntity
  8
0
100
AcDbLine
 10
419.721379
 20
169.584275
 30
0.0
 11
419.721379
 21
172.584275
 31
0.0
  0
LINE
  5
1038
330
1585
100
AcDbEntity
  8
0
100
AcDbLine
 10
412.2213789999999
 20
205.254275
 30
0.0
 11
412.2213789999999
 21
169.584275
 31
0.0
  0
LINE
  5
1039
330
1585
100
AcDbEntity
  8
0
100
AcDbLine
 10
417.2213789999999
 20
187.584275
 30
0.0
 11
417.2213789999999
 21
183.241275
 31
0.0
  0
ARC
  5
103A
330
1585
100
AcDbEntity
  8
0
100
AcDbCircle
 10
420.221379
 20
177.584275
 30
0.0
 40
5.0
100
AcDbArc
 50
141.058
 51
264.261
  0
ARC
  5
103B
330
1585
100
AcDbEntity
  8
0
100
AcDbCircle
 10
413.222379
 20
183.241275
 30
0.0
 40
4.0
100
AcDbArc
 50
321.058
 51
0.0
  0
ARC
  5
103C
330
1585
100
AcDbEntity
  8
0
100
AcDbCircle
 10
413.222379
 20
187.584275
 30
0.0
 40
4.0
100
AcDbArc
 50
0.0
 51
41.41
  0
ARC
  5
103D
330
1585
100
AcDbEntity
  8
0
100
AcDbCircle
 10
419.221379
 20
192.875275
 30
0.0
 40
4.0
100
AcDbArc
 50
180.0
 51
221.41
  0
LINE
  5
103E
330
1585
100
AcDbEntity
  8
0
100
AcDbLine
 10
433.382379
 20
207.584275
 30
0.0
 11
419.221379
 21
207.584275
 31
0.0
  0
ARC
  5
103F
330
1585
100
AcDbEntity
  8
0
100
AcDbCircle
 10
419.221379
 20
203.584275
 30
0.0
 40
4.0
100
AcDbArc
 50
90.0
 51
180.0
  0
LINE
  5
1040
330
1585
100
AcDbEntity
  8
0
100
AcDbLine
 10
433.2213789999999
 20
210.584275
 30
0.0
 11
432.418379
 21
207.584275
 31
0.0
  0
LINE
  5
1041
330
1585
100
AcDbEntity
  8
0
100
AcDbLine
 10
421.2213789999999
 20
210.584275
 30
0.0
 11
433.2213789999999
 21
210.584275
 31
0.0
  0
LINE
  5
1042
330
1585
100
AcDbEntity
  8
0
100
AcDbLine
 10
421.2213789999999
 20
212.584275
 30
0.0
 11
421.2213789999999
 21
210.584275
 31
0.0
  0
LINE
  5
1043
330
1585
100
AcDbEntity
  8
0
100
AcDbLine
 10
393.722379
 20
290.584275
 30
0.0
 11
393.722379
 21
227.924275
 31
0.0
  0
LINE
  5
1044
330
1585
100
AcDbEntity
  8
0
100
AcDbLine
 10
396.221379
 20
290.584275
 30
0.0
 11
396.221379
 21
237.584275
 31
0.0
  0
ARC
  5
1045
330
1585
100
AcDbEntity
  8
0
100
AcDbCircle
 10
421.2213789999999
 20
237.584275
 30
0.0
 40
25.0
100
AcDbArc
 50
180.0
 51
270.0
  0
ARC
  5
1046
330
1585
100
AcDbEntity
  8
0
100
AcDbCircle
 10
421.2213789999999
 20
237.584275
 30
0.0
 40
27.5
100
AcDbArc
 50
200.566
 51
239.5729999999999
  0
ARC
  5
1047
330
1585
100
AcDbEntity
  8
0
100
AcDbCircle
 10
402.221379
 20
205.254275
 30
0.0
 40
10.0
100
AcDbArc
 50
0.0
 51
59.55799999999999
  0
LINE
  5
1048
330
1585
100
AcDbEntity
  8
0
100
AcDbLine
 10
372.221379
 20
290.584275
 30
0.0
 11
396.221379
 21
290.584275
 31
0.0
  0
LINE
  5
1049
330
1585
100
AcDbEntity
  8
0
100
AcDbLine
 10
434.721379
 20
230.584275
 30
0.0
 11
397.221379
 21
230.584275
 31
0.0
  0
LINE
  5
104A
330
1585
100
AcDbEntity
  8
0
100
AcDbLine
 10
385.690379
 20
314.406275
 30
0.0
 11
418.747379
 21
311.514275
 31
0.0
  0
LINE
  5
104B
330
1585
100
AcDbEntity
  8
0
100
AcDbLine
 10
434.721379
 20
230.584275
 30
0.0
 11
434.721379
 21
294.0802749999999
 31
0.0
  0
ARC
  5
104C
330
1585
100
AcDbEntity
  8
0
100
AcDbCircle
 10
417.2213789999999
 20
294.0802749999999
 30
0.0
 40
17.5
100
AcDbArc
 50
0.0
 51
85.0
  0
ARC
  5
104D
330
1585
100
AcDbEntity
  8
0
100
AcDbCircle
 10
372.221379
 20
310.584275
 30
0.0
 40
5.0
100
AcDbArc
 50
270.0
 51
90.0
  0
LINE
  5
104E
330
1585
100
AcDbEntity
  8
0
100
AcDbLine
 10
385.472379
 20
311.915275
 30
0.0
 11
418.529379
 21
309.023275
 31
0.0
  0
LINE
  5
104F
330
1585
100
AcDbEntity
  8
0
100
AcDbLine
 10
432.221379
 20
230.584275
 30
0.0
 11
432.221379
 21
294.0802749999999
 31
0.0
  0
ARC
  5
1050
330
1585
100
AcDbEntity
  8
0
100
AcDbCircle
 10
417.2213789999999
 20
294.0802749999999
 30
0.0
 40
15.0
100
AcDbArc
 50
0.0
 51
85.0
  0
LINE
  5
1051
330
1585
100
AcDbEntity
  8
0
100
AcDbLine
 10
372.221379
 20
323.584275
 30
0.0
 11
379.721379
 21
323.584275
 31
0.0
  0
LINE
  5
1052
330
1585
100
AcDbEntity
  8
0
100
AcDbLine
 10
379.722379
 20
323.584275
 30
0.0
 11
395.222379
 21
313.572275
 31
0.0
  0
ARC
  5
1053
330
1585
100
AcDbEntity
  8
0
100
AcDbCircle
 10
433.2213789999999
 20
231.584275
 30
0.0
 40
1.0
100
AcDbArc
 50
180.0
 51
270.0
  0
LINE
  5
1054
330
1585
100
AcDbEntity
  8
0
100
AcDbLine
 10
324.721379
 20
169.584275
 30
0.0
 11
372.221379
 21
169.584275
 31
0.0
  0
LINE
  5
1055
330
1585
100
AcDbEntity
  8
0
100
AcDbLine
 10
324.721379
 20
169.584275
 30
0.0
 11
324.721379
 21
172.584275
 31
0.0
  0
LINE
  5
1056
330
1585
100
AcDbEntity
  8
0
100
AcDbLine
 10
332.221379
 20
205.254275
 30
0.0
 11
332.221379
 21
169.584275
 31
0.0
  0
LINE
  5
1057
330
1585
100
AcDbEntity
  8
0
100
AcDbLine
 10
327.221379
 20
187.584275
 30
0.0
 11
327.221379
 21
183.241275
 31
0.0
  0
ARC
  5
1058
330
1585
100
AcDbEntity
  8
0
100
AcDbCircle
 10
324.221379
 20
177.584275
 30
0.0
 40
5.0
100
AcDbArc
 50
275.739
 51
38.942
  0
ARC
  5
1059
330
1585
100
AcDbEntity
  8
0
100
AcDbCircle
 10
331.221379
 20
183.241275
 30
0.0
 40
4.0
100
AcDbArc
 50
180.0
 51
218.942
  0
ARC
  5
105A
330
1585
100
AcDbEntity
  8
0
100
AcDbCircle
 10
331.221379
 20
187.584275
 30
0.0
 40
4.0
100
AcDbArc
 50
138.59
 51
180.0
  0
ARC
  5
105B
330
1585
100
AcDbEntity
  8
0
100
AcDbCircle
 10
325.221379
 20
192.875275
 30
0.0
 40
4.0
100
AcDbArc
 50
318.59
 51
0.0
  0
LINE
  5
105C
330
1585
100
AcDbEntity
  8
0
100
AcDbLine
 10
311.061379
 20
207.584275
 30
0.0
 11
325.221379
 21
207.584275
 31
0.0
  0
ARC
  5
105D
330
1585
100
AcDbEntity
  8
0
100
AcDbCircle
 10
325.221379
 20
203.584275
 30
0.0
 40
4.0
100
AcDbArc
 50
0.0
 51
90.0
  0
LINE
  5
105E
330
1585
100
AcDbEntity
  8
0
100
AcDbLine
 10
311.221379
 20
210.584275
 30
0.0
 11
312.025379
 21
207.584275
 31
0.0
  0
LINE
  5
105F
330
1585
100
AcDbEntity
  8
0
100
AcDbLine
 10
323.221379
 20
210.584275
 30
0.0
 11
311.222379
 21
210.584275
 31
0.0
  0
LINE
  5
1060
330
1585
100
AcDbEntity
  8
0
100
AcDbLine
 10
323.221379
 20
212.584275
 30
0.0
 11
323.221379
 21
210.584275
 31
0.0
  0
LINE
  5
1061
330
1585
100
AcDbEntity
  8
0
100
AcDbLine
 10
350.721379
 20
290.584275
 30
0.0
 11
350.721379
 21
227.924275
 31
0.0
  0
LINE
  5
1062
330
1585
100
AcDbEntity
  8
0
100
AcDbLine
 10
348.221379
 20
290.584275
 30
0.0
 11
348.221379
 21
237.584275
 31
0.0
  0
ARC
  5
1063
330
1585
100
AcDbEntity
  8
0
100
AcDbCircle
 10
323.221379
 20
237.584275
 30
0.0
 40
25.0
100
AcDbArc
 50
270.0
 51
0.0
  0
ARC
  5
1064
330
1585
100
AcDbEntity
  8
0
100
AcDbCircle
 10
323.221379
 20
237.584275
 30
0.0
 40
27.5
100
AcDbArc
 50
300.442
 51
339.434
  0
ARC
  5
1065
330
1585
100
AcDbEntity
  8
0
100
AcDbCircle
 10
342.221379
 20
205.254275
 30
0.0
 40
10.0
100
AcDbArc
 50
120.442
 51
180.0
  0
LINE
  5
1066
330
1585
100
AcDbEntity
  8
0
100
AcDbLine
 10
372.221379
 20
290.584275
 30
0.0
 11
348.221379
 21
290.584275
 31
0.0
  0
LINE
  5
1067
330
1585
100
AcDbEntity
  8
0
100
AcDbLine
 10
309.721379
 20
230.584275
 30
0.0
 11
347.221379
 21
230.584275
 31
0.0
  0
LINE
  5
1068
330
1585
100
AcDbEntity
  8
0
100
AcDbLine
 10
358.753379
 20
314.406275
 30
0.0
 11
325.696379
 21
311.514275
 31
0.0
  0
LINE
  5
1069
330
1585
100
AcDbEntity
  8
0
100
AcDbLine
 10
309.721379
 20
230.584275
 30
0.0
 11
309.721379
 21
294.0802749999999
 31
0.0
  0
ARC
  5
106A
330
1585
100
AcDbEntity
  8
0
100
AcDbCircle
 10
327.221379
 20
294.0802749999999
 30
0.0
 40
17.5
100
AcDbArc
 50
95.0
 51
180.0
  0
ARC
  5
106B
330
1585
100
AcDbEntity
  8
0
100
AcDbCircle
 10
372.221379
 20
310.584275
 30
0.0
 40
5.0
100
AcDbArc
 50
90.0
 51
270.0
  0
LINE
  5
106C
330
1585
100
AcDbEntity
  8
0
100
AcDbLine
 10
358.971379
 20
311.915275
 30
0.0
 11
325.914379
 21
309.023275
 31
0.0
  0
LINE
  5
106D
330
1585
100
AcDbEntity
  8
0
100
AcDbLine
 10
312.221379
 20
230.584275
 30
0.0
 11
312.221379
 21
294.0802749999999
 31
0.0
  0
ARC
  5
106E
330
1585
100
AcDbEntity
  8
0
100
AcDbCircle
 10
327.221379
 20
294.0802749999999
 30
0.0
 40
15.0
100
AcDbArc
 50
95.0
 51
180.0
  0
LINE
  5
106F
330
1585
100
AcDbEntity
  8
0
100
AcDbLine
 10
372.221379
 20
323.584275
 30
0.0
 11
364.721379
 21
323.584275
 31
0.0
  0
LINE
  5
1070
330
1585
100
AcDbEntity
  8
0
100
AcDbLine
 10
364.721379
 20
323.584275
 30
0.0
 11
349.221379
 21
313.572275
 31
0.0
  0
ARC
  5
1071
330
1585
100
AcDbEntity
  8
0
100
AcDbCircle
 10
311.222379
 20
231.584275
 30
0.0
 40
1.0
100
AcDbArc
 50
270.0
 51
0.0
  0
LINE
  5
1072
330
1585
100
AcDbEntity
  8
0
100
AcDbLine
 10
348.969379
 20
227.924275
 30
0.0
 11
395.474379
 21
227.924275
 31
0.0
  0
LINE
  5
1073
330
1585
100
AcDbEntity
  8
0
100
AcDbLine
 10
350.651379
 20
238.027275
 30
0.0
 11
393.722379
 21
238.027275
 31
0.0
  0
LINE
  5
1074
330
1585
100
AcDbEntity
  8
4
100
AcDbLine
 10
337.201379
 20
208.193275
 30
0.0
 11
407.002379
 21
208.193275
 31
0.0
  0
ARC
  5
1075
330
1585
100
AcDbEntity
  8
0
100
AcDbCircle
 10
372.221379
 20
310.584275
 30
0.0
 40
6.0
100
AcDbArc
 50
210.0
 51
330.0
  0
ARC
  5
1076
330
1585
100
AcDbEntity
  8
0
100
AcDbCircle
 10
372.221379
 20
310.584275
 30
0.0
 40
8.5
100
AcDbArc
 50
210.0
 51
330.0
  0
LINE
  5
1077
330
1585
100
AcDbEntity
  8
0
100
AcDbLine
 10
377.418379
 20
307.584275
 30
0.0
 11
379.494379
 21
311.180275
 31
0.0
  0
LINE
  5
1078
330
1585
100
AcDbEntity
  8
0
100
AcDbLine
 10
379.582379
 20
306.334275
 30
0.0
 11
381.659379
 21
309.930275
 31
0.0
  0
LINE
  5
1079
330
1585
100
AcDbEntity
  8
0
100
AcDbLine
 10
367.025379
 20
307.585275
 30
0.0
 11
364.949379
 21
311.181275
 31
0.0
  0
LINE
  5
107A
330
1585
100
AcDbEntity
  8
0
100
AcDbLine
 10
364.860379
 20
306.335275
 30
0.0
 11
362.783379
 21
309.931275
 31
0.0
  0
ARC
  5
107B
330
1585
100
AcDbEntity
  8
0
100
AcDbCircle
 10
359.320379
 20
307.931275
 30
0.0
 40
4.0
100
AcDbArc
 50
30.0
 51
95.0
  0
ARC
  5
107C
330
1585
100
AcDbEntity
  8
0
100
AcDbCircle
 10
385.123379
 20
307.930275
 30
0.0
 40
4.0
100
AcDbArc
 50
85.0
 51
150.0
  0
ARC
  5
107D
330
1585
100
AcDbEntity
  8
0
100
AcDbCircle
 10
359.320379
 20
307.931275
 30
0.0
 40
6.5
100
AcDbArc
 50
30.0
 51
95.0
  0
ARC
  5
107E
330
1585
100
AcDbEntity
  8
0
100
AcDbCircle
 10
385.123379
 20
307.930275
 30
0.0
 40
6.5
100
AcDbArc
 50
85.0
 51
150.0
  0
LINE
  5
107F
330
1585
100
AcDbEntity
  8
0
100
AcDbLine
 10
329.221379
 20
194.584275
 30
0.0
 11
329.221379
 21
192.875275
 31
0.0
  0
ARC
  5
1080
330
1585
100
AcDbEntity
  8
0
100
AcDbCircle
 10
326.222379
 20
194.584275
 30
0.0
 40
3.0
100
AcDbArc
 50
0.0
 51
90.0
  0
ARC
  5
1081
330
1585
100
AcDbEntity
  8
0
100
AcDbCircle
 10
326.222379
 20
203.584275
 30
0.0
 40
3.0
100
AcDbArc
 50
270.0
 51
0.0
  0
LINE
  5
1082
330
1585
100
AcDbEntity
  8
0
100
AcDbLine
 10
326.222379
 20
200.584275
 30
0.0
 11
325.221379
 21
200.584275
 31
0.0
  0
LINE
  5
1083
330
1585
100
AcDbEntity
  8
0
100
AcDbLine
 10
325.221379
 20
197.584275
 30
0.0
 11
326.222379
 21
197.584275
 31
0.0
  0
ARC
  5
1084
330
1585
100
AcDbEntity
  8
0
100
AcDbCircle
 10
325.221379
 20
199.084275
 30
0.0
 40
1.5
100
AcDbArc
 50
180.0
 51
270.0
  0
ARC
  5
1085
330
1585
100
AcDbEntity
  8
0
100
AcDbCircle
 10
325.221379
 20
199.084275
 30
0.0
 40
1.5
100
AcDbArc
 50
90.0
 51
180.0
  0
LINE
  5
1086
330
1585
100
AcDbEntity
  8
0
100
AcDbLine
 10
419.221379
 20
200.584275
 30
0.0
 11
418.221379
 21
200.584275
 31
0.0
  0
LINE
  5
1087
330
1585
100
AcDbEntity
  8
0
100
AcDbLine
 10
419.221379
 20
197.584275
 30
0.0
 11
418.221379
 21
197.584275
 31
0.0
  0
LINE
  5
1088
330
1585
100
AcDbEntity
  8
0
100
AcDbLine
 10
415.2223789999999
 20
194.584275
 30
0.0
 11
415.2223789999999
 21
192.875275
 31
0.0
  0
ARC
  5
1089
330
1585
100
AcDbEntity
  8
0
100
AcDbCircle
 10
419.221379
 20
199.084275
 30
0.0
 40
1.5
100
AcDbArc
 50
0.0
 51
90.0
  0
ARC
  5
108A
330
1585
100
AcDbEntity
  8
0
100
AcDbCircle
 10
419.221379
 20
199.084275
 30
0.0
 40
1.5
100
AcDbArc
 50
270.0
 51
0.0
  0
ARC
  5
108B
330
1585
100
AcDbEntity
  8
0
100
AcDbCircle
 10
418.221379
 20
203.584275
 30
0.0
 40
3.0
100
AcDbArc
 50
180.0
 51
270.0
  0
ARC
  5
108C
330
1585
100
AcDbEntity
  8
0
100
AcDbCircle
 10
418.221379
 20
194.584275
 30
0.0
 40
3.0
100
AcDbArc
 50
90.0
 51
180.0
  0
CIRCLE
  5
108D
330
1585
100
AcDbEntity
  8
0
100
AcDbCircle
 10
419.1613789999999
 20
193.644275
 30
0.0
 40
3.939999999999999
  0
CIRCLE
  5
108E
330
1585
100
AcDbEntity
  8
0
100
AcDbCircle
 10
325.281379
 20
193.644275
 30
0.0
 40
3.939999999999999
  0
LINE
  5
108F
330
1585
100
AcDbEntity
  8
MAßLINIEN
 62
     4
100
AcDbLine
 10
372.207379
 20
109.207275
 30
0.0
 11
372.223379
 21
373.873275
 31
0.0
  0
ARC
  5
1090
330
1585
100
AcDbEntity
  8
0
100
AcDbCircle
 10
515.212379
 20
331.338275
 30
0.0
 40
4.0
100
AcDbArc
 50
92.0
 51
170.0
  0
ARC
  5
1091
330
1585
100
AcDbEntity
  8
0
100
AcDbCircle
 10
548.765379
 20
334.173275
 30
0.0
 40
2.5
100
AcDbArc
 50
9.463
 51
44.567
  0
ARC
  5
1092
330
1585
100
AcDbEntity
  8
0
100
AcDbCircle
 10
549.121379
 20
334.523275
 30
0.0
 40
2.0
100
AcDbArc
 50
44.567
 51
92.0
  0
LINE
  5
1093
330
1585
100
AcDbEntity
  8
0
100
AcDbLine
 10
186.221379
 20
330.584275
 30
0.0
 11
186.222379
 21
279.584275
 31
0.0
  0
LINE
  5
1094
330
1585
100
AcDbEntity
  8
0
100
AcDbLine
 10
191.221379
 20
330.584275
 30
0.0
 11
191.221379
 21
279.284275
 31
0.0
  0
LINE
  5
1095
330
1585
100
AcDbEntity
  8
0
100
AcDbLine
 10
186.221379
 20
330.084275
 30
0.0
 11
191.221379
 21
330.084275
 31
0.0
  0
LINE
  5
1096
330
1585
100
AcDbEntity
  8
0
100
AcDbLine
 10
186.221379
 20
280.084275
 30
0.0
 11
191.222379
 21
280.084275
 31
0.0
  0
ARC
  5
1097
330
1585
100
AcDbEntity
  8
0
100
AcDbCircle
 10
182.221379
 20
330.583275
 30
0.0
 40
4.0
100
AcDbArc
 50
0.001
 51
90.0
  0
LINE
  5
1098
330
1585
100
AcDbEntity
  8
0
100
AcDbLine
 10
195.221379
 20
334.584275
 30
0.0
 11
250.907379
 21
334.584275
 31
0.0
  0
ARC
  5
1099
330
1585
100
AcDbEntity
  8
0
100
AcDbCircle
 10
195.221379
 20
330.583275
 30
0.0
 40
4.0
100
AcDbArc
 50
90.0
 51
180.001
  0
LINE
  5
109A
330
1585
100
AcDbEntity
  8
0
100
AcDbLine
 10
157.222379
 20
275.583275
 30
0.0
 11
182.222379
 21
275.584275
 31
0.0
  0
ARC
  5
109B
330
1585
100
AcDbEntity
  8
0
100
AcDbCircle
 10
182.222379
 20
279.584275
 30
0.0
 40
4.0
100
AcDbArc
 50
270.001
 51
0.001
  0
LINE
  5
109C
330
1585
100
AcDbEntity
  8
0
100
AcDbLine
 10
161.222379
 20
270.084275
 30
0.0
 11
194.784379
 21
270.084275
 31
0.0
  0
ARC
  5
109D
330
1585
100
AcDbEntity
  8
0
100
AcDbCircle
 10
161.222379
 20
274.084275
 30
0.0
 40
4.0
100
AcDbArc
 50
180.001
 51
270.0
  0
LINE
  5
109F
330
1585
100
AcDbEntity
  8
0
100
AcDbLine
 10
267.396379
 20
296.584275
 30
0.0
 11
262.389379
 21
296.584275
 31
0.0
  0
LINE
  5
10A0
330
1585
100
AcDbEntity
  8
0
100
AcDbLine
 10
269.492379
 20
256.583275
 30
0.0
 11
264.485379
 21
256.583275
 31
0.0
  0
LINE
  5
10A1
330
1585
100
AcDbEntity
  8
0
100
AcDbLine
 10
194.186379
 20
275.420275
 30
0.0
 11
264.485379
 21
256.584275
 31
0.0
  0
ARC
  5
10A2
330
1585
100
AcDbEntity
  8
0
100
AcDbCircle
 10
195.221379
 20
279.284275
 30
0.0
 40
4.0
100
AcDbArc
 50
180.001
 51
255.0
  0
LINE
  5
10A3
330
1585
100
AcDbEntity
  8
0
100
AcDbLine
 10
194.784379
 20
270.084275
 30
0.0
 11
257.742379
 21
253.214275
 31
0.0
  0
ARC
  5
10A4
330
1585
100
AcDbEntity
  8
0
100
AcDbCircle
 10
255.154379
 20
243.555275
 30
0.0
 40
10.0
100
AcDbArc
 50
3.0
 51
75.0
  0
LINE
  5
10A5
330
1585
100
AcDbEntity
  8
0
100
AcDbLine
 10
260.893379
 20
325.107275
 30
0.0
 11
264.485379
 21
256.584275
 31
0.0
  0
LINE
  5
10AC
330
1585
100
AcDbEntity
  8
0
100
AcDbLine
 10
153.222379
 20
338.084275
 30
0.0
 11
153.222379
 21
272.084275
 31
0.0
  0
LINE
  5
10AD
330
1585
100
AcDbEntity
  8
MAßLINIEN
 62
     4
 48
0.22
100
AcDbLine
 10
147.511379
 20
305.084275
 30
0.0
 11
195.911379
 21
305.084275
 31
0.0
  0
LINE
  5
10AE
330
1585
100
AcDbEntity
  8
0
100
AcDbLine
 10
153.222379
 20
338.084275
 30
0.0
 11
157.222379
 21
338.084275
 31
0.0
  0
LINE
  5
10AF
330
1585
100
AcDbEntity
  8
0
100
AcDbLine
 10
153.222379
 20
272.084275
 30
0.0
 11
157.222379
 21
272.084275
 31
0.0
  0
LINE
  5
10B0
330
1585
100
AcDbEntity
  8
0
100
AcDbLine
 10
153.222379
 20
332.584275
 30
0.0
 11
157.222379
 21
332.584275
 31
0.0
  0
LINE
  5
10B1
330
1585
100
AcDbEntity
  8
0
100
AcDbLine
 10
153.222379
 20
277.584275
 30
0.0
 11
157.222379
 21
277.584275
 31
0.0
  0
LINE
  5
10B2
330
1585
100
AcDbEntity
  8
0
100
AcDbLine
 10
176.222379
 20
324.084275
 30
0.0
 11
176.222379
 21
286.084275
 31
0.0
  0
LINE
  5
10B3
330
1585
100
AcDbEntity
  8
0
100
AcDbLine
 10
176.221379
 20
286.083275
 30
0.0
 11
175.267379
 21
275.584275
 31
0.0
  0
LINE
  5
10B4
330
1585
100
AcDbEntity
  8
0
100
AcDbLine
 10
176.222379
 20
324.083275
 30
0.0
 11
175.267379
 21
334.584275
 31
0.0
  0
LINE
  5
10B5
330
1585
100
AcDbEntity
  8
0
100
AcDbLine
 10
171.222379
 20
332.584275
 30
0.0
 11
171.222379
 21
277.584275
 31
0.0
  0
LINE
  5
10B6
330
1585
100
AcDbEntity
  8
0
100
AcDbLine
 10
171.222379
 20
277.584275
 30
0.0
 11
176.222379
 21
286.084275
 31
0.0
  0
LINE
  5
10B7
330
1585
100
AcDbEntity
  8
0
100
AcDbLine
 10
171.221379
 20
332.584275
 30
0.0
 11
176.222379
 21
324.083275
 31
0.0
  0
LINE
  5
10B8
330
1585
100
AcDbEntity
  8
0
100
AcDbLine
 10
164.222379
 20
327.084275
 30
0.0
 11
164.222379
 21
283.084275
 31
0.0
  0
LINE
  5
10B9
330
1585
100
AcDbEntity
  8
0
100
AcDbLine
 10
162.722379
 20
327.084275
 30
0.0
 11
164.222379
 21
327.084275
 31
0.0
  0
LINE
  5
10BA
330
1585
100
AcDbEntity
  8
0
100
AcDbLine
 10
162.722379
 20
283.084275
 30
0.0
 11
164.222379
 21
283.084275
 31
0.0
  0
LINE
  5
10BB
330
1585
100
AcDbEntity
  8
0
100
AcDbLine
 10
162.722379
 20
327.084275
 30
0.0
 11
162.722379
 21
283.084275
 31
0.0
  0
LINE
  5
10BC
330
1585
100
AcDbEntity
  8
0
100
AcDbLine
 10
161.222379
 20
277.584275
 30
0.0
 11
164.222379
 21
283.084275
 31
0.0
  0
LINE
  5
10BD
330
1585
100
AcDbEntity
  8
0
100
AcDbLine
 10
164.221379
 20
327.084275
 30
0.0
 11
161.221379
 21
332.584275
 31
0.0
  0
LINE
  5
10BE
330
1585
100
AcDbEntity
  8
0
100
AcDbLine
 10
162.722379
 20
327.083275
 30
0.0
 11
157.222379
 21
332.584275
 31
0.0
  0
LINE
  5
10BF
330
1585
100
AcDbEntity
  8
0
100
AcDbLine
 10
162.722379
 20
283.083275
 30
0.0
 11
157.222379
 21
277.583275
 31
0.0
  0
LINE
  5
10C0
330
1585
100
AcDbEntity
  8
0
100
AcDbLine
 10
161.222379
 20
332.584275
 30
0.0
 11
171.222379
 21
332.584275
 31
0.0
  0
LINE
  5
10C1
330
1585
100
AcDbEntity
  8
0
100
AcDbLine
 10
161.222379
 20
277.584275
 30
0.0
 11
171.222379
 21
277.584275
 31
0.0
  0
LINE
  5
10C2
330
1585
100
AcDbEntity
  8
0
100
AcDbLine
 10
157.222379
 20
332.584275
 30
0.0
 11
157.222379
 21
277.584275
 31
0.0
  0
LINE
  5
10C5
330
1585
100
AcDbEntity
  8
0
100
AcDbLine
 10
494.960379
 20
342.583275
 30
0.0
 11
494.960379
 21
347.583275
 31
0.0
  0
LINE
  5
10C6
330
1585
100
AcDbEntity
  8
4
100
AcDbLine
 10
495.960379
 20
342.583275
 30
0.0
 11
495.960379
 21
347.583275
 31
0.0
  0
LINE
  5
10C7
330
1585
100
AcDbEntity
  8
4
100
AcDbLine
 10
503.960379
 20
342.584275
 30
0.0
 11
503.960379
 21
347.583275
 31
0.0
  0
LINE
  5
10C8
330
1585
100
AcDbEntity
  8
0
100
AcDbLine
 10
504.9603789999999
 20
342.583275
 30
0.0
 11
504.9603789999999
 21
347.583275
 31
0.0
  0
ARC
  5
10C9
330
1585
100
AcDbEntity
  8
0
100
AcDbCircle
 10
259.564379
 20
345.983275
 30
0.0
 40
1.6
100
AcDbArc
 50
90.0
 51
170.0
  0
LINE
  5
10CA
330
1585
100
AcDbEntity
  8
0
100
AcDbLine
 10
526.613379
 20
359.583275
 30
0.0
 11
512.832379
 21
359.584275
 31
0.0
  0
LINE
  5
10CB
330
1585
100
AcDbEntity
  8
0
100
AcDbLine
 10
524.7213789999999
 20
359.583275
 30
0.0
 11
544.7213789999999
 21
359.583275
 31
0.0
  0
LINE
  5
10CC
330
1585
100
AcDbEntity
  8
0
100
AcDbLine
 10
372.221379
 20
359.583275
 30
0.0
 11
514.722379
 21
359.583275
 31
0.0
  0
LINE
  5
10CD
330
1585
100
AcDbEntity
  8
0
100
AcDbLine
 10
547.2213789999999
 20
357.083275
 30
0.0
 11
547.2213789999999
 21
350.083275
 31
0.0
  0
LINE
  5
10CE
330
1585
100
AcDbEntity
  8
0
100
AcDbLine
 10
372.221379
 20
347.583275
 30
0.0
 11
544.7213789999999
 21
347.583275
 31
0.0
  0
ARC
  5
10CF
330
1585
100
AcDbEntity
  8
0
100
AcDbCircle
 10
544.7213789999999
 20
357.083275
 30
0.0
 40
2.5
100
AcDbArc
 50
0.0
 51
90.0
  0
ARC
  5
10D0
330
1585
100
AcDbEntity
  8
0
100
AcDbCircle
 10
544.7213789999999
 20
350.083275
 30
0.0
 40
2.5
100
AcDbArc
 50
270.0
 51
0.0
  0
LINE
  5
10D1
330
1585
100
AcDbEntity
  8
0
100
AcDbLine
 10
493.722379
 20
359.852275
 30
0.0
 11
493.722379
 21
359.583275
 31
0.0
  0
LINE
  5
10D2
330
1585
100
AcDbEntity
  8
0
100
AcDbLine
 10
372.221379
 20
355.584275
 30
0.0
 11
374.221379
 21
355.584275
 31
0.0
  0
ARC
  5
10D3
330
1585
100
AcDbEntity
  8
0
100
AcDbCircle
 10
489.721379
 20
359.583275
 30
0.0
 40
4.0
100
AcDbArc
 50
270.0
 51
0.0
  0
LINE
  5
10D4
330
1585
100
AcDbEntity
  8
0
100
AcDbLine
 10
372.221379
 20
355.584275
 30
0.0
 11
547.2213789999999
 21
355.584275
 31
0.0
  0
ARC
  5
10D5
330
1585
100
AcDbEntity
  8
0
100
AcDbCircle
 10
316.640379
 20
359.583275
 30
0.0
 40
4.0
100
AcDbArc
 50
196.602
 51
270.0
  0
ARC
  5
10D6
330
1585
100
AcDbEntity
  8
0
100
AcDbCircle
 10
311.273379
 20
357.983275
 30
0.0
 40
1.6
100
AcDbArc
 50
16.602
 51
89.999
  0
LINE
  5
10D7
330
1585
100
AcDbEntity
  8
0
100
AcDbLine
 10
372.221379
 20
359.583275
 30
0.0
 11
199.721379
 21
359.583275
 31
0.0
  0
LINE
  5
10D8
330
1585
100
AcDbEntity
  8
0
100
AcDbLine
 10
197.221379
 20
357.083275
 30
0.0
 11
197.221379
 21
350.083275
 31
0.0
  0
LINE
  5
10D9
330
1585
100
AcDbEntity
  8
0
100
AcDbLine
 10
372.221379
 20
347.583275
 30
0.0
 11
199.721379
 21
347.583275
 31
0.0
  0
ARC
  5
10DA
330
1585
100
AcDbEntity
  8
0
100
AcDbCircle
 10
199.721379
 20
357.083275
 30
0.0
 40
2.5
100
AcDbArc
 50
90.0
 51
180.0
  0
ARC
  5
10DB
330
1585
100
AcDbEntity
  8
0
100
AcDbCircle
 10
199.721379
 20
350.083275
 30
0.0
 40
2.5
100
AcDbArc
 50
180.0
 51
270.0
  0
ARC
  5
10DC
330
1585
100
AcDbEntity
  8
0
100
AcDbCircle
 10
254.721379
 20
359.583275
 30
0.0
 40
4.0
100
AcDbArc
 50
180.0
 51
270.0
  0
LINE
  5
10DD
330
1585
100
AcDbEntity
  8
0
100
AcDbLine
 10
372.221379
 20
355.584275
 30
0.0
 11
197.221379
 21
355.584275
 31
0.0
  0
ARC
  5
10DE
330
1585
100
AcDbEntity
  8
0
100
AcDbCircle
 10
320.640379
 20
359.583275
 30
0.0
 40
4.0
100
AcDbArc
 50
270.0
 51
343.398
  0
ARC
  5
10DF
330
1585
100
AcDbEntity
  8
0
100
AcDbCircle
 10
326.006379
 20
357.983275
 30
0.0
 40
1.6
100
AcDbArc
 50
90.00100000000001
 51
163.398
  0
LINE
  5
10E0
330
1585
100
AcDbEntity
  8
0
100
AcDbLine
 10
254.721379
 20
355.584275
 30
0.0
 11
254.721379
 21
350.083275
 31
0.0
  0
ARC
  5
10E1
330
1585
100
AcDbEntity
  8
0
100
AcDbCircle
 10
252.221379
 20
350.083275
 30
0.0
 40
2.5
100
AcDbArc
 50
270.0
 51
0.0
  0
LINE
  5
10E2
330
1585
100
AcDbEntity
  8
0
100
AcDbLine
 10
489.721379
 20
355.584275
 30
0.0
 11
489.721379
 21
350.083275
 31
0.0
  0
ARC
  5
10E3
330
1585
100
AcDbEntity
  8
0
100
AcDbCircle
 10
492.2213789999999
 20
350.083275
 30
0.0
 40
2.5
100
AcDbArc
 50
180.0
 51
270.0
  0
LINE
  5
10E5
330
1585
100
AcDbEntity
  8
0
100
AcDbLine
 10
494.9613789999999
 20
371.083275
 30
0.0
 11
495.961379
 21
372.083275
 31
0.0
  0
LINE
  5
10E6
330
1585
100
AcDbEntity
  8
0
100
AcDbLine
 10
504.959379
 20
371.083275
 30
0.0
 11
503.959379
 21
372.083275
 31
0.0
  0
LINE
  5
10E7
330
1585
100
AcDbEntity
  8
0
100
AcDbLine
 10
504.9603789999999
 20
371.082275
 30
0.0
 11
494.962379
 21
371.083275
 31
0.0
  0
LINE
  5
10E8
330
1585
100
AcDbEntity
  8
0
100
AcDbLine
 10
503.960379
 20
372.083275
 30
0.0
 11
495.963379
 21
372.083275
 31
0.0
  0
ARC
  5
10E9
330
1585
100
AcDbEntity
  8
0
100
AcDbCircle
 10
499.959379
 20
353.408275
 30
0.0
 40
14.175
100
AcDbArc
 50
70.533
 51
109.461
  0
ARC
  5
10EA
330
1585
100
AcDbEntity
  8
0
100
AcDbCircle
 10
499.960379
 20
373.758275
 30
0.0
 40
14.175
100
AcDbArc
 50
250.525
 51
289.46
  0
LINE
  5
10EB
330
1585
100
AcDbEntity
  8
0
100
AcDbLine
 10
504.6843789999999
 20
360.395275
 30
0.0
 11
504.685379
 21
366.771275
 31
0.0
  0
LINE
  5
10EC
330
1585
100
AcDbEntity
  8
0
100
AcDbLine
 10
495.2343789999999
 20
360.396275
 30
0.0
 11
495.235379
 21
366.772275
 31
0.0
  0
LINE
  5
10ED
330
1585
100
AcDbEntity
  8
0
100
AcDbLine
 10
506.8513789999999
 20
359.583275
 30
0.0
 11
493.069379
 21
359.584275
 31
0.0
  0
LINE
  5
10EE
330
1585
100
AcDbEntity
  8
0
100
AcDbLine
 10
507.0483789999999
 20
367.583275
 30
0.0
 11
493.0703789999999
 21
367.584275
 31
0.0
  0
LINE
  5
10EF
330
1585
100
AcDbEntity
  8
0
100
AcDbLine
 10
509.408379
 20
360.393275
 30
0.0
 11
508.495379
 21
359.866275
 31
0.0
  0
ARC
  5
10F0
330
1585
100
AcDbEntity
  8
0
100
AcDbCircle
 10
507.047379
 20
363.430275
 30
0.0
 40
3.846999999999999
100
AcDbArc
 50
232.13
 51
292.11
  0
LINE
  5
10F1
330
1585
100
AcDbEntity
  8
0
100
AcDbLine
 10
509.409379
 20
360.395275
 30
0.0
 11
509.410379
 21
366.771275
 31
0.0
  0
ARC
  5
10F2
330
1585
100
AcDbEntity
  8
0
100
AcDbCircle
 10
507.047379
 20
363.735275
 30
0.0
 40
3.848
100
AcDbArc
 50
60.0
 51
127.859
  0
LINE
  5
10F3
330
1585
100
AcDbEntity
  8
0
100
AcDbLine
 10
509.408379
 20
366.773275
 30
0.0
 11
508.4983789999999
 21
367.299275
 31
0.0
  0
ARC
  5
10F4
330
1585
100
AcDbEntity
  8
0
100
AcDbCircle
 10
492.872379
 20
363.431275
 30
0.0
 40
3.848
100
AcDbArc
 50
247.969
 51
307.857
  0
LINE
  5
10F5
330
1585
100
AcDbEntity
  8
0
100
AcDbLine
 10
491.429379
 20
359.865275
 30
0.0
 11
490.5113789999999
 21
360.395275
 31
0.0
  0
LINE
  5
10F6
330
1585
100
AcDbEntity
  8
0
100
AcDbLine
 10
490.509379
 20
360.397275
 30
0.0
 11
490.510379
 21
366.771275
 31
0.0
  0
LINE
  5
10F7
330
1585
100
AcDbEntity
  8
0
100
AcDbLine
 10
491.427379
 20
367.301275
 30
0.0
 11
490.5113789999999
 21
366.773275
 31
0.0
  0
ARC
  5
10F8
330
1585
100
AcDbEntity
  8
0
100
AcDbCircle
 10
492.872379
 20
363.736275
 30
0.0
 40
3.848
100
AcDbArc
 50
52.138
 51
112.063
  0
LINE
  5
10F9
330
1585
100
AcDbEntity
  8
0
100
AcDbLine
 10
494.960379
 20
367.584275
 30
0.0
 11
494.960379
 21
371.082275
 31
0.0
  0
LINE
  5
10FA
330
1585
100
AcDbEntity
  8
4
100
AcDbLine
 10
495.960379
 20
367.008275
 30
0.0
 11
495.960379
 21
372.081275
 31
0.0
  0
LINE
  5
10FB
330
1585
100
AcDbEntity
  8
4
100
AcDbLine
 10
503.959379
 20
367.583275
 30
0.0
 11
503.960379
 21
372.081275
 31
0.0
  0
LINE
  5
10FC
330
1585
100
AcDbEntity
  8
0
100
AcDbLine
 10
504.959379
 20
367.583275
 30
0.0
 11
504.9603789999999
 21
371.081275
 31
0.0
  0
LINE
  5
10FD
330
1585
100
AcDbEntity
  8
0
100
AcDbLine
 10
489.704379
 20
360.353275
 30
0.0
 11
489.704379
 21
368.400275
 31
0.0
  0
LINE
  5
10FE
330
1585
100
AcDbEntity
  8
0
100
AcDbLine
 10
489.704379
 20
368.400275
 30
0.0
 11
493.984379
 21
368.400275
 31
0.0
  0
LINE
  5
10FF
330
1585
100
AcDbEntity
  8
0
100
AcDbLine
 10
493.984379
 20
368.400275
 30
0.0
 11
493.984379
 21
372.734275
 31
0.0
  0
LINE
  5
1100
330
1585
100
AcDbEntity
  8
0
100
AcDbLine
 10
493.984379
 20
372.734275
 30
0.0
 11
499.960379
 21
372.733275
 31
0.0
  0
LINE
  5
1101
330
1585
100
AcDbEntity
  8
0
100
AcDbLine
 10
510.215379
 20
360.352275
 30
0.0
 11
510.216379
 21
368.398275
 31
0.0
  0
LINE
  5
1102
330
1585
100
AcDbEntity
  8
0
100
AcDbLine
 10
510.216379
 20
368.398275
 30
0.0
 11
505.937379
 21
368.399275
 31
0.0
  0
LINE
  5
1103
330
1585
100
AcDbEntity
  8
0
100
AcDbLine
 10
505.937379
 20
368.399275
 30
0.0
 11
505.937379
 21
372.733275
 31
0.0
  0
LINE
  5
1104
330
1585
100
AcDbEntity
  8
0
100
AcDbLine
 10
505.937379
 20
372.733275
 30
0.0
 11
499.960379
 21
372.733275
 31
0.0
  0
LINE
  5
1105
330
1585
100
AcDbEntity
  8
0
100
AcDbLine
 10
249.483379
 20
371.083275
 30
0.0
 11
248.482379
 21
372.083275
 31
0.0
  0
LINE
  5
1106
330
1585
100
AcDbEntity
  8
0
100
AcDbLine
 10
239.484379
 20
371.083275
 30
0.0
 11
240.485379
 21
372.083275
 31
0.0
  0
LINE
  5
1107
330
1585
100
AcDbEntity
  8
0
100
AcDbLine
 10
239.484379
 20
371.082275
 30
0.0
 11
249.481379
 21
371.083275
 31
0.0
  0
LINE
  5
1108
330
1585
100
AcDbEntity
  8
0
100
AcDbLine
 10
240.483379
 20
372.083275
 30
0.0
 11
248.481379
 21
372.084275
 31
0.0
  0
ARC
  5
1109
330
1585
100
AcDbEntity
  8
0
100
AcDbCircle
 10
244.484379
 20
353.408275
 30
0.0
 40
14.175
100
AcDbArc
 50
70.539
 51
109.467
  0
ARC
  5
110A
330
1585
100
AcDbEntity
  8
0
100
AcDbCircle
 10
244.483379
 20
373.758275
 30
0.0
 40
14.175
100
AcDbArc
 50
250.54
 51
289.475
  0
LINE
  5
110B
330
1585
100
AcDbEntity
  8
0
100
AcDbLine
 10
239.759379
 20
360.395275
 30
0.0
 11
239.758379
 21
366.771275
 31
0.0
  0
LINE
  5
110C
330
1585
100
AcDbEntity
  8
0
100
AcDbLine
 10
249.209379
 20
360.396275
 30
0.0
 11
249.208379
 21
366.772275
 31
0.0
  0
LINE
  5
110D
330
1585
100
AcDbEntity
  8
0
100
AcDbLine
 10
237.592379
 20
359.583275
 30
0.0
 11
251.374379
 21
359.584275
 31
0.0
  0
LINE
  5
110E
330
1585
100
AcDbEntity
  8
0
100
AcDbLine
 10
237.396379
 20
367.583275
 30
0.0
 11
251.373379
 21
367.584275
 31
0.0
  0
LINE
  5
110F
330
1585
100
AcDbEntity
  8
0
100
AcDbLine
 10
235.035379
 20
360.393275
 30
0.0
 11
235.948379
 21
359.866275
 31
0.0
  0
ARC
  5
1110
330
1585
100
AcDbEntity
  8
0
100
AcDbCircle
 10
237.396379
 20
363.430275
 30
0.0
 40
3.846999999999999
100
AcDbArc
 50
247.89
 51
307.869
  0
LINE
  5
1111
330
1585
100
AcDbEntity
  8
0
100
AcDbLine
 10
235.034379
 20
360.395275
 30
0.0
 11
235.033379
 21
366.771275
 31
0.0
  0
ARC
  5
1112
330
1585
100
AcDbEntity
  8
0
100
AcDbCircle
 10
237.396379
 20
363.735275
 30
0.0
 40
3.848
100
AcDbArc
 50
52.14100000000001
 51
120.0
  0
LINE
  5
1113
330
1585
100
AcDbEntity
  8
0
100
AcDbLine
 10
235.035379
 20
366.773275
 30
0.0
 11
235.946379
 21
367.299275
 31
0.0
  0
ARC
  5
1114
330
1585
100
AcDbEntity
  8
0
100
AcDbCircle
 10
251.571379
 20
363.431275
 30
0.0
 40
3.848
100
AcDbArc
 50
232.143
 51
292.031
  0
LINE
  5
1115
330
1585
100
AcDbEntity
  8
0
100
AcDbLine
 10
253.015379
 20
359.864275
 30
0.0
 11
253.933379
 21
360.394275
 31
0.0
  0
LINE
  5
1116
330
1585
100
AcDbEntity
  8
0
100
AcDbLine
 10
253.934379
 20
360.397275
 30
0.0
 11
253.933379
 21
366.771275
 31
0.0
  0
LINE
  5
1117
330
1585
100
AcDbEntity
  8
0
100
AcDbLine
 10
253.016379
 20
367.301275
 30
0.0
 11
253.932379
 21
366.773275
 31
0.0
  0
ARC
  5
1118
330
1585
100
AcDbEntity
  8
0
100
AcDbCircle
 10
251.571379
 20
363.736275
 30
0.0
 40
3.848
100
AcDbArc
 50
67.937
 51
127.862
  0
LINE
  5
1119
330
1585
100
AcDbEntity
  8
0
100
AcDbLine
 10
249.483379
 20
367.584275
 30
0.0
 11
249.483379
 21
371.082275
 31
0.0
  0
LINE
  5
111A
330
1585
100
AcDbEntity
  8
4
100
AcDbLine
 10
248.483379
 20
367.007275
 30
0.0
 11
248.483379
 21
372.081275
 31
0.0
  0
LINE
  5
111B
330
1585
100
AcDbEntity
  8
4
100
AcDbLine
 10
240.484379
 20
367.583275
 30
0.0
 11
240.484379
 21
372.081275
 31
0.0
  0
LINE
  5
111C
330
1585
100
AcDbEntity
  8
0
100
AcDbLine
 10
239.484379
 20
367.583275
 30
0.0
 11
239.484379
 21
371.081275
 31
0.0
  0
LINE
  5
111D
330
1585
100
AcDbEntity
  8
0
100
AcDbLine
 10
254.739379
 20
360.353275
 30
0.0
 11
254.739379
 21
368.400275
 31
0.0
  0
LINE
  5
111E
330
1585
100
AcDbEntity
  8
0
100
AcDbLine
 10
254.739379
 20
368.400275
 30
0.0
 11
250.460379
 21
368.400275
 31
0.0
  0
LINE
  5
111F
330
1585
100
AcDbEntity
  8
0
100
AcDbLine
 10
250.460379
 20
368.400275
 30
0.0
 11
250.460379
 21
372.734275
 31
0.0
  0
LINE
  5
1120
330
1585
100
AcDbEntity
  8
0
100
AcDbLine
 10
250.460379
 20
372.734275
 30
0.0
 11
244.483379
 21
372.733275
 31
0.0
  0
LINE
  5
1121
330
1585
100
AcDbEntity
  8
0
100
AcDbLine
 10
234.228379
 20
360.352275
 30
0.0
 11
234.227379
 21
368.398275
 31
0.0
  0
LINE
  5
1122
330
1585
100
AcDbEntity
  8
0
100
AcDbLine
 10
234.227379
 20
368.398275
 30
0.0
 11
238.506379
 21
368.399275
 31
0.0
  0
LINE
  5
1123
330
1585
100
AcDbEntity
  8
0
100
AcDbLine
 10
238.506379
 20
368.399275
 30
0.0
 11
238.506379
 21
372.733275
 31
0.0
  0
LINE
  5
1124
330
1585
100
AcDbEntity
  8
0
100
AcDbLine
 10
238.506379
 20
372.733275
 30
0.0
 11
244.483379
 21
372.733275
 31
0.0
  0
LINE
  5
1125
330
1585
100
AcDbEntity
  8
0
100
AcDbLine
 10
398.874379
 20
359.583275
 30
0.0
 11
385.093379
 21
359.584275
 31
0.0
  0
LINE
  5
1126
330
1585
100
AcDbEntity
  8
0
100
AcDbLine
 10
365.983379
 20
359.852275
 30
0.0
 11
365.983379
 21
359.583275
 31
0.0
  0
LINE
  5
1128
330
1585
100
AcDbEntity
  8
0
100
AcDbLine
 10
367.222379
 20
371.083275
 30
0.0
 11
368.222379
 21
372.083275
 31
0.0
  0
LINE
  5
1129
330
1585
100
AcDbEntity
  8
0
100
AcDbLine
 10
377.220379
 20
371.083275
 30
0.0
 11
376.220379
 21
372.083275
 31
0.0
  0
LINE
  5
112A
330
1585
100
AcDbEntity
  8
0
100
AcDbLine
 10
377.221379
 20
371.082275
 30
0.0
 11
367.224379
 21
371.083275
 31
0.0
  0
LINE
  5
112B
330
1585
100
AcDbEntity
  8
0
100
AcDbLine
 10
376.221379
 20
372.083275
 30
0.0
 11
368.224379
 21
372.083275
 31
0.0
  0
ARC
  5
112C
330
1585
100
AcDbEntity
  8
0
100
AcDbCircle
 10
372.220379
 20
353.408275
 30
0.0
 40
14.175
100
AcDbArc
 50
70.533
 51
109.461
  0
ARC
  5
112D
330
1585
100
AcDbEntity
  8
0
100
AcDbCircle
 10
372.221379
 20
373.758275
 30
0.0
 40
14.175
100
AcDbArc
 50
250.525
 51
289.46
  0
LINE
  5
112E
330
1585
100
AcDbEntity
  8
0
100
AcDbLine
 10
376.946379
 20
360.395275
 30
0.0
 11
376.946379
 21
366.771275
 31
0.0
  0
LINE
  5
112F
330
1585
100
AcDbEntity
  8
0
100
AcDbLine
 10
367.496379
 20
360.396275
 30
0.0
 11
367.496379
 21
366.772275
 31
0.0
  0
LINE
  5
1130
330
1585
100
AcDbEntity
  8
0
100
AcDbLine
 10
379.112379
 20
359.583275
 30
0.0
 11
365.331379
 21
359.584275
 31
0.0
  0
LINE
  5
1131
330
1585
100
AcDbEntity
  8
0
100
AcDbLine
 10
379.309379
 20
367.583275
 30
0.0
 11
365.331379
 21
367.584275
 31
0.0
  0
LINE
  5
1132
330
1585
100
AcDbEntity
  8
0
100
AcDbLine
 10
381.669379
 20
360.393275
 30
0.0
 11
380.757379
 21
359.866275
 31
0.0
  0
ARC
  5
1133
330
1585
100
AcDbEntity
  8
0
100
AcDbCircle
 10
379.308379
 20
363.430275
 30
0.0
 40
3.846999999999999
100
AcDbArc
 50
232.13
 51
292.11
  0
LINE
  5
1134
330
1585
100
AcDbEntity
  8
0
100
AcDbLine
 10
381.671379
 20
360.395275
 30
0.0
 11
381.671379
 21
366.771275
 31
0.0
  0
ARC
  5
1135
330
1585
100
AcDbEntity
  8
0
100
AcDbCircle
 10
379.308379
 20
363.735275
 30
0.0
 40
3.848
100
AcDbArc
 50
60.0
 51
127.859
  0
LINE
  5
1136
330
1585
100
AcDbEntity
  8
0
100
AcDbLine
 10
381.670379
 20
366.773275
 30
0.0
 11
380.759379
 21
367.299275
 31
0.0
  0
ARC
  5
1137
330
1585
100
AcDbEntity
  8
0
100
AcDbCircle
 10
365.133379
 20
363.431275
 30
0.0
 40
3.848
100
AcDbArc
 50
247.969
 51
307.857
  0
LINE
  5
1138
330
1585
100
AcDbEntity
  8
0
100
AcDbLine
 10
363.690379
 20
359.865275
 30
0.0
 11
362.772379
 21
360.395275
 31
0.0
  0
LINE
  5
1139
330
1585
100
AcDbEntity
  8
0
100
AcDbLine
 10
362.770379
 20
360.397275
 30
0.0
 11
362.771379
 21
366.771275
 31
0.0
  0
LINE
  5
113A
330
1585
100
AcDbEntity
  8
0
100
AcDbLine
 10
363.688379
 20
367.301275
 30
0.0
 11
362.773379
 21
366.773275
 31
0.0
  0
ARC
  5
113B
330
1585
100
AcDbEntity
  8
0
100
AcDbCircle
 10
365.133379
 20
363.736275
 30
0.0
 40
3.848
100
AcDbArc
 50
52.138
 51
112.063
  0
LINE
  5
113C
330
1585
100
AcDbEntity
  8
0
100
AcDbLine
 10
367.221379
 20
367.584275
 30
0.0
 11
367.221379
 21
371.082275
 31
0.0
  0
LINE
  5
113D
330
1585
100
AcDbEntity
  8
4
100
AcDbLine
 10
368.221379
 20
367.008275
 30
0.0
 11
368.221379
 21
372.081275
 31
0.0
  0
LINE
  5
113E
330
1585
100
AcDbEntity
  8
4
100
AcDbLine
 10
376.220379
 20
367.583275
 30
0.0
 11
376.221379
 21
372.081275
 31
0.0
  0
LINE
  5
113F
330
1585
100
AcDbEntity
  8
0
100
AcDbLine
 10
377.220379
 20
367.583275
 30
0.0
 11
377.221379
 21
371.081275
 31
0.0
  0
LINE
  5
1140
330
1585
100
AcDbEntity
  8
0
100
AcDbLine
 10
361.966379
 20
360.353275
 30
0.0
 11
361.966379
 21
368.400275
 31
0.0
  0
LINE
  5
1141
330
1585
100
AcDbEntity
  8
0
100
AcDbLine
 10
361.966379
 20
368.400275
 30
0.0
 11
366.245379
 21
368.400275
 31
0.0
  0
LINE
  5
1142
330
1585
100
AcDbEntity
  8
0
100
AcDbLine
 10
366.245379
 20
368.400275
 30
0.0
 11
366.245379
 21
372.734275
 31
0.0
  0
LINE
  5
1143
330
1585
100
AcDbEntity
  8
0
100
AcDbLine
 10
366.245379
 20
372.734275
 30
0.0
 11
372.222379
 21
372.733275
 31
0.0
  0
LINE
  5
1144
330
1585
100
AcDbEntity
  8
0
100
AcDbLine
 10
382.476379
 20
360.352275
 30
0.0
 11
382.477379
 21
368.398275
 31
0.0
  0
LINE
  5
1145
330
1585
100
AcDbEntity
  8
0
100
AcDbLine
 10
382.477379
 20
368.398275
 30
0.0
 11
378.198379
 21
368.399275
 31
0.0
  0
LINE
  5
1146
330
1585
100
AcDbEntity
  8
0
100
AcDbLine
 10
378.198379
 20
368.399275
 30
0.0
 11
378.198379
 21
372.733275
 31
0.0
  0
LINE
  5
1147
330
1585
100
AcDbEntity
  8
0
100
AcDbLine
 10
378.198379
 20
372.733275
 30
0.0
 11
372.221379
 21
372.733275
 31
0.0
  0
ARC
  5
1148
330
1585
100
AcDbEntity
  8
0
100
AcDbCircle
 10
427.803379
 20
359.583275
 30
0.0
 40
4.0
100
AcDbArc
 50
270.0
 51
343.398
  0
ARC
  5
1149
330
1585
100
AcDbEntity
  8
0
100
AcDbCircle
 10
433.170379
 20
357.983275
 30
0.0
 40
1.6
100
AcDbArc
 50
90.00100000000001
 51
163.398
  0
ARC
  5
114A
330
1585
100
AcDbEntity
  8
0
100
AcDbCircle
 10
423.803379
 20
359.583275
 30
0.0
 40
4.0
100
AcDbArc
 50
196.602
 51
270.0
  0
ARC
  5
114B
330
1585
100
AcDbEntity
  8
0
100
AcDbCircle
 10
418.437379
 20
357.983275
 30
0.0
 40
1.6
100
AcDbArc
 50
16.602
 51
89.999
  0
LINE
  5
114C
330
1585
100
AcDbEntity
  8
0
100
AcDbLine
 10
249.482379
 20
342.599275
 30
0.0
 11
249.483379
 21
347.599275
 31
0.0
  0
LINE
  5
114D
330
1585
100
AcDbEntity
  8
4
100
AcDbLine
 10
248.482379
 20
342.599275
 30
0.0
 11
248.483379
 21
347.599275
 31
0.0
  0
LINE
  5
114E
330
1585
100
AcDbEntity
  8
4
100
AcDbLine
 10
240.482379
 20
342.600275
 30
0.0
 11
240.483379
 21
347.600275
 31
0.0
  0
LINE
  5
114F
330
1585
100
AcDbEntity
  8
0
100
AcDbLine
 10
239.483379
 20
342.600275
 30
0.0
 11
239.483379
 21
347.600275
 31
0.0
  0
DIMENSION
  5
116D
330
1585
100
AcDbEntity
  8
5
100
AcDbDimension
  2
*D13
 10
587.2203789999999
 20
457.195275
 30
0.0
 11
371.042379
 21
457.195275
 31
0.0
 70
   160
  1
%%c  430 
 71
     5
 42
-1.0
  3
GEN-ISO
100
AcDbAlignedDimension
 13
157.223379
 23
334.584275
 33
0.0
 14
587.2203789999999
 24
334.584275
 34
0.0
100
AcDbRotatedDimension
1001
ACAD
1000
DSTYLE
1002
{
1070
    78
1070
    12
1002
}
  0
DIMENSION
  5
1177
330
1585
100
AcDbEntity
  8
5
100
AcDbDimension
  2
*D18
 10
690.603379
 20
342.583275
 30
0.0
 11
690.603379
 21
222.030275
 31
0.0
 12
-149.015621
 22
-843.3197249999999
 32
0.0
 70
   160
  1
 220 
 71
     5
 42
-1.0
  3
GEN-ISO
100
AcDbAlignedDimension
 13
426.949379
 23
122.584275
 33
0.0
 14
583.005379
 24
342.583275
 34
0.0
 50
90.0
100
AcDbRotatedDimension
1001
ACAD
1000
DSTYLE
1002
{
1070
    78
1070
    12
1002
}
  0
POLYLINE
  5
1178
330
1585
100
AcDbEntity
  8
SCHRAFFUR_RAND
100
AcDb2dPolyline
 66
     1
 10
0.0
 20
0.0
 30
0.0
 70
     1
  0
VERTEX
  5
1179
330
1178
100
AcDbEntity
  8
SCHRAFFUR_RAND
100
AcDbVertex
100
AcDb2dVertex
 10
433.2213789999999
 20
230.584275
 30
0.0
  0
VERTEX
  5
117A
330
1178
100
AcDbEntity
  8
SCHRAFFUR_RAND
100
AcDbVertex
100
AcDb2dVertex
 10
434.721379
 20
230.584275
 30
0.0
  0
VERTEX
  5
117B
330
1178
100
AcDbEntity
  8
SCHRAFFUR_RAND
100
AcDbVertex
100
AcDb2dVertex
 10
434.721379
 20
294.0802749999999
 30
0.0
  0
VERTEX
  5
117C
330
1178
100
AcDbEntity
  8
SCHRAFFUR_RAND
100
AcDbVertex
100
AcDb2dVertex
 10
434.295379
 20
298.390275
 30
0.0
  0
VERTEX
  5
117D
330
1178
100
AcDbEntity
  8
SCHRAFFUR_RAND
100
AcDbVertex
100
AcDb2dVertex
 10
432.721379
 20
302.438275
 30
0.0
  0
VERTEX
  5
117E
330
1178
100
AcDbEntity
  8
SCHRAFFUR_RAND
100
AcDbVertex
100
AcDb2dVertex
 10
430.2043789999999
 20
305.977275
 30
0.0
  0
VERTEX
  5
117F
330
1178
100
AcDbEntity
  8
SCHRAFFUR_RAND
100
AcDbVertex
100
AcDb2dVertex
 10
426.898379
 20
308.792275
 30
0.0
  0
VERTEX
  5
1180
330
1178
100
AcDbEntity
  8
SCHRAFFUR_RAND
100
AcDbVertex
100
AcDb2dVertex
 10
423.003379
 20
310.713275
 30
0.0
  0
VERTEX
  5
1181
330
1178
100
AcDbEntity
  8
SCHRAFFUR_RAND
100
AcDbVertex
100
AcDb2dVertex
 10
418.747379
 20
311.513275
 30
0.0
  0
VERTEX
  5
1182
330
1178
100
AcDbEntity
  8
SCHRAFFUR_RAND
100
AcDbVertex
100
AcDb2dVertex
 10
395.222379
 20
313.571275
 30
0.0
  0
VERTEX
  5
1183
330
1178
100
AcDbEntity
  8
SCHRAFFUR_RAND
100
AcDbVertex
100
AcDb2dVertex
 10
385.690379
 20
314.406275
 30
0.0
  0
VERTEX
  5
1184
330
1178
100
AcDbEntity
  8
SCHRAFFUR_RAND
100
AcDbVertex
100
AcDb2dVertex
 10
383.228379
 20
314.261275
 30
0.0
  0
VERTEX
  5
1185
330
1178
100
AcDbEntity
  8
SCHRAFFUR_RAND
100
AcDbVertex
100
AcDb2dVertex
 10
381.024379
 20
313.114275
 30
0.0
  0
VERTEX
  5
1186
330
1178
100
AcDbEntity
  8
SCHRAFFUR_RAND
100
AcDbVertex
100
AcDb2dVertex
 10
379.494379
 20
311.181275
 30
0.0
  0
VERTEX
  5
1187
330
1178
100
AcDbEntity
  8
SCHRAFFUR_RAND
100
AcDbVertex
100
AcDb2dVertex
 10
377.418379
 20
307.584275
 30
0.0
  0
VERTEX
  5
1188
330
1178
100
AcDbEntity
  8
SCHRAFFUR_RAND
100
AcDbVertex
100
AcDb2dVertex
 10
375.812379
 20
305.642275
 30
0.0
  0
VERTEX
  5
1189
330
1178
100
AcDbEntity
  8
SCHRAFFUR_RAND
100
AcDbVertex
100
AcDb2dVertex
 10
373.492379
 20
304.609275
 30
0.0
  0
VERTEX
  5
118A
330
1178
100
AcDbEntity
  8
SCHRAFFUR_RAND
100
AcDbVertex
100
AcDb2dVertex
 10
370.951379
 20
304.609275
 30
0.0
  0
VERTEX
  5
118B
330
1178
100
AcDbEntity
  8
SCHRAFFUR_RAND
100
AcDbVertex
100
AcDb2dVertex
 10
368.631379
 20
305.642275
 30
0.0
  0
VERTEX
  5
118C
330
1178
100
AcDbEntity
  8
SCHRAFFUR_RAND
100
AcDbVertex
100
AcDb2dVertex
 10
367.025379
 20
307.584275
 30
0.0
  0
VERTEX
  5
118D
330
1178
100
AcDbEntity
  8
SCHRAFFUR_RAND
100
AcDbVertex
100
AcDb2dVertex
 10
364.949379
 20
311.181275
 30
0.0
  0
VERTEX
  5
118E
330
1178
100
AcDbEntity
  8
SCHRAFFUR_RAND
100
AcDbVertex
100
AcDb2dVertex
 10
363.419379
 20
313.114275
 30
0.0
  0
VERTEX
  5
118F
330
1178
100
AcDbEntity
  8
SCHRAFFUR_RAND
100
AcDbVertex
100
AcDb2dVertex
 10
361.215379
 20
314.261275
 30
0.0
  0
VERTEX
  5
1190
330
1178
100
AcDbEntity
  8
SCHRAFFUR_RAND
100
AcDbVertex
100
AcDb2dVertex
 10
358.753379
 20
314.406275
 30
0.0
  0
VERTEX
  5
1191
330
1178
100
AcDbEntity
  8
SCHRAFFUR_RAND
100
AcDbVertex
100
AcDb2dVertex
 10
349.222379
 20
313.571275
 30
0.0
  0
VERTEX
  5
1192
330
1178
100
AcDbEntity
  8
SCHRAFFUR_RAND
100
AcDbVertex
100
AcDb2dVertex
 10
325.696379
 20
311.514275
 30
0.0
  0
VERTEX
  5
1193
330
1178
100
AcDbEntity
  8
SCHRAFFUR_RAND
100
AcDbVertex
100
AcDb2dVertex
 10
321.440379
 20
310.713275
 30
0.0
  0
VERTEX
  5
1194
330
1178
100
AcDbEntity
  8
SCHRAFFUR_RAND
100
AcDbVertex
100
AcDb2dVertex
 10
317.545379
 20
308.792275
 30
0.0
  0
VERTEX
  5
1195
330
1178
100
AcDbEntity
  8
SCHRAFFUR_RAND
100
AcDbVertex
100
AcDb2dVertex
 10
314.239379
 20
305.977275
 30
0.0
  0
VERTEX
  5
1196
330
1178
100
AcDbEntity
  8
SCHRAFFUR_RAND
100
AcDbVertex
100
AcDb2dVertex
 10
311.722379
 20
302.438275
 30
0.0
  0
VERTEX
  5
1197
330
1178
100
AcDbEntity
  8
SCHRAFFUR_RAND
100
AcDbVertex
100
AcDb2dVertex
 10
310.148379
 20
298.390275
 30
0.0
  0
VERTEX
  5
1198
330
1178
100
AcDbEntity
  8
SCHRAFFUR_RAND
100
AcDbVertex
100
AcDb2dVertex
 10
309.721379
 20
294.0802749999999
 30
0.0
  0
VERTEX
  5
1199
330
1178
100
AcDbEntity
  8
SCHRAFFUR_RAND
100
AcDbVertex
100
AcDb2dVertex
 10
309.721379
 20
230.584275
 30
0.0
  0
VERTEX
  5
119A
330
1178
100
AcDbEntity
  8
SCHRAFFUR_RAND
100
AcDbVertex
100
AcDb2dVertex
 10
311.222379
 20
230.584275
 30
0.0
  0
VERTEX
  5
119B
330
1178
100
AcDbEntity
  8
SCHRAFFUR_RAND
100
AcDbVertex
100
AcDb2dVertex
 10
311.929379
 20
230.877275
 30
0.0
  0
VERTEX
  5
119C
330
1178
100
AcDbEntity
  8
SCHRAFFUR_RAND
100
AcDbVertex
100
AcDb2dVertex
 10
312.221379
 20
231.584275
 30
0.0
  0
VERTEX
  5
119D
330
1178
100
AcDbEntity
  8
SCHRAFFUR_RAND
100
AcDbVertex
100
AcDb2dVertex
 10
312.221379
 20
294.0802749999999
 30
0.0
  0
VERTEX
  5
119E
330
1178
100
AcDbEntity
  8
SCHRAFFUR_RAND
100
AcDbVertex
100
AcDb2dVertex
 10
312.773379
 20
298.498275
 30
0.0
  0
VERTEX
  5
119F
330
1178
100
AcDbEntity
  8
SCHRAFFUR_RAND
100
AcDbVertex
100
AcDb2dVertex
 10
314.696379
 20
302.529275
 30
0.0
  0
VERTEX
  5
11A0
330
1178
100
AcDbEntity
  8
SCHRAFFUR_RAND
100
AcDbVertex
100
AcDb2dVertex
 10
317.713379
 20
305.822275
 30
0.0
  0
VERTEX
  5
11A1
330
1178
100
AcDbEntity
  8
SCHRAFFUR_RAND
100
AcDbVertex
100
AcDb2dVertex
 10
321.561379
 20
308.089275
 30
0.0
  0
VERTEX
  5
11A2
330
1178
100
AcDbEntity
  8
SCHRAFFUR_RAND
100
AcDbVertex
100
AcDb2dVertex
 10
325.914379
 20
309.023275
 30
0.0
  0
VERTEX
  5
11A3
330
1178
100
AcDbEntity
  8
SCHRAFFUR_RAND
100
AcDbVertex
100
AcDb2dVertex
 10
358.971379
 20
311.915275
 30
0.0
  0
VERTEX
  5
11A4
330
1178
100
AcDbEntity
  8
SCHRAFFUR_RAND
100
AcDbVertex
100
AcDb2dVertex
 10
360.498379
 20
311.867275
 30
0.0
  0
VERTEX
  5
11A5
330
1178
100
AcDbEntity
  8
SCHRAFFUR_RAND
100
AcDbVertex
100
AcDb2dVertex
 10
361.868379
 20
311.153275
 30
0.0
  0
VERTEX
  5
11A6
330
1178
100
AcDbEntity
  8
SCHRAFFUR_RAND
100
AcDbVertex
100
AcDb2dVertex
 10
362.784379
 20
309.931275
 30
0.0
  0
VERTEX
  5
11A7
330
1178
100
AcDbEntity
  8
SCHRAFFUR_RAND
100
AcDbVertex
100
AcDb2dVertex
 10
364.860379
 20
306.334275
 30
0.0
  0
VERTEX
  5
11A8
330
1178
100
AcDbEntity
  8
SCHRAFFUR_RAND
100
AcDbVertex
100
AcDb2dVertex
 10
366.688379
 20
303.989275
 30
0.0
  0
VERTEX
  5
11A9
330
1178
100
AcDbEntity
  8
SCHRAFFUR_RAND
100
AcDbVertex
100
AcDb2dVertex
 10
369.277379
 20
302.494275
 30
0.0
  0
VERTEX
  5
11AA
330
1178
100
AcDbEntity
  8
SCHRAFFUR_RAND
100
AcDbVertex
100
AcDb2dVertex
 10
372.221379
 20
301.975275
 30
0.0
  0
VERTEX
  5
11AB
330
1178
100
AcDbEntity
  8
SCHRAFFUR_RAND
100
AcDbVertex
100
AcDb2dVertex
 10
375.166379
 20
302.494275
 30
0.0
  0
VERTEX
  5
11AC
330
1178
100
AcDbEntity
  8
SCHRAFFUR_RAND
100
AcDbVertex
100
AcDb2dVertex
 10
377.755379
 20
303.989275
 30
0.0
  0
VERTEX
  5
11AD
330
1178
100
AcDbEntity
  8
SCHRAFFUR_RAND
100
AcDbVertex
100
AcDb2dVertex
 10
379.583379
 20
306.334275
 30
0.0
  0
VERTEX
  5
11AE
330
1178
100
AcDbEntity
  8
SCHRAFFUR_RAND
100
AcDbVertex
100
AcDb2dVertex
 10
381.659379
 20
309.930275
 30
0.0
  0
VERTEX
  5
11AF
330
1178
100
AcDbEntity
  8
SCHRAFFUR_RAND
100
AcDbVertex
100
AcDb2dVertex
 10
382.575379
 20
311.153275
 30
0.0
  0
VERTEX
  5
11B0
330
1178
100
AcDbEntity
  8
SCHRAFFUR_RAND
100
AcDbVertex
100
AcDb2dVertex
 10
383.945379
 20
311.866275
 30
0.0
  0
VERTEX
  5
11B1
330
1178
100
AcDbEntity
  8
SCHRAFFUR_RAND
100
AcDbVertex
100
AcDb2dVertex
 10
385.472379
 20
311.915275
 30
0.0
  0
VERTEX
  5
11B2
330
1178
100
AcDbEntity
  8
SCHRAFFUR_RAND
100
AcDbVertex
100
AcDb2dVertex
 10
418.529379
 20
309.023275
 30
0.0
  0
VERTEX
  5
11B3
330
1178
100
AcDbEntity
  8
SCHRAFFUR_RAND
100
AcDbVertex
100
AcDb2dVertex
 10
422.881379
 20
308.089275
 30
0.0
  0
VERTEX
  5
11B4
330
1178
100
AcDbEntity
  8
SCHRAFFUR_RAND
100
AcDbVertex
100
AcDb2dVertex
 10
426.730379
 20
305.822275
 30
0.0
  0
VERTEX
  5
11B5
330
1178
100
AcDbEntity
  8
SCHRAFFUR_RAND
100
AcDbVertex
100
AcDb2dVertex
 10
429.747379
 20
302.529275
 30
0.0
  0
VERTEX
  5
11B6
330
1178
100
AcDbEntity
  8
SCHRAFFUR_RAND
100
AcDbVertex
100
AcDb2dVertex
 10
431.670379
 20
298.498275
 30
0.0
  0
VERTEX
  5
11B7
330
1178
100
AcDbEntity
  8
SCHRAFFUR_RAND
100
AcDbVertex
100
AcDb2dVertex
 10
432.221379
 20
294.0802749999999
 30
0.0
  0
VERTEX
  5
11B8
330
1178
100
AcDbEntity
  8
SCHRAFFUR_RAND
100
AcDbVertex
100
AcDb2dVertex
 10
432.221379
 20
231.584275
 30
0.0
  0
VERTEX
  5
11B9
330
1178
100
AcDbEntity
  8
SCHRAFFUR_RAND
100
AcDbVertex
100
AcDb2dVertex
 10
432.514379
 20
230.877275
 30
0.0
  0
VERTEX
  5
11BA
330
1178
100
AcDbEntity
  8
SCHRAFFUR_RAND
100
AcDbVertex
100
AcDb2dVertex
 10
433.2213789999999
 20
230.584275
 30
0.0
  0
SEQEND
  5
11BB
330
1178
100
AcDbEntity
  8
SCHRAFFUR_RAND
  0
INSERT
  5
11F7
330
1585
100
AcDbEntity
  8
8
100
AcDbBlockReference
  2
*X0
 10
-149.015621
 20
-843.3197249999999
 30
0.0
1001
ACAD
1000
HATCH
1002
{
1070
    19
1000
ANSI31,_I
1040
3.174999999999999
1040
0.0
1002
}
  0
POLYLINE
  5
11F8
330
1585
100
AcDbEntity
  8
SCHRAFFUR_RAND
100
AcDb2dPolyline
 66
     1
 10
0.0
 20
0.0
 30
0.0
 70
     1
  0
VERTEX
  5
11F9
330
11F8
100
AcDbEntity
  8
SCHRAFFUR_RAND
100
AcDbVertex
100
AcDb2dVertex
 10
347.221379
 20
230.584275
 30
0.0
  0
VERTEX
  5
11FA
330
11F8
100
AcDbEntity
  8
SCHRAFFUR_RAND
100
AcDbVertex
100
AcDb2dVertex
 10
346.393379
 20
227.986275
 30
0.0
  0
VERTEX
  5
11FB
330
11F8
100
AcDbEntity
  8
SCHRAFFUR_RAND
100
AcDbVertex
100
AcDb2dVertex
 10
344.076379
 20
223.650275
 30
0.0
  0
VERTEX
  5
11FC
330
11F8
100
AcDbEntity
  8
SCHRAFFUR_RAND
100
AcDbVertex
100
AcDb2dVertex
 10
340.956379
 20
219.849275
 30
0.0
  0
VERTEX
  5
11FD
330
11F8
100
AcDbEntity
  8
SCHRAFFUR_RAND
100
AcDbVertex
100
AcDb2dVertex
 10
337.156379
 20
216.730275
 30
0.0
  0
VERTEX
  5
11FE
330
11F8
100
AcDbEntity
  8
SCHRAFFUR_RAND
100
AcDbVertex
100
AcDb2dVertex
 10
332.819379
 20
214.412275
 30
0.0
  0
VERTEX
  5
11FF
330
11F8
100
AcDbEntity
  8
SCHRAFFUR_RAND
100
AcDbVertex
100
AcDb2dVertex
 10
328.115379
 20
212.985275
 30
0.0
  0
VERTEX
  5
1200
330
11F8
100
AcDbEntity
  8
SCHRAFFUR_RAND
100
AcDbVertex
100
AcDb2dVertex
 10
323.221379
 20
212.584275
 30
0.0
  0
VERTEX
  5
1201
330
11F8
100
AcDbEntity
  8
SCHRAFFUR_RAND
100
AcDbVertex
100
AcDb2dVertex
 10
323.221379
 20
210.584275
 30
0.0
  0
VERTEX
  5
1202
330
11F8
100
AcDbEntity
  8
SCHRAFFUR_RAND
100
AcDbVertex
100
AcDb2dVertex
 10
311.222379
 20
210.584275
 30
0.0
  0
VERTEX
  5
1203
330
11F8
100
AcDbEntity
  8
SCHRAFFUR_RAND
100
AcDbVertex
100
AcDb2dVertex
 10
312.025379
 20
207.584275
 30
0.0
  0
VERTEX
  5
1204
330
11F8
100
AcDbEntity
  8
SCHRAFFUR_RAND
100
AcDbVertex
100
AcDb2dVertex
 10
325.221379
 20
207.584275
 30
0.0
  0
VERTEX
  5
1205
330
11F8
100
AcDbEntity
  8
SCHRAFFUR_RAND
100
AcDbVertex
100
AcDb2dVertex
 10
326.783379
 20
207.354275
 30
0.0
  0
VERTEX
  5
1206
330
11F8
100
AcDbEntity
  8
SCHRAFFUR_RAND
100
AcDbVertex
100
AcDb2dVertex
 10
328.107379
 20
206.470275
 30
0.0
  0
VERTEX
  5
1207
330
11F8
100
AcDbEntity
  8
SCHRAFFUR_RAND
100
AcDbVertex
100
AcDb2dVertex
 10
328.992379
 20
205.145275
 30
0.0
  0
VERTEX
  5
1208
330
11F8
100
AcDbEntity
  8
SCHRAFFUR_RAND
100
AcDbVertex
100
AcDb2dVertex
 10
329.221379
 20
203.584275
 30
0.0
  0
VERTEX
  5
1209
330
11F8
100
AcDbEntity
  8
SCHRAFFUR_RAND
100
AcDbVertex
100
AcDb2dVertex
 10
328.890379
 20
202.043275
 30
0.0
  0
VERTEX
  5
120A
330
11F8
100
AcDbEntity
  8
SCHRAFFUR_RAND
100
AcDbVertex
100
AcDb2dVertex
 10
327.762379
 20
200.915275
 30
0.0
  0
VERTEX
  5
120B
330
11F8
100
AcDbEntity
  8
SCHRAFFUR_RAND
100
AcDbVertex
100
AcDb2dVertex
 10
326.222379
 20
200.584275
 30
0.0
  0
VERTEX
  5
120C
330
11F8
100
AcDbEntity
  8
SCHRAFFUR_RAND
100
AcDbVertex
100
AcDb2dVertex
 10
325.221379
 20
200.584275
 30
0.0
  0
VERTEX
  5
120D
330
11F8
100
AcDbEntity
  8
SCHRAFFUR_RAND
100
AcDbVertex
100
AcDb2dVertex
 10
324.431379
 20
200.453275
 30
0.0
  0
VERTEX
  5
120E
330
11F8
100
AcDbEntity
  8
SCHRAFFUR_RAND
100
AcDbVertex
100
AcDb2dVertex
 10
323.852379
 20
199.874275
 30
0.0
  0
VERTEX
  5
120F
330
11F8
100
AcDbEntity
  8
SCHRAFFUR_RAND
100
AcDbVertex
100
AcDb2dVertex
 10
323.721379
 20
199.084275
 30
0.0
  0
VERTEX
  5
1210
330
11F8
100
AcDbEntity
  8
SCHRAFFUR_RAND
100
AcDbVertex
100
AcDb2dVertex
 10
323.852379
 20
198.293275
 30
0.0
  0
VERTEX
  5
1211
330
11F8
100
AcDbEntity
  8
SCHRAFFUR_RAND
100
AcDbVertex
100
AcDb2dVertex
 10
324.431379
 20
197.715275
 30
0.0
  0
VERTEX
  5
1212
330
11F8
100
AcDbEntity
  8
SCHRAFFUR_RAND
100
AcDbVertex
100
AcDb2dVertex
 10
325.221379
 20
197.584275
 30
0.0
  0
VERTEX
  5
1213
330
11F8
100
AcDbEntity
  8
SCHRAFFUR_RAND
100
AcDbVertex
100
AcDb2dVertex
 10
326.222379
 20
197.584275
 30
0.0
  0
VERTEX
  5
1214
330
11F8
100
AcDbEntity
  8
SCHRAFFUR_RAND
100
AcDbVertex
100
AcDb2dVertex
 10
327.762379
 20
197.252275
 30
0.0
  0
VERTEX
  5
1215
330
11F8
100
AcDbEntity
  8
SCHRAFFUR_RAND
100
AcDbVertex
100
AcDb2dVertex
 10
328.890379
 20
196.124275
 30
0.0
  0
VERTEX
  5
1216
330
11F8
100
AcDbEntity
  8
SCHRAFFUR_RAND
100
AcDbVertex
100
AcDb2dVertex
 10
329.221379
 20
194.584275
 30
0.0
  0
VERTEX
  5
1217
330
11F8
100
AcDbEntity
  8
SCHRAFFUR_RAND
100
AcDbVertex
100
AcDb2dVertex
 10
329.221379
 20
192.875275
 30
0.0
  0
VERTEX
  5
1218
330
11F8
100
AcDbEntity
  8
SCHRAFFUR_RAND
100
AcDbVertex
100
AcDb2dVertex
 10
328.963379
 20
191.461275
 30
0.0
  0
VERTEX
  5
1219
330
11F8
100
AcDbEntity
  8
SCHRAFFUR_RAND
100
AcDbVertex
100
AcDb2dVertex
 10
328.221379
 20
190.229275
 30
0.0
  0
VERTEX
  5
121A
330
11F8
100
AcDbEntity
  8
SCHRAFFUR_RAND
100
AcDbVertex
100
AcDb2dVertex
 10
327.480379
 20
188.998275
 30
0.0
  0
VERTEX
  5
121B
330
11F8
100
AcDbEntity
  8
SCHRAFFUR_RAND
100
AcDbVertex
100
AcDb2dVertex
 10
327.221379
 20
187.584275
 30
0.0
  0
VERTEX
  5
121C
330
11F8
100
AcDbEntity
  8
SCHRAFFUR_RAND
100
AcDbVertex
100
AcDb2dVertex
 10
327.221379
 20
183.241275
 30
0.0
  0
VERTEX
  5
121D
330
11F8
100
AcDbEntity
  8
SCHRAFFUR_RAND
100
AcDbVertex
100
AcDb2dVertex
 10
327.450379
 20
181.907275
 30
0.0
  0
VERTEX
  5
121E
330
11F8
100
AcDbEntity
  8
SCHRAFFUR_RAND
100
AcDbVertex
100
AcDb2dVertex
 10
328.110379
 20
180.727275
 30
0.0
  0
VERTEX
  5
121F
330
11F8
100
AcDbEntity
  8
SCHRAFFUR_RAND
100
AcDbVertex
100
AcDb2dVertex
 10
328.721379
 20
179.945275
 30
0.0
  0
VERTEX
  5
1220
330
11F8
100
AcDbEntity
  8
SCHRAFFUR_RAND
100
AcDbVertex
100
AcDb2dVertex
 10
329.221379
 20
177.584275
 30
0.0
  0
VERTEX
  5
1221
330
11F8
100
AcDbEntity
  8
SCHRAFFUR_RAND
100
AcDbVertex
100
AcDb2dVertex
 10
328.720379
 20
175.222275
 30
0.0
  0
VERTEX
  5
1222
330
11F8
100
AcDbEntity
  8
SCHRAFFUR_RAND
100
AcDbVertex
100
AcDb2dVertex
 10
327.108379
 20
173.402275
 30
0.0
  0
VERTEX
  5
1223
330
11F8
100
AcDbEntity
  8
SCHRAFFUR_RAND
100
AcDbVertex
100
AcDb2dVertex
 10
324.721379
 20
172.584275
 30
0.0
  0
VERTEX
  5
1224
330
11F8
100
AcDbEntity
  8
SCHRAFFUR_RAND
100
AcDbVertex
100
AcDb2dVertex
 10
324.721379
 20
169.584275
 30
0.0
  0
VERTEX
  5
1225
330
11F8
100
AcDbEntity
  8
SCHRAFFUR_RAND
100
AcDbVertex
100
AcDb2dVertex
 10
332.221379
 20
169.584275
 30
0.0
  0
VERTEX
  5
1226
330
11F8
100
AcDbEntity
  8
SCHRAFFUR_RAND
100
AcDbVertex
100
AcDb2dVertex
 10
332.221379
 20
205.254275
 30
0.0
  0
VERTEX
  5
1227
330
11F8
100
AcDbEntity
  8
SCHRAFFUR_RAND
100
AcDbVertex
100
AcDb2dVertex
 10
332.479379
 20
207.844275
 30
0.0
  0
VERTEX
  5
1228
330
11F8
100
AcDbEntity
  8
SCHRAFFUR_RAND
100
AcDbVertex
100
AcDb2dVertex
 10
333.472379
 20
210.260275
 30
0.0
  0
VERTEX
  5
1229
330
11F8
100
AcDbEntity
  8
SCHRAFFUR_RAND
100
AcDbVertex
100
AcDb2dVertex
 10
335.052379
 20
212.341275
 30
0.0
  0
VERTEX
  5
122A
330
11F8
100
AcDbEntity
  8
SCHRAFFUR_RAND
100
AcDbVertex
100
AcDb2dVertex
 10
337.155379
 20
213.875275
 30
0.0
  0
VERTEX
  5
122B
330
11F8
100
AcDbEntity
  8
SCHRAFFUR_RAND
100
AcDbVertex
100
AcDb2dVertex
 10
341.020379
 20
216.515275
 30
0.0
  0
VERTEX
  5
122C
330
11F8
100
AcDbEntity
  8
SCHRAFFUR_RAND
100
AcDbVertex
100
AcDb2dVertex
 10
344.331379
 20
219.832275
 30
0.0
  0
VERTEX
  5
122D
330
11F8
100
AcDbEntity
  8
SCHRAFFUR_RAND
100
AcDbVertex
100
AcDb2dVertex
 10
347.031379
 20
223.663275
 30
0.0
  0
VERTEX
  5
122E
330
11F8
100
AcDbEntity
  8
SCHRAFFUR_RAND
100
AcDbVertex
100
AcDb2dVertex
 10
348.969379
 20
227.924275
 30
0.0
  0
VERTEX
  5
122F
330
11F8
100
AcDbEntity
  8
SCHRAFFUR_RAND
100
AcDbVertex
100
AcDb2dVertex
 10
350.721379
 20
227.924275
 30
0.0
  0
VERTEX
  5
1230
330
11F8
100
AcDbEntity
  8
SCHRAFFUR_RAND
100
AcDbVertex
100
AcDb2dVertex
 10
350.651379
 20
238.027275
 30
0.0
  0
VERTEX
  5
1231
330
11F8
100
AcDbEntity
  8
SCHRAFFUR_RAND
100
AcDbVertex
100
AcDb2dVertex
 10
350.721379
 20
290.584275
 30
0.0
  0
VERTEX
  5
1232
330
11F8
100
AcDbEntity
  8
SCHRAFFUR_RAND
100
AcDbVertex
100
AcDb2dVertex
 10
348.221379
 20
290.584275
 30
0.0
  0
VERTEX
  5
1233
330
11F8
100
AcDbEntity
  8
SCHRAFFUR_RAND
100
AcDbVertex
100
AcDb2dVertex
 10
348.221379
 20
237.584275
 30
0.0
  0
VERTEX
  5
1234
330
11F8
100
AcDbEntity
  8
SCHRAFFUR_RAND
100
AcDbVertex
100
AcDb2dVertex
 10
347.821379
 20
232.691275
 30
0.0
  0
VERTEX
  5
1235
330
11F8
100
AcDbEntity
  8
SCHRAFFUR_RAND
100
AcDbVertex
100
AcDb2dVertex
 10
347.221379
 20
230.584275
 30
0.0
  0
SEQEND
  5
1236
330
11F8
100
AcDbEntity
  8
SCHRAFFUR_RAND
  0
INSERT
  5
125E
330
1585
100
AcDbEntity
  8
8
100
AcDbBlockReference
  2
*X1
 10
-149.015621
 20
-843.3197249999999
 30
0.0
1001
ACAD
1000
HATCH
1002
{
1070
    19
1000
ANSI31,_I
1040
3.174999999999999
1040
0.0
1002
}
  0
POLYLINE
  5
125F
330
1585
100
AcDbEntity
  8
SCHRAFFUR_RAND
100
AcDb2dPolyline
 66
     1
 10
0.0
 20
0.0
 30
0.0
 70
     1
  0
VERTEX
  5
1260
330
125F
100
AcDbEntity
  8
SCHRAFFUR_RAND
100
AcDbVertex
100
AcDb2dVertex
 10
412.2213789999999
 20
169.584275
 30
0.0
  0
VERTEX
  5
1261
330
125F
100
AcDbEntity
  8
SCHRAFFUR_RAND
100
AcDbVertex
100
AcDb2dVertex
 10
419.721379
 20
169.584275
 30
0.0
  0
VERTEX
  5
1262
330
125F
100
AcDbEntity
  8
SCHRAFFUR_RAND
100
AcDbVertex
100
AcDb2dVertex
 10
419.721379
 20
172.584275
 30
0.0
  0
VERTEX
  5
1263
330
125F
100
AcDbEntity
  8
SCHRAFFUR_RAND
100
AcDbVertex
100
AcDb2dVertex
 10
419.092379
 20
172.636275
 30
0.0
  0
VERTEX
  5
1264
330
125F
100
AcDbEntity
  8
SCHRAFFUR_RAND
100
AcDbVertex
100
AcDb2dVertex
 10
417.057379
 20
173.616275
 30
0.0
  0
VERTEX
  5
1265
330
125F
100
AcDbEntity
  8
SCHRAFFUR_RAND
100
AcDbVertex
100
AcDb2dVertex
 10
415.6493789999999
 20
175.382275
 30
0.0
  0
VERTEX
  5
1266
330
125F
100
AcDbEntity
  8
SCHRAFFUR_RAND
100
AcDbVertex
100
AcDb2dVertex
 10
415.146379
 20
177.584275
 30
0.0
  0
VERTEX
  5
1267
330
125F
100
AcDbEntity
  8
SCHRAFFUR_RAND
100
AcDbVertex
100
AcDb2dVertex
 10
415.6493789999999
 20
179.786275
 30
0.0
  0
VERTEX
  5
1268
330
125F
100
AcDbEntity
  8
SCHRAFFUR_RAND
100
AcDbVertex
100
AcDb2dVertex
 10
416.333379
 20
180.727275
 30
0.0
  0
VERTEX
  5
1269
330
125F
100
AcDbEntity
  8
SCHRAFFUR_RAND
100
AcDbVertex
100
AcDb2dVertex
 10
416.9933789999999
 20
181.907275
 30
0.0
  0
VERTEX
  5
126A
330
125F
100
AcDbEntity
  8
SCHRAFFUR_RAND
100
AcDbVertex
100
AcDb2dVertex
 10
417.2213789999999
 20
183.241275
 30
0.0
  0
VERTEX
  5
126B
330
125F
100
AcDbEntity
  8
SCHRAFFUR_RAND
100
AcDbVertex
100
AcDb2dVertex
 10
417.2213789999999
 20
187.584275
 30
0.0
  0
VERTEX
  5
126C
330
125F
100
AcDbEntity
  8
SCHRAFFUR_RAND
100
AcDbVertex
100
AcDb2dVertex
 10
416.963379
 20
188.998275
 30
0.0
  0
VERTEX
  5
126D
330
125F
100
AcDbEntity
  8
SCHRAFFUR_RAND
100
AcDbVertex
100
AcDb2dVertex
 10
416.2223789999999
 20
190.229275
 30
0.0
  0
VERTEX
  5
126E
330
125F
100
AcDbEntity
  8
SCHRAFFUR_RAND
100
AcDbVertex
100
AcDb2dVertex
 10
415.480379
 20
191.461275
 30
0.0
  0
VERTEX
  5
126F
330
125F
100
AcDbEntity
  8
SCHRAFFUR_RAND
100
AcDbVertex
100
AcDb2dVertex
 10
415.2223789999999
 20
192.875275
 30
0.0
  0
VERTEX
  5
1270
330
125F
100
AcDbEntity
  8
SCHRAFFUR_RAND
100
AcDbVertex
100
AcDb2dVertex
 10
415.2223789999999
 20
194.584275
 30
0.0
  0
VERTEX
  5
1271
330
125F
100
AcDbEntity
  8
SCHRAFFUR_RAND
100
AcDbVertex
100
AcDb2dVertex
 10
415.5583789999999
 20
196.122275
 30
0.0
  0
VERTEX
  5
1272
330
125F
100
AcDbEntity
  8
SCHRAFFUR_RAND
100
AcDbVertex
100
AcDb2dVertex
 10
416.6843789999999
 20
197.247275
 30
0.0
  0
VERTEX
  5
1273
330
125F
100
AcDbEntity
  8
SCHRAFFUR_RAND
100
AcDbVertex
100
AcDb2dVertex
 10
418.221379
 20
197.584275
 30
0.0
  0
VERTEX
  5
1274
330
125F
100
AcDbEntity
  8
SCHRAFFUR_RAND
100
AcDbVertex
100
AcDb2dVertex
 10
419.221379
 20
197.584275
 30
0.0
  0
VERTEX
  5
1275
330
125F
100
AcDbEntity
  8
SCHRAFFUR_RAND
100
AcDbVertex
100
AcDb2dVertex
 10
420.009379
 20
197.719275
 30
0.0
  0
VERTEX
  5
1276
330
125F
100
AcDbEntity
  8
SCHRAFFUR_RAND
100
AcDbVertex
100
AcDb2dVertex
 10
420.586379
 20
198.296275
 30
0.0
  0
VERTEX
  5
1277
330
125F
100
AcDbEntity
  8
SCHRAFFUR_RAND
100
AcDbVertex
100
AcDb2dVertex
 10
420.7223789999999
 20
199.084275
 30
0.0
  0
VERTEX
  5
1278
330
125F
100
AcDbEntity
  8
SCHRAFFUR_RAND
100
AcDbVertex
100
AcDb2dVertex
 10
420.586379
 20
199.872275
 30
0.0
  0
VERTEX
  5
1279
330
125F
100
AcDbEntity
  8
SCHRAFFUR_RAND
100
AcDbVertex
100
AcDb2dVertex
 10
420.009379
 20
200.448275
 30
0.0
  0
VERTEX
  5
127A
330
125F
100
AcDbEntity
  8
SCHRAFFUR_RAND
100
AcDbVertex
100
AcDb2dVertex
 10
419.221379
 20
200.584275
 30
0.0
  0
VERTEX
  5
127B
330
125F
100
AcDbEntity
  8
SCHRAFFUR_RAND
100
AcDbVertex
100
AcDb2dVertex
 10
418.221379
 20
200.584275
 30
0.0
  0
VERTEX
  5
127C
330
125F
100
AcDbEntity
  8
SCHRAFFUR_RAND
100
AcDbVertex
100
AcDb2dVertex
 10
416.6843789999999
 20
200.921275
 30
0.0
  0
VERTEX
  5
127D
330
125F
100
AcDbEntity
  8
SCHRAFFUR_RAND
100
AcDbVertex
100
AcDb2dVertex
 10
415.5583789999999
 20
202.046275
 30
0.0
  0
VERTEX
  5
127E
330
125F
100
AcDbEntity
  8
SCHRAFFUR_RAND
100
AcDbVertex
100
AcDb2dVertex
 10
415.2223789999999
 20
203.584275
 30
0.0
  0
VERTEX
  5
127F
330
125F
100
AcDbEntity
  8
SCHRAFFUR_RAND
100
AcDbVertex
100
AcDb2dVertex
 10
415.456379
 20
205.143275
 30
0.0
  0
VERTEX
  5
1280
330
125F
100
AcDbEntity
  8
SCHRAFFUR_RAND
100
AcDbVertex
100
AcDb2dVertex
 10
416.340379
 20
206.465275
 30
0.0
  0
VERTEX
  5
1281
330
125F
100
AcDbEntity
  8
SCHRAFFUR_RAND
100
AcDbVertex
100
AcDb2dVertex
 10
417.6623789999999
 20
207.349275
 30
0.0
  0
VERTEX
  5
1282
330
125F
100
AcDbEntity
  8
SCHRAFFUR_RAND
100
AcDbVertex
100
AcDb2dVertex
 10
419.221379
 20
207.584275
 30
0.0
  0
VERTEX
  5
1283
330
125F
100
AcDbEntity
  8
SCHRAFFUR_RAND
100
AcDbVertex
100
AcDb2dVertex
 10
432.4173789999999
 20
207.584275
 30
0.0
  0
VERTEX
  5
1284
330
125F
100
AcDbEntity
  8
SCHRAFFUR_RAND
100
AcDbVertex
100
AcDb2dVertex
 10
433.2213789999999
 20
210.584275
 30
0.0
  0
VERTEX
  5
1285
330
125F
100
AcDbEntity
  8
SCHRAFFUR_RAND
100
AcDbVertex
100
AcDb2dVertex
 10
421.2213789999999
 20
210.584275
 30
0.0
  0
VERTEX
  5
1286
330
125F
100
AcDbEntity
  8
SCHRAFFUR_RAND
100
AcDbVertex
100
AcDb2dVertex
 10
421.2213789999999
 20
212.584275
 30
0.0
  0
VERTEX
  5
1287
330
125F
100
AcDbEntity
  8
SCHRAFFUR_RAND
100
AcDbVertex
100
AcDb2dVertex
 10
416.3303789999999
 20
212.990275
 30
0.0
  0
VERTEX
  5
1288
330
125F
100
AcDbEntity
  8
SCHRAFFUR_RAND
100
AcDbVertex
100
AcDb2dVertex
 10
411.6263789999999
 20
214.418275
 30
0.0
  0
VERTEX
  5
1289
330
125F
100
AcDbEntity
  8
SCHRAFFUR_RAND
100
AcDbVertex
100
AcDb2dVertex
 10
407.290379
 20
216.735275
 30
0.0
  0
VERTEX
  5
128A
330
125F
100
AcDbEntity
  8
SCHRAFFUR_RAND
100
AcDbVertex
100
AcDb2dVertex
 10
403.491379
 20
219.853275
 30
0.0
  0
VERTEX
  5
128B
330
125F
100
AcDbEntity
  8
SCHRAFFUR_RAND
100
AcDbVertex
100
AcDb2dVertex
 10
400.372379
 20
223.653275
 30
0.0
  0
VERTEX
  5
128C
330
125F
100
AcDbEntity
  8
SCHRAFFUR_RAND
100
AcDbVertex
100
AcDb2dVertex
 10
398.055379
 20
227.988275
 30
0.0
  0
VERTEX
  5
128D
330
125F
100
AcDbEntity
  8
SCHRAFFUR_RAND
100
AcDbVertex
100
AcDb2dVertex
 10
397.221379
 20
230.584275
 30
0.0
  0
VERTEX
  5
128E
330
125F
100
AcDbEntity
  8
SCHRAFFUR_RAND
100
AcDbVertex
100
AcDb2dVertex
 10
396.628379
 20
232.692275
 30
0.0
  0
VERTEX
  5
128F
330
125F
100
AcDbEntity
  8
SCHRAFFUR_RAND
100
AcDbVertex
100
AcDb2dVertex
 10
396.221379
 20
237.584275
 30
0.0
  0
VERTEX
  5
1290
330
125F
100
AcDbEntity
  8
SCHRAFFUR_RAND
100
AcDbVertex
100
AcDb2dVertex
 10
396.221379
 20
290.584275
 30
0.0
  0
VERTEX
  5
1291
330
125F
100
AcDbEntity
  8
SCHRAFFUR_RAND
100
AcDbVertex
100
AcDb2dVertex
 10
393.722379
 20
290.584275
 30
0.0
  0
VERTEX
  5
1292
330
125F
100
AcDbEntity
  8
SCHRAFFUR_RAND
100
AcDbVertex
100
AcDb2dVertex
 10
393.722379
 20
238.027275
 30
0.0
  0
VERTEX
  5
1293
330
125F
100
AcDbEntity
  8
SCHRAFFUR_RAND
100
AcDbVertex
100
AcDb2dVertex
 10
393.722379
 20
227.924275
 30
0.0
  0
VERTEX
  5
1294
330
125F
100
AcDbEntity
  8
SCHRAFFUR_RAND
100
AcDbVertex
100
AcDb2dVertex
 10
395.474379
 20
227.924275
 30
0.0
  0
VERTEX
  5
1295
330
125F
100
AcDbEntity
  8
SCHRAFFUR_RAND
100
AcDbVertex
100
AcDb2dVertex
 10
397.417379
 20
223.664275
 30
0.0
  0
VERTEX
  5
1296
330
125F
100
AcDbEntity
  8
SCHRAFFUR_RAND
100
AcDbVertex
100
AcDb2dVertex
 10
400.119379
 20
219.833275
 30
0.0
  0
VERTEX
  5
1297
330
125F
100
AcDbEntity
  8
SCHRAFFUR_RAND
100
AcDbVertex
100
AcDb2dVertex
 10
403.430379
 20
216.515275
 30
0.0
  0
VERTEX
  5
1298
330
125F
100
AcDbEntity
  8
SCHRAFFUR_RAND
100
AcDbVertex
100
AcDb2dVertex
 10
407.294379
 20
213.871275
 30
0.0
  0
VERTEX
  5
1299
330
125F
100
AcDbEntity
  8
SCHRAFFUR_RAND
100
AcDbVertex
100
AcDb2dVertex
 10
409.3873789999999
 20
212.337275
 30
0.0
  0
VERTEX
  5
129A
330
125F
100
AcDbEntity
  8
SCHRAFFUR_RAND
100
AcDbVertex
100
AcDb2dVertex
 10
410.9663789999999
 20
210.258275
 30
0.0
  0
VERTEX
  5
129B
330
125F
100
AcDbEntity
  8
SCHRAFFUR_RAND
100
AcDbVertex
100
AcDb2dVertex
 10
411.959379
 20
207.842275
 30
0.0
  0
VERTEX
  5
129C
330
125F
100
AcDbEntity
  8
SCHRAFFUR_RAND
100
AcDbVertex
100
AcDb2dVertex
 10
412.2213789999999
 20
205.254275
 30
0.0
  0
VERTEX
  5
129D
330
125F
100
AcDbEntity
  8
SCHRAFFUR_RAND
100
AcDbVertex
100
AcDb2dVertex
 10
412.2213789999999
 20
169.584275
 30
0.0
  0
SEQEND
  5
129E
330
125F
100
AcDbEntity
  8
SCHRAFFUR_RAND
  0
INSERT
  5
12C6
330
1585
100
AcDbEntity
  8
8
100
AcDbBlockReference
  2
*X2
 10
-149.015621
 20
-843.3197249999999
 30
0.0
1001
ACAD
1000
HATCH
1002
{
1070
    19
1000
ANSI31,_I
1040
3.174999999999999
1040
0.0
1002
}
  0
POLYLINE
  5
12C7
330
1585
100
AcDbEntity
  8
SCHRAFFUR_RAND
100
AcDb2dPolyline
 66
     1
 10
0.0
 20
0.0
 30
0.0
 70
     1
  0
VERTEX
  5
12C8
330
12C7
100
AcDbEntity
  8
SCHRAFFUR_RAND
100
AcDbVertex
100
AcDb2dVertex
 10
423.101379
 20
193.644275
 30
0.0
  0
VERTEX
  5
12C9
330
12C7
100
AcDbEntity
  8
SCHRAFFUR_RAND
100
AcDbVertex
100
AcDb2dVertex
 10
422.9853789999999
 20
194.669275
 30
0.0
  0
VERTEX
  5
12CA
330
12C7
100
AcDbEntity
  8
SCHRAFFUR_RAND
100
AcDbVertex
100
AcDb2dVertex
 10
422.5893789999999
 20
195.623275
 30
0.0
  0
VERTEX
  5
12CB
330
12C7
100
AcDbEntity
  8
SCHRAFFUR_RAND
100
AcDbVertex
100
AcDb2dVertex
 10
421.9603789999999
 20
196.443275
 30
0.0
  0
VERTEX
  5
12CC
330
12C7
100
AcDbEntity
  8
SCHRAFFUR_RAND
100
AcDbVertex
100
AcDb2dVertex
 10
421.140379
 20
197.072275
 30
0.0
  0
VERTEX
  5
12CD
330
12C7
100
AcDbEntity
  8
SCHRAFFUR_RAND
100
AcDbVertex
100
AcDb2dVertex
 10
420.1863789999999
 20
197.467275
 30
0.0
  0
VERTEX
  5
12CE
330
12C7
100
AcDbEntity
  8
SCHRAFFUR_RAND
100
AcDbVertex
100
AcDb2dVertex
 10
419.221379
 20
197.584275
 30
0.0
  0
VERTEX
  5
12CF
330
12C7
100
AcDbEntity
  8
SCHRAFFUR_RAND
100
AcDbVertex
100
AcDb2dVertex
 10
419.1613789999999
 20
197.602275
 30
0.0
  0
VERTEX
  5
12D0
330
12C7
100
AcDbEntity
  8
SCHRAFFUR_RAND
100
AcDbVertex
100
AcDb2dVertex
 10
418.137379
 20
197.467275
 30
0.0
  0
VERTEX
  5
12D1
330
12C7
100
AcDbEntity
  8
SCHRAFFUR_RAND
100
AcDbVertex
100
AcDb2dVertex
 10
417.182379
 20
197.072275
 30
0.0
  0
VERTEX
  5
12D2
330
12C7
100
AcDbEntity
  8
SCHRAFFUR_RAND
100
AcDbVertex
100
AcDb2dVertex
 10
416.3623789999999
 20
196.443275
 30
0.0
  0
VERTEX
  5
12D3
330
12C7
100
AcDbEntity
  8
SCHRAFFUR_RAND
100
AcDbVertex
100
AcDb2dVertex
 10
415.7343789999999
 20
195.623275
 30
0.0
  0
VERTEX
  5
12D4
330
12C7
100
AcDbEntity
  8
SCHRAFFUR_RAND
100
AcDbVertex
100
AcDb2dVertex
 10
415.338379
 20
194.669275
 30
0.0
  0
VERTEX
  5
12D5
330
12C7
100
AcDbEntity
  8
SCHRAFFUR_RAND
100
AcDbVertex
100
AcDb2dVertex
 10
415.2033789999999
 20
193.644275
 30
0.0
  0
VERTEX
  5
12D6
330
12C7
100
AcDbEntity
  8
SCHRAFFUR_RAND
100
AcDbVertex
100
AcDb2dVertex
 10
415.338379
 20
192.620275
 30
0.0
  0
VERTEX
  5
12D7
330
12C7
100
AcDbEntity
  8
SCHRAFFUR_RAND
100
AcDbVertex
100
AcDb2dVertex
 10
415.7343789999999
 20
191.665275
 30
0.0
  0
VERTEX
  5
12D8
330
12C7
100
AcDbEntity
  8
SCHRAFFUR_RAND
100
AcDbVertex
100
AcDb2dVertex
 10
416.3623789999999
 20
190.845275
 30
0.0
  0
VERTEX
  5
12D9
330
12C7
100
AcDbEntity
  8
SCHRAFFUR_RAND
100
AcDbVertex
100
AcDb2dVertex
 10
417.182379
 20
190.216275
 30
0.0
  0
VERTEX
  5
12DA
330
12C7
100
AcDbEntity
  8
SCHRAFFUR_RAND
100
AcDbVertex
100
AcDb2dVertex
 10
418.137379
 20
189.821275
 30
0.0
  0
VERTEX
  5
12DB
330
12C7
100
AcDbEntity
  8
SCHRAFFUR_RAND
100
AcDbVertex
100
AcDb2dVertex
 10
419.1613789999999
 20
189.686275
 30
0.0
  0
VERTEX
  5
12DC
330
12C7
100
AcDbEntity
  8
SCHRAFFUR_RAND
100
AcDbVertex
100
AcDb2dVertex
 10
420.1863789999999
 20
189.821275
 30
0.0
  0
VERTEX
  5
12DD
330
12C7
100
AcDbEntity
  8
SCHRAFFUR_RAND
100
AcDbVertex
100
AcDb2dVertex
 10
421.140379
 20
190.216275
 30
0.0
  0
VERTEX
  5
12DE
330
12C7
100
AcDbEntity
  8
SCHRAFFUR_RAND
100
AcDbVertex
100
AcDb2dVertex
 10
421.9603789999999
 20
190.845275
 30
0.0
  0
VERTEX
  5
12DF
330
12C7
100
AcDbEntity
  8
SCHRAFFUR_RAND
100
AcDbVertex
100
AcDb2dVertex
 10
422.5893789999999
 20
191.665275
 30
0.0
  0
VERTEX
  5
12E0
330
12C7
100
AcDbEntity
  8
SCHRAFFUR_RAND
100
AcDbVertex
100
AcDb2dVertex
 10
422.9853789999999
 20
192.620275
 30
0.0
  0
VERTEX
  5
12E1
330
12C7
100
AcDbEntity
  8
SCHRAFFUR_RAND
100
AcDbVertex
100
AcDb2dVertex
 10
423.101379
 20
193.644275
 30
0.0
  0
SEQEND
  5
12E2
330
12C7
100
AcDbEntity
  8
SCHRAFFUR_RAND
  0
INSERT
  5
12E9
330
1585
100
AcDbEntity
  8
8
100
AcDbBlockReference
  2
*X3
 10
-149.015621
 20
-843.3197249999999
 30
0.0
1001
ACAD
1000
HATCH
1002
{
1070
    19
1000
ANSI37,_I
1040
3.174999999999999
1040
3.926999999999999
1002
}
  0
POLYLINE
  5
12EA
330
1585
100
AcDbEntity
  8
SCHRAFFUR_RAND
100
AcDb2dPolyline
 66
     1
 10
0.0
 20
0.0
 30
0.0
 70
     1
  0
VERTEX
  5
12EB
330
12EA
100
AcDbEntity
  8
SCHRAFFUR_RAND
100
AcDbVertex
100
AcDb2dVertex
 10
321.323379
 20
193.644275
 30
0.0
  0
VERTEX
  5
12EC
330
12EA
100
AcDbEntity
  8
SCHRAFFUR_RAND
100
AcDbVertex
100
AcDb2dVertex
 10
321.458379
 20
192.619275
 30
0.0
  0
VERTEX
  5
12ED
330
12EA
100
AcDbEntity
  8
SCHRAFFUR_RAND
100
AcDbVertex
100
AcDb2dVertex
 10
321.854379
 20
191.665275
 30
0.0
  0
VERTEX
  5
12EE
330
12EA
100
AcDbEntity
  8
SCHRAFFUR_RAND
100
AcDbVertex
100
AcDb2dVertex
 10
322.483379
 20
190.845275
 30
0.0
  0
VERTEX
  5
12EF
330
12EA
100
AcDbEntity
  8
SCHRAFFUR_RAND
100
AcDbVertex
100
AcDb2dVertex
 10
323.303379
 20
190.216275
 30
0.0
  0
VERTEX
  5
12F0
330
12EA
100
AcDbEntity
  8
SCHRAFFUR_RAND
100
AcDbVertex
100
AcDb2dVertex
 10
324.257379
 20
189.821275
 30
0.0
  0
VERTEX
  5
12F1
330
12EA
100
AcDbEntity
  8
SCHRAFFUR_RAND
100
AcDbVertex
100
AcDb2dVertex
 10
325.281379
 20
189.686275
 30
0.0
  0
VERTEX
  5
12F2
330
12EA
100
AcDbEntity
  8
SCHRAFFUR_RAND
100
AcDbVertex
100
AcDb2dVertex
 10
326.306379
 20
189.821275
 30
0.0
  0
VERTEX
  5
12F3
330
12EA
100
AcDbEntity
  8
SCHRAFFUR_RAND
100
AcDbVertex
100
AcDb2dVertex
 10
327.261379
 20
190.216275
 30
0.0
  0
VERTEX
  5
12F4
330
12EA
100
AcDbEntity
  8
SCHRAFFUR_RAND
100
AcDbVertex
100
AcDb2dVertex
 10
328.080379
 20
190.845275
 30
0.0
  0
VERTEX
  5
12F5
330
12EA
100
AcDbEntity
  8
SCHRAFFUR_RAND
100
AcDbVertex
100
AcDb2dVertex
 10
328.709379
 20
191.665275
 30
0.0
  0
VERTEX
  5
12F6
330
12EA
100
AcDbEntity
  8
SCHRAFFUR_RAND
100
AcDbVertex
100
AcDb2dVertex
 10
329.105379
 20
192.619275
 30
0.0
  0
VERTEX
  5
12F7
330
12EA
100
AcDbEntity
  8
SCHRAFFUR_RAND
100
AcDbVertex
100
AcDb2dVertex
 10
329.221379
 20
193.644275
 30
0.0
  0
VERTEX
  5
12F8
330
12EA
100
AcDbEntity
  8
SCHRAFFUR_RAND
100
AcDbVertex
100
AcDb2dVertex
 10
329.105379
 20
194.668275
 30
0.0
  0
VERTEX
  5
12F9
330
12EA
100
AcDbEntity
  8
SCHRAFFUR_RAND
100
AcDbVertex
100
AcDb2dVertex
 10
328.709379
 20
195.623275
 30
0.0
  0
VERTEX
  5
12FA
330
12EA
100
AcDbEntity
  8
SCHRAFFUR_RAND
100
AcDbVertex
100
AcDb2dVertex
 10
328.080379
 20
196.443275
 30
0.0
  0
VERTEX
  5
12FB
330
12EA
100
AcDbEntity
  8
SCHRAFFUR_RAND
100
AcDbVertex
100
AcDb2dVertex
 10
327.261379
 20
197.072275
 30
0.0
  0
VERTEX
  5
12FC
330
12EA
100
AcDbEntity
  8
SCHRAFFUR_RAND
100
AcDbVertex
100
AcDb2dVertex
 10
326.306379
 20
197.467275
 30
0.0
  0
VERTEX
  5
12FD
330
12EA
100
AcDbEntity
  8
SCHRAFFUR_RAND
100
AcDbVertex
100
AcDb2dVertex
 10
325.281379
 20
197.602275
 30
0.0
  0
VERTEX
  5
12FE
330
12EA
100
AcDbEntity
  8
SCHRAFFUR_RAND
100
AcDbVertex
100
AcDb2dVertex
 10
325.221379
 20
197.584275
 30
0.0
  0
VERTEX
  5
12FF
330
12EA
100
AcDbEntity
  8
SCHRAFFUR_RAND
100
AcDbVertex
100
AcDb2dVertex
 10
324.257379
 20
197.467275
 30
0.0
  0
VERTEX
  5
1300
330
12EA
100
AcDbEntity
  8
SCHRAFFUR_RAND
100
AcDbVertex
100
AcDb2dVertex
 10
323.303379
 20
197.072275
 30
0.0
  0
VERTEX
  5
1301
330
12EA
100
AcDbEntity
  8
SCHRAFFUR_RAND
100
AcDbVertex
100
AcDb2dVertex
 10
322.483379
 20
196.443275
 30
0.0
  0
VERTEX
  5
1302
330
12EA
100
AcDbEntity
  8
SCHRAFFUR_RAND
100
AcDbVertex
100
AcDb2dVertex
 10
321.854379
 20
195.623275
 30
0.0
  0
VERTEX
  5
1303
330
12EA
100
AcDbEntity
  8
SCHRAFFUR_RAND
100
AcDbVertex
100
AcDb2dVertex
 10
321.458379
 20
194.668275
 30
0.0
  0
VERTEX
  5
1304
330
12EA
100
AcDbEntity
  8
SCHRAFFUR_RAND
100
AcDbVertex
100
AcDb2dVertex
 10
321.323379
 20
193.644275
 30
0.0
  0
SEQEND
  5
1305
330
12EA
100
AcDbEntity
  8
SCHRAFFUR_RAND
  0
INSERT
  5
130C
330
1585
100
AcDbEntity
  8
8
100
AcDbBlockReference
  2
*X4
 10
-149.015621
 20
-843.3197249999999
 30
0.0
1001
ACAD
1000
HATCH
1002
{
1070
    19
1000
ANSI37,_I
1040
3.174999999999999
1040
3.926999999999999
1002
}
  0
DIMENSION
  5
1315
330
1585
100
AcDbEntity
  8
5
100
AcDbDimension
  2
*D17
 10
526.760379
 20
122.584275
 30
0.0
 11
526.760379
 21
167.668275
 31
0.0
 12
-149.015621
 22
-843.3197249999999
 32
0.0
 70
   160
  1
 85 
 71
     5
 42
-1.0
  3
GEN-ISO
100
AcDbAlignedDimension
 13
444.102379
 23
207.584275
 33
0.0
 14
526.760379
 24
122.584275
 34
0.0
 50
270.0
100
AcDbRotatedDimension
1001
ACAD
1000
DSTYLE
1002
{
1070
    78
1070
    12
1002
}
  0
DIMENSION
  5
131F
330
1585
100
AcDbEntity
  8
5
100
AcDbDimension
  2
*D16
 10
526.760379
 20
290.584275
 30
0.0
 11
526.760379
 21
267.107275
 31
0.0
 12
-149.015621
 22
-843.3197249999999
 32
0.0
 70
   160
  1
 60 
 71
     5
 42
-1.0
  3
GEN-ISO
100
AcDbAlignedDimension
 13
434.721379
 23
230.584275
 33
0.0
 14
396.221379
 24
290.584275
 34
0.0
 50
90.0
100
AcDbRotatedDimension
1001
ACAD
1000
DSTYLE
1002
{
1070
    78
1070
    12
1002
}
  0
DIMENSION
  5
1334
330
1585
100
AcDbEntity
  8
5
100
AcDbDimension
  2
*D14
 10
486.2223789999999
 20
409.588275
 30
0.0
 11
373.693379
 21
409.588275
 31
0.0
 12
-149.015621
 22
-843.3197249999999
 32
0.0
 70
   160
  1
%%c  228 
 71
     5
 42
-1.0
  3
GEN-ISO
100
AcDbAlignedDimension
 13
258.220379
 23
347.583275
 33
0.0
 14
486.2223789999999
 24
347.583275
 34
0.0
100
AcDbRotatedDimension
1001
ACAD
1000
DSTYLE
1002
{
1070
    78
1070
    12
1002
}
  0
DIMENSION
  5
133E
330
1585
100
AcDbEntity
  8
5
100
AcDbDimension
  2
*D20
 10
623.794379
 20
334.584275
 30
0.0
 11
623.794379
 21
299.584275
 31
0.0
 12
-149.015621
 22
-843.3197249999999
 32
0.0
 70
   160
  1
 8 
 71
     5
 42
-1.0
  3
GEN-ISO
100
AcDbAlignedDimension
 13
623.794379
 23
342.583275
 33
0.0
 14
587.2203789999999
 24
334.584275
 34
0.0
 50
270.0
100
AcDbRotatedDimension
1001
ACAD
1000
DSTYLE
1002
{
1070
    78
1070
    12
1002
}
  0
POLYLINE
  5
133F
330
1585
100
AcDbEntity
  8
SCHRAFFUR_RAND
100
AcDb2dPolyline
 66
     1
 10
0.0
 20
0.0
 30
0.0
 70
     1
  0
VERTEX
  5
1340
330
133F
100
AcDbEntity
  8
SCHRAFFUR_RAND
100
AcDbVertex
100
AcDb2dVertex
 10
157.222379
 20
275.583275
 30
0.0
  0
VERTEX
  5
1341
330
133F
100
AcDbEntity
  8
SCHRAFFUR_RAND
100
AcDbVertex
100
AcDb2dVertex
 10
157.222379
 20
274.084275
 30
0.0
  0
VERTEX
  5
1342
330
133F
100
AcDbEntity
  8
SCHRAFFUR_RAND
100
AcDbVertex
100
AcDb2dVertex
 10
157.625379
 20
272.007275
 30
0.0
  0
VERTEX
  5
1343
330
133F
100
AcDbEntity
  8
SCHRAFFUR_RAND
100
AcDbVertex
100
AcDb2dVertex
 10
159.145379
 20
270.487275
 30
0.0
  0
VERTEX
  5
1344
330
133F
100
AcDbEntity
  8
SCHRAFFUR_RAND
100
AcDbVertex
100
AcDb2dVertex
 10
161.222379
 20
270.084275
 30
0.0
  0
VERTEX
  5
1345
330
133F
100
AcDbEntity
  8
SCHRAFFUR_RAND
100
AcDbVertex
100
AcDb2dVertex
 10
194.784379
 20
270.084275
 30
0.0
  0
VERTEX
  5
1346
330
133F
100
AcDbEntity
  8
SCHRAFFUR_RAND
100
AcDbVertex
100
AcDb2dVertex
 10
257.742379
 20
253.214275
 30
0.0
  0
VERTEX
  5
1347
330
133F
100
AcDbEntity
  8
SCHRAFFUR_RAND
100
AcDbVertex
100
AcDb2dVertex
 10
260.684379
 20
252.069275
 30
0.0
  0
VERTEX
  5
1348
330
133F
100
AcDbEntity
  8
SCHRAFFUR_RAND
100
AcDbVertex
100
AcDb2dVertex
 10
263.044379
 20
249.944275
 30
0.0
  0
VERTEX
  5
1349
330
133F
100
AcDbEntity
  8
SCHRAFFUR_RAND
100
AcDbVertex
100
AcDb2dVertex
 10
264.632379
 20
247.193275
 30
0.0
  0
VERTEX
  5
134A
330
133F
100
AcDbEntity
  8
SCHRAFFUR_RAND
100
AcDbVertex
100
AcDb2dVertex
 10
265.140379
 20
244.078275
 30
0.0
  0
VERTEX
  5
134B
330
133F
100
AcDbEntity
  8
SCHRAFFUR_RAND
100
AcDbVertex
100
AcDb2dVertex
 10
265.315379
 20
240.752275
 30
0.0
  0
VERTEX
  5
134C
330
133F
100
AcDbEntity
  8
SCHRAFFUR_RAND
100
AcDbVertex
100
AcDb2dVertex
 10
266.384379
 20
233.222275
 30
0.0
  0
VERTEX
  5
134D
330
133F
100
AcDbEntity
  8
SCHRAFFUR_RAND
100
AcDbVertex
100
AcDb2dVertex
 10
269.198379
 20
226.139275
 30
0.0
  0
VERTEX
  5
134E
330
133F
100
AcDbEntity
  8
SCHRAFFUR_RAND
100
AcDbVertex
100
AcDb2dVertex
 10
273.473379
 20
219.829275
 30
0.0
  0
VERTEX
  5
134F
330
133F
100
AcDbEntity
  8
SCHRAFFUR_RAND
100
AcDbVertex
100
AcDb2dVertex
 10
279.006379
 20
214.589275
 30
0.0
  0
VERTEX
  5
1350
330
133F
100
AcDbEntity
  8
SCHRAFFUR_RAND
100
AcDbVertex
100
AcDb2dVertex
 10
285.539379
 20
210.665275
 30
0.0
  0
VERTEX
  5
1351
330
133F
100
AcDbEntity
  8
SCHRAFFUR_RAND
100
AcDbVertex
100
AcDb2dVertex
 10
292.765379
 20
208.241275
 30
0.0
  0
VERTEX
  5
1352
330
133F
100
AcDbEntity
  8
SCHRAFFUR_RAND
100
AcDbVertex
100
AcDb2dVertex
 10
300.342379
 20
207.584275
 30
0.0
  0
VERTEX
  5
1353
330
133F
100
AcDbEntity
  8
SCHRAFFUR_RAND
100
AcDbVertex
100
AcDb2dVertex
 10
305.288379
 20
206.972275
 30
0.0
  0
VERTEX
  5
1354
330
133F
100
AcDbEntity
  8
SCHRAFFUR_RAND
100
AcDbVertex
100
AcDb2dVertex
 10
309.762379
 20
204.730275
 30
0.0
  0
VERTEX
  5
1355
330
133F
100
AcDbEntity
  8
SCHRAFFUR_RAND
100
AcDbVertex
100
AcDb2dVertex
 10
313.335379
 20
201.226275
 30
0.0
  0
VERTEX
  5
1356
330
133F
100
AcDbEntity
  8
SCHRAFFUR_RAND
100
AcDbVertex
100
AcDb2dVertex
 10
315.665379
 20
196.796275
 30
0.0
  0
VERTEX
  5
1357
330
133F
100
AcDbEntity
  8
SCHRAFFUR_RAND
100
AcDbVertex
100
AcDb2dVertex
 10
316.371379
 20
191.863275
 30
0.0
  0
VERTEX
  5
1358
330
133F
100
AcDbEntity
  8
SCHRAFFUR_RAND
100
AcDbVertex
100
AcDb2dVertex
 10
317.495379
 20
122.584275
 30
0.0
  0
VERTEX
  5
1359
330
133F
100
AcDbEntity
  8
SCHRAFFUR_RAND
100
AcDbVertex
100
AcDb2dVertex
 10
323.220379
 20
122.596275
 30
0.0
  0
VERTEX
  5
135A
330
133F
100
AcDbEntity
  8
SCHRAFFUR_RAND
100
AcDbVertex
100
AcDb2dVertex
 10
322.872379
 20
147.584275
 30
0.0
  0
VERTEX
  5
135B
330
133F
100
AcDbEntity
  8
SCHRAFFUR_RAND
100
AcDbVertex
100
AcDb2dVertex
 10
322.058379
 20
152.584275
 30
0.0
  0
VERTEX
  5
135C
330
133F
100
AcDbEntity
  8
SCHRAFFUR_RAND
100
AcDbVertex
100
AcDb2dVertex
 10
321.436379
 20
192.244275
 30
0.0
  0
VERTEX
  5
135D
330
133F
100
AcDbEntity
  8
SCHRAFFUR_RAND
100
AcDbVertex
100
AcDb2dVertex
 10
321.436379
 20
195.044275
 30
0.0
  0
VERTEX
  5
135E
330
133F
100
AcDbEntity
  8
SCHRAFFUR_RAND
100
AcDbVertex
100
AcDb2dVertex
 10
321.150379
 20
204.584275
 30
0.0
  0
VERTEX
  5
135F
330
133F
100
AcDbEntity
  8
SCHRAFFUR_RAND
100
AcDbVertex
100
AcDb2dVertex
 10
320.060379
 20
207.584275
 30
0.0
  0
VERTEX
  5
1360
330
133F
100
AcDbEntity
  8
SCHRAFFUR_RAND
100
AcDbVertex
100
AcDb2dVertex
 10
312.025379
 20
207.584275
 30
0.0
  0
VERTEX
  5
1361
330
133F
100
AcDbEntity
  8
SCHRAFFUR_RAND
100
AcDbVertex
100
AcDb2dVertex
 10
311.061379
 20
207.584275
 30
0.0
  0
VERTEX
  5
1362
330
133F
100
AcDbEntity
  8
SCHRAFFUR_RAND
100
AcDbVertex
100
AcDb2dVertex
 10
309.721379
 20
212.583275
 30
0.0
  0
VERTEX
  5
1363
330
133F
100
AcDbEntity
  8
SCHRAFFUR_RAND
100
AcDbVertex
100
AcDb2dVertex
 10
300.267379
 20
212.584275
 30
0.0
  0
VERTEX
  5
1364
330
133F
100
AcDbEntity
  8
SCHRAFFUR_RAND
100
AcDbVertex
100
AcDb2dVertex
 10
292.718379
 20
213.391275
 30
0.0
  0
VERTEX
  5
1365
330
133F
100
AcDbEntity
  8
SCHRAFFUR_RAND
100
AcDbVertex
100
AcDb2dVertex
 10
285.649379
 20
216.211275
 30
0.0
  0
VERTEX
  5
1366
330
133F
100
AcDbEntity
  8
SCHRAFFUR_RAND
100
AcDbVertex
100
AcDb2dVertex
 10
279.512379
 20
220.712275
 30
0.0
  0
VERTEX
  5
1367
330
133F
100
AcDbEntity
  8
SCHRAFFUR_RAND
100
AcDbVertex
100
AcDb2dVertex
 10
274.696379
 20
226.605275
 30
0.0
  0
VERTEX
  5
1368
330
133F
100
AcDbEntity
  8
SCHRAFFUR_RAND
100
AcDbVertex
100
AcDb2dVertex
 10
271.510379
 20
233.517275
 30
0.0
  0
VERTEX
  5
1369
330
133F
100
AcDbEntity
  8
SCHRAFFUR_RAND
100
AcDbVertex
100
AcDb2dVertex
 10
270.308379
 20
241.014275
 30
0.0
  0
VERTEX
  5
136A
330
133F
100
AcDbEntity
  8
SCHRAFFUR_RAND
100
AcDbVertex
100
AcDb2dVertex
 10
269.492379
 20
256.583275
 30
0.0
  0
VERTEX
  5
136B
330
133F
100
AcDbEntity
  8
SCHRAFFUR_RAND
100
AcDbVertex
100
AcDb2dVertex
 10
264.485379
 20
256.583275
 30
0.0
  0
VERTEX
  5
136C
330
133F
100
AcDbEntity
  8
SCHRAFFUR_RAND
100
AcDbVertex
100
AcDb2dVertex
 10
194.186379
 20
275.420275
 30
0.0
  0
VERTEX
  5
136D
330
133F
100
AcDbEntity
  8
SCHRAFFUR_RAND
100
AcDbVertex
100
AcDb2dVertex
 10
192.552379
 20
276.103275
 30
0.0
  0
VERTEX
  5
136E
330
133F
100
AcDbEntity
  8
SCHRAFFUR_RAND
100
AcDbVertex
100
AcDb2dVertex
 10
191.458379
 20
277.529275
 30
0.0
  0
VERTEX
  5
136F
330
133F
100
AcDbEntity
  8
SCHRAFFUR_RAND
100
AcDbVertex
100
AcDb2dVertex
 10
191.222379
 20
279.284275
 30
0.0
  0
VERTEX
  5
1370
330
133F
100
AcDbEntity
  8
SCHRAFFUR_RAND
100
AcDbVertex
100
AcDb2dVertex
 10
191.222379
 20
280.084275
 30
0.0
  0
VERTEX
  5
1371
330
133F
100
AcDbEntity
  8
SCHRAFFUR_RAND
100
AcDbVertex
100
AcDb2dVertex
 10
186.221379
 20
280.084275
 30
0.0
  0
VERTEX
  5
1372
330
133F
100
AcDbEntity
  8
SCHRAFFUR_RAND
100
AcDbVertex
100
AcDb2dVertex
 10
186.222379
 20
279.584275
 30
0.0
  0
VERTEX
  5
1373
330
133F
100
AcDbEntity
  8
SCHRAFFUR_RAND
100
AcDbVertex
100
AcDb2dVertex
 10
185.818379
 20
277.507275
 30
0.0
  0
VERTEX
  5
1374
330
133F
100
AcDbEntity
  8
SCHRAFFUR_RAND
100
AcDbVertex
100
AcDb2dVertex
 10
184.298379
 20
275.987275
 30
0.0
  0
VERTEX
  5
1375
330
133F
100
AcDbEntity
  8
SCHRAFFUR_RAND
100
AcDbVertex
100
AcDb2dVertex
 10
182.222379
 20
275.584275
 30
0.0
  0
VERTEX
  5
1376
330
133F
100
AcDbEntity
  8
SCHRAFFUR_RAND
100
AcDbVertex
100
AcDb2dVertex
 10
157.222379
 20
275.583275
 30
0.0
  0
SEQEND
  5
1377
330
133F
100
AcDbEntity
  8
SCHRAFFUR_RAND
  0
INSERT
  5
139D
330
1585
100
AcDbEntity
  8
8
100
AcDbBlockReference
  2
*X5
 10
-149.015621
 20
-843.3197249999999
 30
0.0
1001
ACAD
1000
HATCH
1002
{
1070
    19
1000
ANSI31,_I
1040
6.349999999999999
1040
0.7850000000000001
1002
}
  0
POLYLINE
  5
139E
330
1585
100
AcDbEntity
  8
SCHRAFFUR_RAND
100
AcDb2dPolyline
 66
     1
 10
0.0
 20
0.0
 30
0.0
 70
     1
  0
VERTEX
  5
139F
330
139E
100
AcDbEntity
  8
SCHRAFFUR_RAND
100
AcDbVertex
100
AcDb2dVertex
 10
257.958379
 20
342.583275
 30
0.0
  0
VERTEX
  5
13A0
330
139E
100
AcDbEntity
  8
SCHRAFFUR_RAND
100
AcDbVertex
100
AcDb2dVertex
 10
161.438379
 20
342.583275
 30
0.0
  0
VERTEX
  5
13A1
330
139E
100
AcDbEntity
  8
SCHRAFFUR_RAND
100
AcDbVertex
100
AcDb2dVertex
 10
159.425379
 20
342.216275
 30
0.0
  0
VERTEX
  5
13A2
330
139E
100
AcDbEntity
  8
SCHRAFFUR_RAND
100
AcDbVertex
100
AcDb2dVertex
 10
157.916379
 20
340.785275
 30
0.0
  0
VERTEX
  5
13A3
330
139E
100
AcDbEntity
  8
SCHRAFFUR_RAND
100
AcDbVertex
100
AcDb2dVertex
 10
157.442379
 20
338.793275
 30
0.0
  0
VERTEX
  5
13A4
330
139E
100
AcDbEntity
  8
SCHRAFFUR_RAND
100
AcDbVertex
100
AcDb2dVertex
 10
157.221379
 20
334.584275
 30
0.0
  0
VERTEX
  5
13A5
330
139E
100
AcDbEntity
  8
SCHRAFFUR_RAND
100
AcDbVertex
100
AcDb2dVertex
 10
182.221379
 20
334.584275
 30
0.0
  0
VERTEX
  5
13A6
330
139E
100
AcDbEntity
  8
SCHRAFFUR_RAND
100
AcDbVertex
100
AcDb2dVertex
 10
184.297379
 20
334.179275
 30
0.0
  0
VERTEX
  5
13A7
330
139E
100
AcDbEntity
  8
SCHRAFFUR_RAND
100
AcDbVertex
100
AcDb2dVertex
 10
185.817379
 20
332.660275
 30
0.0
  0
VERTEX
  5
13A8
330
139E
100
AcDbEntity
  8
SCHRAFFUR_RAND
100
AcDbVertex
100
AcDb2dVertex
 10
186.221379
 20
330.583275
 30
0.0
  0
VERTEX
  5
13A9
330
139E
100
AcDbEntity
  8
SCHRAFFUR_RAND
100
AcDbVertex
100
AcDb2dVertex
 10
186.221379
 20
330.084275
 30
0.0
  0
VERTEX
  5
13AA
330
139E
100
AcDbEntity
  8
SCHRAFFUR_RAND
100
AcDbVertex
100
AcDb2dVertex
 10
191.221379
 20
330.084275
 30
0.0
  0
VERTEX
  5
13AB
330
139E
100
AcDbEntity
  8
SCHRAFFUR_RAND
100
AcDbVertex
100
AcDb2dVertex
 10
191.221379
 20
330.583275
 30
0.0
  0
VERTEX
  5
13AC
330
139E
100
AcDbEntity
  8
SCHRAFFUR_RAND
100
AcDbVertex
100
AcDb2dVertex
 10
191.625379
 20
332.660275
 30
0.0
  0
VERTEX
  5
13AD
330
139E
100
AcDbEntity
  8
SCHRAFFUR_RAND
100
AcDbVertex
100
AcDb2dVertex
 10
193.145379
 20
334.179275
 30
0.0
  0
VERTEX
  5
13AE
330
139E
100
AcDbEntity
  8
SCHRAFFUR_RAND
100
AcDbVertex
100
AcDb2dVertex
 10
195.221379
 20
334.584275
 30
0.0
  0
VERTEX
  5
13AF
330
139E
100
AcDbEntity
  8
SCHRAFFUR_RAND
100
AcDbVertex
100
AcDb2dVertex
 10
250.907379
 20
334.584275
 30
0.0
  0
VERTEX
  5
13B0
330
139E
100
AcDbEntity
  8
SCHRAFFUR_RAND
100
AcDbVertex
100
AcDb2dVertex
 10
254.669379
 20
334.013275
 30
0.0
  0
VERTEX
  5
13B1
330
139E
100
AcDbEntity
  8
SCHRAFFUR_RAND
100
AcDbVertex
100
AcDb2dVertex
 10
257.895379
 20
331.949275
 30
0.0
  0
VERTEX
  5
13B2
330
139E
100
AcDbEntity
  8
SCHRAFFUR_RAND
100
AcDbVertex
100
AcDb2dVertex
 10
260.127379
 20
328.834275
 30
0.0
  0
VERTEX
  5
13B3
330
139E
100
AcDbEntity
  8
SCHRAFFUR_RAND
100
AcDbVertex
100
AcDb2dVertex
 10
260.893379
 20
325.107275
 30
0.0
  0
VERTEX
  5
13B4
330
139E
100
AcDbEntity
  8
SCHRAFFUR_RAND
100
AcDbVertex
100
AcDb2dVertex
 10
262.389379
 20
296.584275
 30
0.0
  0
VERTEX
  5
13B5
330
139E
100
AcDbEntity
  8
SCHRAFFUR_RAND
100
AcDbVertex
100
AcDb2dVertex
 10
267.396379
 20
296.584275
 30
0.0
  0
VERTEX
  5
13B6
330
139E
100
AcDbEntity
  8
SCHRAFFUR_RAND
100
AcDbVertex
100
AcDb2dVertex
 10
264.984379
 20
342.583275
 30
0.0
  0
VERTEX
  5
13B7
330
139E
100
AcDbEntity
  8
SCHRAFFUR_RAND
100
AcDbVertex
100
AcDb2dVertex
 10
257.958379
 20
342.583275
 30
0.0
  0
SEQEND
  5
13B8
330
139E
100
AcDbEntity
  8
SCHRAFFUR_RAND
  0
INSERT
  5
13CC
330
1585
100
AcDbEntity
  8
8
100
AcDbBlockReference
  2
*X6
 10
-149.015621
 20
-843.3197249999999
 30
0.0
1001
ACAD
1000
HATCH
1002
{
1070
    19
1000
ANSI31,_I
1040
6.349999999999999
1040
0.7850000000000001
1002
}
  0
POLYLINE
  5
13CD
330
1585
100
AcDbEntity
  8
SCHRAFFUR_RAND
100
AcDb2dPolyline
 66
     1
 10
0.0
 20
0.0
 30
0.0
 70
     1
  0
VERTEX
  5
13CE
330
13CD
100
AcDbEntity
  8
SCHRAFFUR_RAND
100
AcDbVertex
100
AcDb2dVertex
 10
479.459379
 20
342.583275
 30
0.0
  0
VERTEX
  5
13CF
330
13CD
100
AcDbEntity
  8
SCHRAFFUR_RAND
100
AcDbVertex
100
AcDb2dVertex
 10
474.136379
 20
241.014275
 30
0.0
  0
VERTEX
  5
13D0
330
13CD
100
AcDbEntity
  8
SCHRAFFUR_RAND
100
AcDbVertex
100
AcDb2dVertex
 10
472.9343789999999
 20
233.517275
 30
0.0
  0
VERTEX
  5
13D1
330
13CD
100
AcDbEntity
  8
SCHRAFFUR_RAND
100
AcDbVertex
100
AcDb2dVertex
 10
469.7483789999999
 20
226.605275
 30
0.0
  0
VERTEX
  5
13D2
330
13CD
100
AcDbEntity
  8
SCHRAFFUR_RAND
100
AcDbVertex
100
AcDb2dVertex
 10
464.933379
 20
220.712275
 30
0.0
  0
VERTEX
  5
13D3
330
13CD
100
AcDbEntity
  8
SCHRAFFUR_RAND
100
AcDbVertex
100
AcDb2dVertex
 10
458.7963789999999
 20
216.211275
 30
0.0
  0
VERTEX
  5
13D4
330
13CD
100
AcDbEntity
  8
SCHRAFFUR_RAND
100
AcDbVertex
100
AcDb2dVertex
 10
451.7273789999999
 20
213.391275
 30
0.0
  0
VERTEX
  5
13D5
330
13CD
100
AcDbEntity
  8
SCHRAFFUR_RAND
100
AcDbVertex
100
AcDb2dVertex
 10
444.177379
 20
212.584275
 30
0.0
  0
VERTEX
  5
13D6
330
13CD
100
AcDbEntity
  8
SCHRAFFUR_RAND
100
AcDbVertex
100
AcDb2dVertex
 10
434.722379
 20
212.583275
 30
0.0
  0
VERTEX
  5
13D7
330
13CD
100
AcDbEntity
  8
SCHRAFFUR_RAND
100
AcDbVertex
100
AcDb2dVertex
 10
433.382379
 20
207.583275
 30
0.0
  0
VERTEX
  5
13D8
330
13CD
100
AcDbEntity
  8
SCHRAFFUR_RAND
100
AcDbVertex
100
AcDb2dVertex
 10
432.4173789999999
 20
207.584275
 30
0.0
  0
VERTEX
  5
13D9
330
13CD
100
AcDbEntity
  8
SCHRAFFUR_RAND
100
AcDbVertex
100
AcDb2dVertex
 10
424.383379
 20
207.584275
 30
0.0
  0
VERTEX
  5
13DA
330
13CD
100
AcDbEntity
  8
SCHRAFFUR_RAND
100
AcDbVertex
100
AcDb2dVertex
 10
423.293379
 20
204.584275
 30
0.0
  0
VERTEX
  5
13DB
330
13CD
100
AcDbEntity
  8
SCHRAFFUR_RAND
100
AcDbVertex
100
AcDb2dVertex
 10
423.101379
 20
193.644275
 30
0.0
  0
VERTEX
  5
13DC
330
13CD
100
AcDbEntity
  8
SCHRAFFUR_RAND
100
AcDbVertex
100
AcDb2dVertex
 10
422.3853789999999
 20
152.584275
 30
0.0
  0
VERTEX
  5
13DD
330
13CD
100
AcDbEntity
  8
SCHRAFFUR_RAND
100
AcDbVertex
100
AcDb2dVertex
 10
421.5713789999999
 20
147.584275
 30
0.0
  0
VERTEX
  5
13DE
330
13CD
100
AcDbEntity
  8
SCHRAFFUR_RAND
100
AcDbVertex
100
AcDb2dVertex
 10
421.222379
 20
122.596275
 30
0.0
  0
VERTEX
  5
13DF
330
13CD
100
AcDbEntity
  8
SCHRAFFUR_RAND
100
AcDbVertex
100
AcDb2dVertex
 10
426.949379
 20
122.584275
 30
0.0
  0
VERTEX
  5
13E0
330
13CD
100
AcDbEntity
  8
SCHRAFFUR_RAND
100
AcDbVertex
100
AcDb2dVertex
 10
428.071379
 20
191.863275
 30
0.0
  0
VERTEX
  5
13E1
330
13CD
100
AcDbEntity
  8
SCHRAFFUR_RAND
100
AcDbVertex
100
AcDb2dVertex
 10
428.779379
 20
196.796275
 30
0.0
  0
VERTEX
  5
13E2
330
13CD
100
AcDbEntity
  8
SCHRAFFUR_RAND
100
AcDbVertex
100
AcDb2dVertex
 10
431.108379
 20
201.226275
 30
0.0
  0
VERTEX
  5
13E3
330
13CD
100
AcDbEntity
  8
SCHRAFFUR_RAND
100
AcDbVertex
100
AcDb2dVertex
 10
434.682379
 20
204.730275
 30
0.0
  0
VERTEX
  5
13E4
330
13CD
100
AcDbEntity
  8
SCHRAFFUR_RAND
100
AcDbVertex
100
AcDb2dVertex
 10
439.156379
 20
206.972275
 30
0.0
  0
VERTEX
  5
13E5
330
13CD
100
AcDbEntity
  8
SCHRAFFUR_RAND
100
AcDbVertex
100
AcDb2dVertex
 10
444.102379
 20
207.584275
 30
0.0
  0
VERTEX
  5
13E6
330
13CD
100
AcDbEntity
  8
SCHRAFFUR_RAND
100
AcDbVertex
100
AcDb2dVertex
 10
451.6803789999999
 20
208.241275
 30
0.0
  0
VERTEX
  5
13E7
330
13CD
100
AcDbEntity
  8
SCHRAFFUR_RAND
100
AcDbVertex
100
AcDb2dVertex
 10
458.905379
 20
210.665275
 30
0.0
  0
VERTEX
  5
13E8
330
13CD
100
AcDbEntity
  8
SCHRAFFUR_RAND
100
AcDbVertex
100
AcDb2dVertex
 10
465.4383789999999
 20
214.589275
 30
0.0
  0
VERTEX
  5
13E9
330
13CD
100
AcDbEntity
  8
SCHRAFFUR_RAND
100
AcDbVertex
100
AcDb2dVertex
 10
470.9723789999999
 20
219.829275
 30
0.0
  0
VERTEX
  5
13EA
330
13CD
100
AcDbEntity
  8
SCHRAFFUR_RAND
100
AcDbVertex
100
AcDb2dVertex
 10
475.246379
 20
226.139275
 30
0.0
  0
VERTEX
  5
13EB
330
13CD
100
AcDbEntity
  8
SCHRAFFUR_RAND
100
AcDbVertex
100
AcDb2dVertex
 10
478.0603789999999
 20
233.222275
 30
0.0
  0
VERTEX
  5
13EC
330
13CD
100
AcDbEntity
  8
SCHRAFFUR_RAND
100
AcDbVertex
100
AcDb2dVertex
 10
479.129379
 20
240.752275
 30
0.0
  0
VERTEX
  5
13ED
330
13CD
100
AcDbEntity
  8
SCHRAFFUR_RAND
100
AcDbVertex
100
AcDb2dVertex
 10
483.550379
 20
325.107275
 30
0.0
  0
VERTEX
  5
13EE
330
13CD
100
AcDbEntity
  8
SCHRAFFUR_RAND
100
AcDbVertex
100
AcDb2dVertex
 10
484.316379
 20
328.834275
 30
0.0
  0
VERTEX
  5
13EF
330
13CD
100
AcDbEntity
  8
SCHRAFFUR_RAND
100
AcDbVertex
100
AcDb2dVertex
 10
486.5483789999999
 20
331.949275
 30
0.0
  0
VERTEX
  5
13F0
330
13CD
100
AcDbEntity
  8
SCHRAFFUR_RAND
100
AcDbVertex
100
AcDb2dVertex
 10
488.194379
 20
333.037275
 30
0.0
  0
VERTEX
  5
13F1
330
13CD
100
AcDbEntity
  8
SCHRAFFUR_RAND
100
AcDbVertex
100
AcDb2dVertex
 10
489.7743789999999
 20
334.013275
 30
0.0
  0
VERTEX
  5
13F2
330
13CD
100
AcDbEntity
  8
SCHRAFFUR_RAND
100
AcDbVertex
100
AcDb2dVertex
 10
493.1883789999999
 20
334.571275
 30
0.0
  0
VERTEX
  5
13F3
330
13CD
100
AcDbEntity
  8
SCHRAFFUR_RAND
100
AcDbVertex
100
AcDb2dVertex
 10
493.536379
 20
334.584275
 30
0.0
  0
VERTEX
  5
13F4
330
13CD
100
AcDbEntity
  8
SCHRAFFUR_RAND
100
AcDbVertex
100
AcDb2dVertex
 10
513.262379
 20
335.004275
 30
0.0
  0
VERTEX
  5
13F5
330
13CD
100
AcDbEntity
  8
SCHRAFFUR_RAND
100
AcDbVertex
100
AcDb2dVertex
 10
515.0723789999999
 20
335.336275
 30
0.0
  0
VERTEX
  5
13F6
330
13CD
100
AcDbEntity
  8
SCHRAFFUR_RAND
100
AcDbVertex
100
AcDb2dVertex
 10
549.051379
 20
336.523275
 30
0.0
  0
VERTEX
  5
13F7
330
13CD
100
AcDbEntity
  8
SCHRAFFUR_RAND
100
AcDbVertex
100
AcDb2dVertex
 10
549.861379
 20
336.381275
 30
0.0
  0
VERTEX
  5
13F8
330
13CD
100
AcDbEntity
  8
SCHRAFFUR_RAND
100
AcDbVertex
100
AcDb2dVertex
 10
550.546379
 20
335.927275
 30
0.0
  0
VERTEX
  5
13F9
330
13CD
100
AcDbEntity
  8
SCHRAFFUR_RAND
100
AcDbVertex
100
AcDb2dVertex
 10
550.992379
 20
335.308275
 30
0.0
  0
VERTEX
  5
13FA
330
13CD
100
AcDbEntity
  8
SCHRAFFUR_RAND
100
AcDbVertex
100
AcDb2dVertex
 10
551.2313789999999
 20
334.584275
 30
0.0
  0
VERTEX
  5
13FB
330
13CD
100
AcDbEntity
  8
SCHRAFFUR_RAND
100
AcDbVertex
100
AcDb2dVertex
 10
587.2213789999999
 20
334.584275
 30
0.0
  0
VERTEX
  5
13FC
330
13CD
100
AcDbEntity
  8
SCHRAFFUR_RAND
100
AcDbVertex
100
AcDb2dVertex
 10
587.0003789999999
 20
338.793275
 30
0.0
  0
VERTEX
  5
13FD
330
13CD
100
AcDbEntity
  8
SCHRAFFUR_RAND
100
AcDbVertex
100
AcDb2dVertex
 10
586.5273789999999
 20
340.785275
 30
0.0
  0
VERTEX
  5
13FE
330
13CD
100
AcDbEntity
  8
SCHRAFFUR_RAND
100
AcDbVertex
100
AcDb2dVertex
 10
585.0193789999999
 20
342.216275
 30
0.0
  0
VERTEX
  5
13FF
330
13CD
100
AcDbEntity
  8
SCHRAFFUR_RAND
100
AcDbVertex
100
AcDb2dVertex
 10
583.005379
 20
342.583275
 30
0.0
  0
VERTEX
  5
1400
330
13CD
100
AcDbEntity
  8
SCHRAFFUR_RAND
100
AcDbVertex
100
AcDb2dVertex
 10
486.484379
 20
342.583275
 30
0.0
  0
VERTEX
  5
1401
330
13CD
100
AcDbEntity
  8
SCHRAFFUR_RAND
100
AcDbVertex
100
AcDb2dVertex
 10
479.459379
 20
342.583275
 30
0.0
  0
SEQEND
  5
1402
330
13CD
100
AcDbEntity
  8
SCHRAFFUR_RAND
  0
INSERT
  5
1429
330
1585
100
AcDbEntity
  8
8
100
AcDbBlockReference
  2
*X7
 10
-149.015621
 20
-843.3197249999999
 30
0.0
1001
ACAD
1000
HATCH
1002
{
1070
    19
1000
ANSI31,_I
1040
6.349999999999999
1040
0.7850000000000001
1002
}
  0
DIMENSION
  5
1433
330
1585
100
AcDbEntity
  8
5
100
AcDbDimension
  2
*D15
 10
213.393379
 20
342.583275
 30
0.0
 11
213.393379
 21
397.081275
 31
0.0
 70
   160
  1
38
 71
     5
 42
-1.0
  3
GEN-ISO
100
AcDbAlignedDimension
 13
195.911379
 23
305.084275
 33
0.0
 14
213.393379
 24
342.583275
 34
0.0
 50
90.0
100
AcDbRotatedDimension
1001
ACAD
1000
DSTYLE
1002
{
1070
    78
1070
    12
1002
}
  0
DIMENSION
  5
143F
330
1585
100
AcDbEntity
  8
5
100
AcDbDimension
  2
*D12
 10
112.172379
 20
275.583275
 30
0.0
 11
112.172379
 21
305.083775
 31
0.0
 12
-149.015621
 22
-843.3197249999999
 32
0.0
 70
   160
  1
%%c59 
 71
     5
 42
-1.0
  3
GEN-ISO
100
AcDbAlignedDimension
 13
157.223379
 23
334.584275
 33
0.0
 14
157.222379
 24
275.583275
 34
0.0
 50
270.0
100
AcDbRotatedDimension
1001
ACAD
1000
DSTYLE
1002
{
1070
    78
1070
    12
1002
}
1001
GENIUS_GENDTOL_13
1000

1000
h7
1000

1040
0.0
1000
%%c59 
  0
POLYLINE
  5
1440
330
1585
100
AcDbEntity
  8
SCHRAFFUR_RAND
100
AcDb2dPolyline
 66
     1
 10
0.0
 20
0.0
 30
0.0
 70
     1
  0
VERTEX
  5
1441
330
1440
100
AcDbEntity
  8
SCHRAFFUR_RAND
100
AcDbVertex
100
AcDb2dVertex
 10
157.222379
 20
274.083275
 30
0.0
  0
VERTEX
  5
1442
330
1440
100
AcDbEntity
  8
SCHRAFFUR_RAND
100
AcDbVertex
100
AcDb2dVertex
 10
157.222379
 20
275.584275
 30
0.0
  0
VERTEX
  5
1443
330
1440
100
AcDbEntity
  8
SCHRAFFUR_RAND
100
AcDbVertex
100
AcDb2dVertex
 10
175.267379
 20
275.583275
 30
0.0
  0
VERTEX
  5
1444
330
1440
100
AcDbEntity
  8
SCHRAFFUR_RAND
100
AcDbVertex
100
AcDb2dVertex
 10
176.222379
 20
286.084275
 30
0.0
  0
VERTEX
  5
1445
330
1440
100
AcDbEntity
  8
SCHRAFFUR_RAND
100
AcDbVertex
100
AcDb2dVertex
 10
171.222379
 20
277.584275
 30
0.0
  0
VERTEX
  5
1446
330
1440
100
AcDbEntity
  8
SCHRAFFUR_RAND
100
AcDbVertex
100
AcDb2dVertex
 10
161.222379
 20
277.583275
 30
0.0
  0
VERTEX
  5
1447
330
1440
100
AcDbEntity
  8
SCHRAFFUR_RAND
100
AcDbVertex
100
AcDb2dVertex
 10
164.222379
 20
283.084275
 30
0.0
  0
VERTEX
  5
1448
330
1440
100
AcDbEntity
  8
SCHRAFFUR_RAND
100
AcDbVertex
100
AcDb2dVertex
 10
162.722379
 20
283.084275
 30
0.0
  0
VERTEX
  5
1449
330
1440
100
AcDbEntity
  8
SCHRAFFUR_RAND
100
AcDbVertex
100
AcDb2dVertex
 10
157.222379
 20
277.584275
 30
0.0
  0
VERTEX
  5
144A
330
1440
100
AcDbEntity
  8
SCHRAFFUR_RAND
100
AcDbVertex
100
AcDb2dVertex
 10
153.222379
 20
277.584275
 30
0.0
  0
VERTEX
  5
144B
330
1440
100
AcDbEntity
  8
SCHRAFFUR_RAND
100
AcDbVertex
100
AcDb2dVertex
 10
153.222379
 20
272.084275
 30
0.0
  0
VERTEX
  5
144C
330
1440
100
AcDbEntity
  8
SCHRAFFUR_RAND
100
AcDbVertex
100
AcDb2dVertex
 10
157.222379
 20
272.084275
 30
0.0
  0
VERTEX
  5
144D
330
1440
100
AcDbEntity
  8
SCHRAFFUR_RAND
100
AcDbVertex
100
AcDb2dVertex
 10
157.222379
 20
274.083275
 30
0.0
  0
SEQEND
  5
144E
330
1440
100
AcDbEntity
  8
SCHRAFFUR_RAND
  0
INSERT
  5
1461
330
1585
100
AcDbEntity
  8
8
100
AcDbBlockReference
  2
*X8
 10
-149.015621
 20
-843.3197249999999
 30
0.0
1001
ACAD
1000
HATCH
1002
{
1070
    19
1000
ANSI37,_I
1040
3.174999999999999
1040
3.926999999999999
1002
}
  0
POLYLINE
  5
1462
330
1585
100
AcDbEntity
  8
SCHRAFFUR_RAND
100
AcDb2dPolyline
 66
     1
 10
0.0
 20
0.0
 30
0.0
 70
     1
  0
VERTEX
  5
1463
330
1462
100
AcDbEntity
  8
SCHRAFFUR_RAND
100
AcDbVertex
100
AcDb2dVertex
 10
175.267379
 20
334.583275
 30
0.0
  0
VERTEX
  5
1464
330
1462
100
AcDbEntity
  8
SCHRAFFUR_RAND
100
AcDbVertex
100
AcDb2dVertex
 10
157.222379
 20
334.583275
 30
0.0
  0
VERTEX
  5
1465
330
1462
100
AcDbEntity
  8
SCHRAFFUR_RAND
100
AcDbVertex
100
AcDb2dVertex
 10
157.222379
 20
338.084275
 30
0.0
  0
VERTEX
  5
1466
330
1462
100
AcDbEntity
  8
SCHRAFFUR_RAND
100
AcDbVertex
100
AcDb2dVertex
 10
153.222379
 20
338.084275
 30
0.0
  0
VERTEX
  5
1467
330
1462
100
AcDbEntity
  8
SCHRAFFUR_RAND
100
AcDbVertex
100
AcDb2dVertex
 10
153.222379
 20
332.584275
 30
0.0
  0
VERTEX
  5
1468
330
1462
100
AcDbEntity
  8
SCHRAFFUR_RAND
100
AcDbVertex
100
AcDb2dVertex
 10
157.222379
 20
332.584275
 30
0.0
  0
VERTEX
  5
1469
330
1462
100
AcDbEntity
  8
SCHRAFFUR_RAND
100
AcDbVertex
100
AcDb2dVertex
 10
162.722379
 20
327.084275
 30
0.0
  0
VERTEX
  5
146A
330
1462
100
AcDbEntity
  8
SCHRAFFUR_RAND
100
AcDbVertex
100
AcDb2dVertex
 10
164.222379
 20
327.084275
 30
0.0
  0
VERTEX
  5
146B
330
1462
100
AcDbEntity
  8
SCHRAFFUR_RAND
100
AcDbVertex
100
AcDb2dVertex
 10
161.222379
 20
332.584275
 30
0.0
  0
VERTEX
  5
146C
330
1462
100
AcDbEntity
  8
SCHRAFFUR_RAND
100
AcDbVertex
100
AcDb2dVertex
 10
171.222379
 20
332.584275
 30
0.0
  0
VERTEX
  5
146D
330
1462
100
AcDbEntity
  8
SCHRAFFUR_RAND
100
AcDbVertex
100
AcDb2dVertex
 10
176.222379
 20
324.084275
 30
0.0
  0
VERTEX
  5
146E
330
1462
100
AcDbEntity
  8
SCHRAFFUR_RAND
100
AcDbVertex
100
AcDb2dVertex
 10
175.267379
 20
334.583275
 30
0.0
  0
SEQEND
  5
146F
330
1462
100
AcDbEntity
  8
SCHRAFFUR_RAND
  0
INSERT
  5
1481
330
1585
100
AcDbEntity
  8
8
100
AcDbBlockReference
  2
*X9
 10
-149.015621
 20
-843.3197249999999
 30
0.0
1001
ACAD
1000
HATCH
1002
{
1070
    19
1000
ANSI37,_I
1040
3.174999999999999
1040
3.926999999999999
1002
}
  0
POLYLINE
  5
1482
330
1585
100
AcDbEntity
  8
SCHRAFFUR_RAND
100
AcDb2dPolyline
 66
     1
 10
0.0
 20
0.0
 30
0.0
 70
     1
  0
VERTEX
  5
1483
330
1482
100
AcDbEntity
  8
SCHRAFFUR_RAND
100
AcDbVertex
100
AcDb2dVertex
 10
547.2213789999999
 20
355.584275
 30
0.0
  0
VERTEX
  5
1484
330
1482
100
AcDbEntity
  8
SCHRAFFUR_RAND
100
AcDbVertex
100
AcDb2dVertex
 10
489.721379
 20
355.584275
 30
0.0
  0
VERTEX
  5
1485
330
1482
100
AcDbEntity
  8
SCHRAFFUR_RAND
100
AcDbVertex
100
AcDb2dVertex
 10
489.721379
 20
350.083275
 30
0.0
  0
VERTEX
  5
1486
330
1482
100
AcDbEntity
  8
SCHRAFFUR_RAND
100
AcDbVertex
100
AcDb2dVertex
 10
489.881379
 20
349.114275
 30
0.0
  0
VERTEX
  5
1487
330
1482
100
AcDbEntity
  8
SCHRAFFUR_RAND
100
AcDbVertex
100
AcDb2dVertex
 10
490.430379
 20
348.292275
 30
0.0
  0
VERTEX
  5
1488
330
1482
100
AcDbEntity
  8
SCHRAFFUR_RAND
100
AcDbVertex
100
AcDb2dVertex
 10
491.252379
 20
347.743275
 30
0.0
  0
VERTEX
  5
1489
330
1482
100
AcDbEntity
  8
SCHRAFFUR_RAND
100
AcDbVertex
100
AcDb2dVertex
 10
492.2213789999999
 20
347.583275
 30
0.0
  0
VERTEX
  5
148A
330
1482
100
AcDbEntity
  8
SCHRAFFUR_RAND
100
AcDbVertex
100
AcDb2dVertex
 10
544.7213789999999
 20
347.583275
 30
0.0
  0
VERTEX
  5
148B
330
1482
100
AcDbEntity
  8
SCHRAFFUR_RAND
100
AcDbVertex
100
AcDb2dVertex
 10
545.6913789999999
 20
347.743275
 30
0.0
  0
VERTEX
  5
148C
330
1482
100
AcDbEntity
  8
SCHRAFFUR_RAND
100
AcDbVertex
100
AcDb2dVertex
 10
546.513379
 20
348.292275
 30
0.0
  0
VERTEX
  5
148D
330
1482
100
AcDbEntity
  8
SCHRAFFUR_RAND
100
AcDbVertex
100
AcDb2dVertex
 10
547.0623789999999
 20
349.114275
 30
0.0
  0
VERTEX
  5
148E
330
1482
100
AcDbEntity
  8
SCHRAFFUR_RAND
100
AcDbVertex
100
AcDb2dVertex
 10
547.2213789999999
 20
350.083275
 30
0.0
  0
VERTEX
  5
148F
330
1482
100
AcDbEntity
  8
SCHRAFFUR_RAND
100
AcDbVertex
100
AcDb2dVertex
 10
547.2213789999999
 20
355.584275
 30
0.0
  0
SEQEND
  5
1490
330
1482
100
AcDbEntity
  8
SCHRAFFUR_RAND
  0
INSERT
  5
14A1
330
1585
100
AcDbEntity
  8
8
100
AcDbBlockReference
  2
*X10
 10
-149.015621
 20
-843.3197249999999
 30
0.0
1001
ACAD
1000
HATCH
1002
{
1070
    19
1000
ANSI31,_I
1040
3.174999999999999
1040
0.7850000000000001
1002
}
  0
POLYLINE
  5
14A2
330
1585
100
AcDbEntity
  8
SCHRAFFUR_RAND
100
AcDb2dPolyline
 66
     1
 10
0.0
 20
0.0
 30
0.0
 70
     1
  0
VERTEX
  5
14A3
330
14A2
100
AcDbEntity
  8
SCHRAFFUR_RAND
100
AcDbVertex
100
AcDb2dVertex
 10
252.221379
 20
347.583275
 30
0.0
  0
VERTEX
  5
14A4
330
14A2
100
AcDbEntity
  8
SCHRAFFUR_RAND
100
AcDbVertex
100
AcDb2dVertex
 10
253.192379
 20
347.740275
 30
0.0
  0
VERTEX
  5
14A5
330
14A2
100
AcDbEntity
  8
SCHRAFFUR_RAND
100
AcDbVertex
100
AcDb2dVertex
 10
254.015379
 20
348.290275
 30
0.0
  0
VERTEX
  5
14A6
330
14A2
100
AcDbEntity
  8
SCHRAFFUR_RAND
100
AcDbVertex
100
AcDb2dVertex
 10
254.565379
 20
349.113275
 30
0.0
  0
VERTEX
  5
14A7
330
14A2
100
AcDbEntity
  8
SCHRAFFUR_RAND
100
AcDbVertex
100
AcDb2dVertex
 10
254.721379
 20
350.083275
 30
0.0
  0
VERTEX
  5
14A8
330
14A2
100
AcDbEntity
  8
SCHRAFFUR_RAND
100
AcDbVertex
100
AcDb2dVertex
 10
254.721379
 20
355.584275
 30
0.0
  0
VERTEX
  5
14A9
330
14A2
100
AcDbEntity
  8
SCHRAFFUR_RAND
100
AcDbVertex
100
AcDb2dVertex
 10
197.221379
 20
355.584275
 30
0.0
  0
VERTEX
  5
14AA
330
14A2
100
AcDbEntity
  8
SCHRAFFUR_RAND
100
AcDbVertex
100
AcDb2dVertex
 10
197.221379
 20
350.083275
 30
0.0
  0
VERTEX
  5
14AB
330
14A2
100
AcDbEntity
  8
SCHRAFFUR_RAND
100
AcDbVertex
100
AcDb2dVertex
 10
197.378379
 20
349.113275
 30
0.0
  0
VERTEX
  5
14AC
330
14A2
100
AcDbEntity
  8
SCHRAFFUR_RAND
100
AcDbVertex
100
AcDb2dVertex
 10
197.928379
 20
348.290275
 30
0.0
  0
VERTEX
  5
14AD
330
14A2
100
AcDbEntity
  8
SCHRAFFUR_RAND
100
AcDbVertex
100
AcDb2dVertex
 10
198.751379
 20
347.740275
 30
0.0
  0
VERTEX
  5
14AE
330
14A2
100
AcDbEntity
  8
SCHRAFFUR_RAND
100
AcDbVertex
100
AcDb2dVertex
 10
199.721379
 20
347.583275
 30
0.0
  0
VERTEX
  5
14AF
330
14A2
100
AcDbEntity
  8
SCHRAFFUR_RAND
100
AcDbVertex
100
AcDb2dVertex
 10
252.221379
 20
347.583275
 30
0.0
  0
SEQEND
  5
14B0
330
14A2
100
AcDbEntity
  8
SCHRAFFUR_RAND
  0
INSERT
  5
14C1
330
1585
100
AcDbEntity
  8
8
100
AcDbBlockReference
  2
*X11
 10
-149.015621
 20
-843.3197249999999
 30
0.0
1001
ACAD
1000
HATCH
1002
{
1070
    19
1000
ANSI31,_I
1040
3.174999999999999
1040
0.7850000000000001
1002
}
  0
INSERT
  5
16D1
330
1585
100
AcDbEntity
  8
0
100
AcDbBlockReference
  2
KATALOG_LEER
 10
251.839706
 20
11.304483
 30
0.0
 41
5.0
 42
5.0
 43
5.0
1001
GENIUS_GENOREF_13
1005
16D2
  0
POINT
  5
16D2
330
1585
100
AcDbEntity
  8
0
 60
     1
100
AcDbPoint
 10
0.0
 20
0.0
 30
0.0
1001
GENIUS_GENOBJ-N-TIT_13
1002
{
1000
OWNER
1000
GEN
1002
}
1001
GENIUS_GENOENT_13
1002
{
1000
MYREF
1005
16D2
1002
}
1002
{
1000
GRP
1005
0
1002
}
1001
GENIUS_GENOLIS_13
1002
{
1000
ENT
1005
16D1
1002
}
1001
GENIUS_GENTITLE_13
1002
{
1000
SCALE
1000
1:5
1002
}
1002
{
1000
BORDER
1000
KATALOG
1002
}
1002
{
1000
TITLE
1000
KATALOG_LEER
1002
}
1002
{
1000
UNCHG
1002
{
1000
GEN-TITLE-SCA
1000
GEN-TITLE-SIZ
1002
}
1002
}
1002
{
1000
HRA
1005
16CA
1002
}
1002
{
1000
HTIT
1005
16D1
1002
}
1002
{
1000
GENIUSID
1005
16D2
1002
}
1001
GENIUS_GENODEF_13
1002
{
1000
HIER
1070
     1
1002
}
1002
{
1000
MANEDIT
1070
     1
1002
}
1002
{
1000
NOSEL
1070
     0
1002
}
1002
{
1000
BEHIND
1070
     0
1002
}
1002
{
1000
REACTOR
1002
}
  0
LINE
  5
1711
330
1585
100
AcDbEntity
  8
5
100
AcDbLine
 10
510.409287
 20
369.239967
 30
0.0
 11
576.53612
 21
414.699218
 31
0.0
  0
LINE
  5
1712
330
1585
100
AcDbEntity
  8
5
100
AcDbLine
 10
653.086115
 20
471.174974
 30
0.0
 11
665.176494
 21
471.174974
 31
0.0
  0
LINE
  5
1713
330
1585
100
AcDbEntity
  8
5
100
AcDbLine
 10
650.2346119999999
 20
475.7288579999999
 30
0.0
 11
668.027997
 21
475.7288579999999
 31
0.0
  0
LINE
  5
1714
330
1585
100
AcDbEntity
  8
5
100
AcDbLine
 10
655.823558
 20
466.8032440000001
 30
0.0
 11
662.4390499999999
 21
466.8032440000001
 31
0.0
  0
LINE
  5
1715
330
1585
100
AcDbEntity
  8
5
100
AcDbLine
 10
659.131304
 20
475.7288579999999
 30
0.0
 11
659.131304
 21
484.290163
 31
0.0
  0
LINE
  5
1716
330
1585
100
AcDbEntity
  8
5
100
AcDbLine
 10
600.6844509999999
 20
431.30012
 30
0.0
 11
649.7104249999999
 21
465.003292
 31
0.0
  0
ENDSEC
  0
SECTION
  2
OBJECTS
  0
DICTIONARY
  5
1579
330
0
100
AcDbDictionary
281
     1
  3
ACAD_COLOR
350
1773
  3
ACAD_GROUP
350
157A
  3
ACAD_LAYOUT
350
1776
  3
ACAD_MATERIAL
350
1772
  3
ACAD_MLINESTYLE
350
1588
  3
ACAD_PLOTSETTINGS
350
1777
  3
ACAD_PLOTSTYLENAME
350
1770
  3
ACAD_TABLESTYLE
350
1774
  3
ACDBHEADERROUNDTRIPXREC
350
1858
  3
AcDbVariableDictionary
350
184B
  3
AcmDictionary
350
17D5
  3
AMG
350
177B
  3
AMGSNAPSETTINGS
350
1843
  0
DICTIONARY
  5
1773
102
{ACAD_REACTORS
330
1579
102
}
330
1579
100
AcDbDictionary
281
     1
  0
DICTIONARY
  5
157A
102
{ACAD_REACTORS
330
1579
102
}
330
1579
100
AcDbDictionary
281
     1
  0
DICTIONARY
  5
1776
102
{ACAD_REACTORS
330
1579
102
}
330
1579
100
AcDbDictionary
281
     1
  3
Layout1
350
1779
  3
Model
350
1778
  0
DICTIONARY
  5
1772
102
{ACAD_REACTORS
330
1579
102
}
330
1579
100
AcDbDictionary
281
     1
  0
DICTIONARY
  5
1588
102
{ACAD_REACTORS
330
1579
102
}
330
1579
100
AcDbDictionary
281
     1
  3
STANDARD
350
1589
  0
DICTIONARY
  5
1777
102
{ACAD_REACTORS
330
1579
102
}
330
1579
100
AcDbDictionary
281
     1
  0
ACDBDICTIONARYWDFLT
  5
1770
102
{ACAD_REACTORS
330
1579
102
}
330
1579
100
AcDbDictionary
281
     1
  3
Normal
350
1771
100
AcDbDictionaryWithDefault
340
1771
  0
DICTIONARY
  5
1774
102
{ACAD_REACTORS
330
1579
102
}
330
1579
100
AcDbDictionary
281
     1
  3
Standard
350
1775
  0
DICTIONARY
  5
1858
102
{ACAD_REACTORS
330
1579
102
}
330
1579
100
AcDbDictionary
281
     1
  0
DICTIONARY
  5
184B
102
{ACAD_REACTORS
330
1579
102
}
330
1579
100
AcDbDictionary
281
     1
  3
CTABLESTYLE
350
184C
  3
DIMASSOC
350
1855
  3
PROJECTNAME
350
1856
  0
DICTIONARY
  5
17D5
102
{ACAD_REACTORS
330
1579
102
}
330
1579
100
AcDbDictionary
281
     1
  3
AcmStdDictionary
350
17E0
  3
AMDTSECTSYM_ARROWCOLOR
350
1803
  0
DICTIONARY
  5
177B
102
{ACAD_REACTORS
330
1579
102
}
330
1579
100
AcDbDictionary
281
     1
  0
DICTIONARY
  5
1843
102
{ACAD_REACTORS
330
1579
102
}
330
1579
100
AcDbDictionary
281
     1
  0
LAYOUT
  5
1779
102
{ACAD_XDICTIONARY
360
185B
102
}
102
{ACAD_REACTORS
330
1776
102
}
330
1776
100
AcDbPlotSettings
  1

  2
Xerox Document Centre CS50 PS
  4

  6

 40
0.0
 41
0.0
 42
0.0
 43
0.0
 44
0.0
 45
0.0
 46
0.0
 47
0.0
 48
0.0
 49
0.0
140
0.0
141
0.0
142
1.0
143
1.0
 70
   688
 72
     0
 73
     0
 74
     5
  7

 75
    16
147
1.0
148
0.0
149
0.0
100
AcDbLayout
  1
Layout1
 70
     1
 71
     1
 10
0.0
 20
0.0
 11
210.001
 21
297.001
 12
0.0
 22
0.0
 32
0.0
 14
0.0
 24
0.0
 34
0.0
 15
210.001
 25
297.001
 35
0.0
146
0.0
 13
0.0
 23
0.0
 33
0.0
 16
1.0
 26
0.0
 36
0.0
 17
0.0
 27
1.0
 37
0.0
 76
     0
330
1582
  0
LAYOUT
  5
1778
102
{ACAD_XDICTIONARY
360
1859
102
}
102
{ACAD_REACTORS
330
1776
102
}
330
1776
100
AcDbPlotSettings
  1

  2
Xerox Document Centre CS50 PS
  4

  6

 40
0.0
 41
0.0
 42
0.0
 43
0.0
 44
0.0
 45
0.0
 46
0.0
 47
0.0
 48
0.0
 49
0.0
140
0.0
141
0.0
142
1.0
143
1.0
 70
  1712
 72
     0
 73
     0
 74
     0
  7

 75
     0
147
1.0
148
0.0
149
0.0
100
AcDbLayout
  1
Model
 70
     1
 71
     0
 10
0.0
 20
0.0
 11
12.0
 21
9.0
 12
0.0
 22
0.0
 32
0.0
 14
0.0
 24
0.0
 34
0.0
 15
0.0
 25
0.0
 35
0.0
146
0.0
 13
0.0
 23
0.0
 33
0.0
 16
1.0
 26
0.0
 36
0.0
 17
0.0
 27
1.0
 37
0.0
 76
     0
330
1585
  0
MLINESTYLE
  5
1589
102
{ACAD_REACTORS
330
1588
102
}
330
1588
100
AcDbMlineStyle
  2
STANDARD
 70
     0
  3

 62
   256
 51
90.0
 52
90.0
 71
     2
 49
0.5
 62
   256
  6
BYLAYER
 49
-0.5
 62
   256
  6
BYLAYER
  0
ACDBPLACEHOLDER
  5
1771
102
{ACAD_REACTORS
330
1770
102
}
330
1770
  0
TABLESTYLE
  5
1775
102
{ACAD_REACTORS
330
1774
102
}
330
1774
100
AcDbTableStyle
  3
Standard
 70
     0
 71
     0
 40
1.5
 41
1.5
280
     0
281
     0
  7
STANDARD
140
4.5
170
     2
 62
     0
 63
     7
283
     0
274
    -2
284
     1
 64
     0
275
    -2
285
     1
 65
     0
276
    -2
286
     1
 66
     0
277
    -2
287
     1
 67
     0
278
    -2
288
     1
 68
     0
279
    -2
289
     1
 69
     0
  7
STANDARD
140
6.0
170
     5
 62
     0
 63
     7
283
     0
274
    -2
284
     1
 64
     0
275
    -2
285
     1
 65
     0
276
    -2
286
     1
 66
     0
277
    -2
287
     1
 67
     0
278
    -2
288
     1
 68
     0
279
    -2
289
     1
 69
     0
  7
STANDARD
140
4.5
170
     5
 62
     0
 63
     7
283
     0
274
    -2
284
     1
 64
     0
275
    -2
285
     1
 65
     0
276
    -2
286
     1
 66
     0
277
    -2
287
     1
 67
     0
278
    -2
288
     1
 68
     0
279
    -2
289
     1
 69
     0
  0
DICTIONARYVAR
  5
184C
102
{ACAD_REACTORS
330
184B
102
}
330
184B
100
DictionaryVariables
280
     0
  1
STANDARD
  0
DICTIONARYVAR
  5
1855
102
{ACAD_REACTORS
330
184B
102
}
330
184B
100
DictionaryVariables
280
     0
  1
1
  0
DICTIONARYVAR
  5
1856
102
{ACAD_REACTORS
330
184B
102
}
330
184B
100
DictionaryVariables
280
     0
  1

  0
DICTIONARY
  5
17E0
102
{ACAD_REACTORS
330
17D5
102
}
330
17D5
100
AcDbDictionary
281
     1
  0
XRECORD
  5
1803
102
{ACAD_REACTORS
330
17D5
102
}
330
17D5
100
AcDbXrecord
280
     1
 90
-1023410169
  0
DICTIONARY
  5
185B
330
1779
100
AcDbDictionary
280
     1
281
     1
  3
ACAD_XREC_ROUNDTRIP
360
185C
  0
DICTIONARY
  5
1859
330
1778
100
AcDbDictionary
280
     1
281
     1
  3
ACAD_XREC_ROUNDTRIP
360
185A
  0
XRECORD
  5
185C
102
{ACAD_REACTORS
330
185B
102
}
330
185B
100
AcDbXrecord
280
     1
102
SHADEPLOT
 70
     0
102
SHADEPLOTRESLEVEL
 70
     2
102
SHADEPLOTCUSTOMDPI
 70
   300
  0
XRECORD
  5
185A
102
{ACAD_REACTORS
330
1859
102
}
330
1859
100
AcDbXrecord
280
     1
102
SHADEPLOT
 70
     0
102
SHADEPLOTRESLEVEL
 70
     2
102
SHADEPLOTCUSTOMDPI
 70
   300
  0
ENDSEC
  0
EOF
