  0
SECTION
  2
HEADER
  9
$ACADVER
  1
AC1015
  9
$ACADMAINTVER
 70
    20
  9
$DWGCODEPAGE
  3
ANSI_1252
  9
$INSBASE
 10
0.0
 20
0.0
 30
0.0
  9
$EXTMIN
 10
122.293856346856
 20
138.3956935238043
 30
-0.0015258207003583
  9
$EXTMAX
 10
820.3605673629331
 20
544.786836573373
 30
0.0000000349246037
  9
$LIMMIN
 10
0.0
 20
0.0
  9
$LIMMAX
 10
1050.0
 20
1050.0
  9
$ORTHOMODE
 70
     0
  9
$REGENMODE
 70
     1
  9
$FILLMODE
 70
     1
  9
$QTEXTMODE
 70
     0
  9
$MIRRTEXT
 70
     0
  9
$LTSCALE
 40
5.0
  9
$ATTMODE
 70
     1
  9
$TEXTSIZE
 40
17.5
  9
$TRACEWID
 40
0.05
  9
$TEXTSTYLE
  7
STANDARD
  9
$CLAYER
  8
0
  9
$CELTYPE
  6
BYLAYER
  9
$CECOLOR
 62
   256
  9
$CELTSCALE
 40
1.0
  9
$DISPSILH
 70
     0
  9
$DIMSCALE
 40
5.0
  9
$DIMASZ
 40
2.5
  9
$DIMEXO
 40
1.0
  9
$DIMDLI
 40
7.0
  9
$DIMRND
 40
0.0
  9
$DIMDLE
 40
0.0
  9
$DIMEXE
 40
1.0
  9
$DIMTP
 40
0.1
  9
$DIMTM
 40
0.1
  9
$DIMTXT
 40
3.5
  9
$DIMCEN
 40
0.0
  9
$DIMTSZ
 40
0.0
  9
$DIMTOL
 70
     0
  9
$DIMLIM
 70
     0
  9
$DIMTIH
 70
     0
  9
$DIMTOH
 70
     0
  9
$DIMSE1
 70
     0
  9
$DIMSE2
 70
     0
  9
$DIMTAD
 70
     1
  9
$DIMZIN
 70
    12
  9
$DIMBLK
  1

  9
$DIMASO
 70
     1
  9
$DIMSHO
 70
     1
  9
$DIMPOST
  1

  9
$DIMAPOST
  1
"
  9
$DIMALT
 70
     0
  9
$DIMALTD
 70
     2
  9
$DIMALTF
 40
0.03937
  9
$DIMLFAC
 40
1.0
  9
$DIMTOFL
 70
     1
  9
$DIMTVP
 40
0.0
  9
$DIMTIX
 70
     0
  9
$DIMSOXD
 70
     0
  9
$DIMSAH
 70
     0
  9
$DIMBLK1
  1

  9
$DIMBLK2
  1

  9
$DIMSTYLE
  2
GEN-ISO
  9
$DIMCLRD
 70
   256
  9
$DIMCLRE
 70
   256
  9
$DIMCLRT
 70
     2
  9
$DIMTFAC
 40
0.71
  9
$DIMGAP
 40
0.6
  9
$DIMJUST
 70
     0
  9
$DIMSD1
 70
     0
  9
$DIMSD2
 70
     0
  9
$DIMTOLJ
 70
     0
  9
$DIMTZIN
 70
     0
  9
$DIMALTZ
 70
     0
  9
$DIMALTTZ
 70
     0
  9
$DIMUPT
 70
     0
  9
$DIMDEC
 70
     2
  9
$DIMTDEC
 70
     3
  9
$DIMALTU
 70
     2
  9
$DIMALTTD
 70
     4
  9
$DIMTXSTY
  7
STANDARD
  9
$DIMAUNIT
 70
     0
  9
$DIMADEC
 70
     0
  9
$DIMALTRND
 40
0.0
  9
$DIMAZIN
 70
     0
  9
$DIMDSEP
 70
    46
  9
$DIMATFIT
 70
     3
  9
$DIMFRAC
 70
     0
  9
$DIMLDRBLK
  1

  9
$DIMLUNIT
 70
     2
  9
$DIMLWD
 70
    -2
  9
$DIMLWE
 70
    -2
  9
$DIMTMOVE
 70
     0
  9
$LUNITS
 70
     2
  9
$LUPREC
 70
     2
  9
$SKETCHINC
 40
0.1
  9
$FILLETRAD
 40
12.5
  9
$AUNITS
 70
     0
  9
$AUPREC
 70
     2
  9
$MENU
  1
.
  9
$ELEVATION
 40
0.0
  9
$PELEVATION
 40
0.0
  9
$THICKNESS
 40
0.0
  9
$LIMCHECK
 70
     0
  9
$CHAMFERA
 40
12.5
  9
$CHAMFERB
 40
12.5
  9
$CHAMFERC
 40
0.0
  9
$CHAMFERD
 40
0.0
  9
$SKPOLY
 70
     0
  9
$TDCREATE
 40
2451226.612841967
  9
$TDUCREATE
 40
2451226.571175301
  9
$TDUPDATE
 40
2454038.557115706
  9
$TDUUPDATE
 40
2454038.515449039
  9
$TDINDWG
 40
0.0083308449
  9
$TDUSRTIMER
 40
0.0083306134
  9
$USRTIMER
 70
     1
  9
$ANGBASE
 50
0.0
  9
$ANGDIR
 70
     0
  9
$PDMODE
 70
     0
  9
$PDSIZE
 40
0.0
  9
$PLINEWID
 40
0.0
  9
$SPLFRAME
 70
     0
  9
$SPLINETYPE
 70
     6
  9
$SPLINESEGS
 70
     8
  9
$HANDSEED
  5
164D
  9
$SURFTAB1
 70
     6
  9
$SURFTAB2
 70
     6
  9
$SURFTYPE
 70
     6
  9
$SURFU
 70
     6
  9
$SURFV
 70
     6
  9
$UCSBASE
  2

  9
$UCSNAME
  2

  9
$UCSORG
 10
0.0
 20
0.0
 30
0.0
  9
$UCSXDIR
 10
1.0
 20
0.0
 30
0.0
  9
$UCSYDIR
 10
0.0
 20
1.0
 30
0.0
  9
$UCSORTHOREF
  2

  9
$UCSORTHOVIEW
 70
     0
  9
$UCSORGTOP
 10
0.0
 20
0.0
 30
0.0
  9
$UCSORGBOTTOM
 10
0.0
 20
0.0
 30
0.0
  9
$UCSORGLEFT
 10
0.0
 20
0.0
 30
0.0
  9
$UCSORGRIGHT
 10
0.0
 20
0.0
 30
0.0
  9
$UCSORGFRONT
 10
0.0
 20
0.0
 30
0.0
  9
$UCSORGBACK
 10
0.0
 20
0.0
 30
0.0
  9
$PUCSBASE
  2

  9
$PUCSNAME
  2

  9
$PUCSORG
 10
0.0
 20
0.0
 30
0.0
  9
$PUCSXDIR
 10
1.0
 20
0.0
 30
0.0
  9
$PUCSYDIR
 10
0.0
 20
1.0
 30
0.0
  9
$PUCSORTHOREF
  2

  9
$PUCSORTHOVIEW
 70
     0
  9
$PUCSORGTOP
 10
0.0
 20
0.0
 30
0.0
  9
$PUCSORGBOTTOM
 10
0.0
 20
0.0
 30
0.0
  9
$PUCSORGLEFT
 10
0.0
 20
0.0
 30
0.0
  9
$PUCSORGRIGHT
 10
0.0
 20
0.0
 30
0.0
  9
$PUCSORGFRONT
 10
0.0
 20
0.0
 30
0.0
  9
$PUCSORGBACK
 10
0.0
 20
0.0
 30
0.0
  9
$USERI1
 70
     0
  9
$USERI2
 70
     0
  9
$USERI3
 70
     0
  9
$USERI4
 70
     0
  9
$USERI5
 70
     0
  9
$USERR1
 40
0.0
  9
$USERR2
 40
0.0
  9
$USERR3
 40
0.0
  9
$USERR4
 40
0.0
  9
$USERR5
 40
0.0
  9
$WORLDVIEW
 70
     1
  9
$SHADEDGE
 70
     3
  9
$SHADEDIF
 70
    70
  9
$TILEMODE
 70
     1
  9
$MAXACTVP
 70
    48
  9
$PINSBASE
 10
0.0
 20
0.0
 30
0.0
  9
$PLIMCHECK
 70
     0
  9
$PEXTMIN
 10
0.0
 20
0.0
 30
0.0
  9
$PEXTMAX
 10
210.001
 20
297.001
 30
0.0
  9
$PLIMMIN
 10
0.0
 20
0.0
  9
$PLIMMAX
 10
210.001
 20
297.001
  9
$UNITMODE
 70
     0
  9
$VISRETAIN
 70
     1
  9
$PLINEGEN
 70
     1
  9
$PSLTSCALE
 70
     1
  9
$TREEDEPTH
 70
 -3020
  9
$CMLSTYLE
  2
STANDARD
  9
$CMLJUST
 70
     0
  9
$CMLSCALE
 40
1.0
  9
$PROXYGRAPHICS
 70
     1
  9
$MEASUREMENT
 70
     1
  9
$CELWEIGHT
370
    -1
  9
$ENDCAPS
280
     0
  9
$JOINSTYLE
280
     0
  9
$LWDISPLAY
290
     0
  9
$INSUNITS
 70
     0
  9
$HYPERLINKBASE
  1

  9
$STYLESHEET
  1

  9
$XEDIT
290
     1
  9
$CEPSNTYPE
380
     0
  9
$PSTYLEMODE
290
     1
  9
$FINGERPRINTGUID
  2
{F30B97F6-E13C-4470-82C7-AF9C008681F7}
  9
$VERSIONGUID
  2
{A059F8E0-8E21-4293-83A0-52953DAF0E1E}
  9
$EXTNAMES
290
     1
  9
$PSVPSCALE
 40
0.0
  9
$OLESTARTUP
290
     0
  0
ENDSEC
  0
SECTION
  2
CLASSES
  0
CLASS
  1
ACDBDICTIONARYWDFLT
  2
AcDbDictionaryWithDefault
  3
ObjectDBX Classes
 90
        0
280
     0
281
     0
  0
CLASS
  1
TABLESTYLE
  2
AcDbTableStyle
  3
ObjectDBX Classes
 90
     2047
280
     0
281
     0
  0
CLASS
  1
AMGSETTINGSOBJ
  2
AmgSettingsObj
  3
"AcadM|Product Description: AutoCAD Mechanical 2000|Company: Autodesk"
 90
        0
280
     0
281
     0
  0
CLASS
  1
ACME_DOCUMENT
  2
AcMeDbDoc
  3
AcMeServices
 90
        0
280
     0
281
     0
  0
CLASS
  1
ACMESCOPE
  2
AcMeScope
  3
AcMeServices
 90
        0
280
     0
281
     0
  0
CLASS
  1
ACMECOMMANDHISTORY
  2
AcMeCommandHistory
  3
AcMeServices
 90
        0
280
     0
281
     0
  0
CLASS
  1
ACIMSYSVARMAN
  2
AcImSysVarManager
  3
AcMeServices
 90
        0
280
     0
281
     0
  0
CLASS
  1
ACIMINTSYSVAR
  2
AcImIntSysVar
  3
AcMeServices
 90
        0
280
     0
281
     0
  0
CLASS
  1
ACMEDRAWINGMAN
  2
AcMeDrawingMan
  3
AcMeServices
 90
        0
280
     0
281
     0
  0
CLASS
  1
ACMEVIEW
  2
AcMeView
  3
AcMeServices
 90
        0
280
     0
281
     0
  0
CLASS
  1
ACDBENTITYCACHE
  2
AcMeEntityCache
  3
AcMeServices
 90
        0
280
     0
281
     0
  0
CLASS
  1
GSMANAGER
  2
AcMeGSManager
  3
AcMeServices
 90
        0
280
     0
281
     0
  0
CLASS
  1
AMDTINTERNALREACTOR
  2
AmdtInternalReactor
  3
AcMeServices
 90
        0
280
     0
281
     0
  0
CLASS
  1
ACMESTATEMGR
  2
AcMeStateMgr
  3
AcMeServices
 90
        0
280
     0
281
     0
  0
CLASS
  1
ACGREFMASTER
  2
AcGrefMaster
  3
AcAttribServices
 90
        0
280
     0
281
     0
  0
CLASS
  1
AM_DRAWING_MGR
  2
AcDmDwgMgr
  3
AcMechDwgViewMgmt
 90
        0
280
     0
281
     0
  0
CLASS
  1
AM_DWG_DOCUMENT
  2
AcDmDwgDocument
  3
AcMechDwgViewMgmt
 90
        0
280
     0
281
     0
  0
CLASS
  1
AM_DWG_SHEET
  2
AcDmSheet
  3
AcMechDwgViewMgmt
 90
        0
280
     0
281
     0
  0
CLASS
  1
AM_VIEWDIMPARMAP
  2
AcDmViewDimParMap
  3
AcMechDwgViewMgmt
 90
        0
280
     0
281
     0
  0
CLASS
  1
ACIMREALSYSVAR
  2
AcImRealSysVar
  3
AcMeServices
 90
        0
280
     0
281
     0
  0
CLASS
  1
AM_DWGMGR_NAME
  2
AcDmDwgMgrName
  3
AcMechDwgViewMgmt
 90
        0
280
     0
281
     0
  0
CLASS
  1
ACME_DATABASE
  2
AcMeDbDatabase
  3
AcMeServices
 90
        0
280
     0
281
     0
  0
CLASS
  1
ACRFINSADJUSTERMGR
  2
AcRfInsAdjusterMgr
  3
AcMeServices
 90
        0
280
     0
281
     0
  0
CLASS
  1
ACGREFACADMASTER
  2
AcGrefacadMaster
  3
AcGrefServices
 90
        0
280
     0
281
     0
  0
CLASS
  1
AMDTMENUSTATEMGR
  2
AmdtMenuStateMgr
  3
McadcomServices
 90
        0
280
     0
281
     0
  0
CLASS
  1
AMDTMCOMMENUSTATE
  2
AmdtMcomMenuState
  3
McadcomServices
 90
        0
280
     0
281
     0
  0
CLASS
  1
AMIMASTER
  2
AmiMaster
  3
AmiServices
 90
        0
280
     0
281
     0
  0
CLASS
  1
MAPIAMMOUDLE
  2
MApiAmModule
  3
MApiAmServices
 90
        0
280
     0
281
     0
  0
CLASS
  1
ACIMSTRSYSVAR
  2
AcImStrSysVar
  3
AcMeServices
 90
        0
280
     0
281
     0
  0
CLASS
  1
AMDTADMENUSTATE
  2
AmdtAdMenuState
  3
DesignerServices
 90
        0
280
     0
281
     0
  0
CLASS
  1
ADAPPL
  2
AcAdAppl
  3
DesignerServices
 90
        0
280
     0
281
     0
  0
CLASS
  1
DEPMGR
  2
AcAdDepMgr
  3
DesignerServices
 90
        0
280
     0
281
     0
  0
CLASS
  1
PARAMMGR
  2
AcAdParamMgr
  3
DesignerServices
 90
        0
280
     0
281
     0
  0
CLASS
  1
PARAMSCOPE
  2
AcAdParamScope
  3
DesignerServices
 90
        0
280
     0
281
     0
  0
CLASS
  1
NAMEDAPPL
  2
AcAdNamedAppl
  3
DesignerServices
 90
        0
280
     0
281
     0
  0
CLASS
  1
AMDTDMMENUSTATE
  2
AmdtDmMenuState
  3
AcMechDwgViewMgmt
 90
        0
280
     0
281
     0
  0
CLASS
  1
AMDTAMMENUSTATE
  2
AmdtAmMenuState
  3
DesignerAssemblies
 90
        0
280
     0
281
     0
  0
CLASS
  1
ACAMPROJECT
  2
AcAmProject
  3
DesignerAssemblies
 90
        0
280
     0
281
     0
  0
CLASS
  1
ACAMGRCOMPDEF
  2
AcAmGrCompDef
  3
DesignerAssemblies
 90
        0
280
     0
281
     0
  0
CLASS
  1
ACCMCONTEXT
  2
AcCmContext
  3
DesignerAssemblies
 90
        0
280
     0
281
     0
  0
CLASS
  1
ACAMCOMPDEF
  2
AcAmCompDef
  3
DesignerAssemblies
 90
        0
280
     0
281
     0
  0
CLASS
  1
ACAMCOMPDEFMGR
  2
AcAmCompDefMgr
  3
DesignerAssemblies
 90
        0
280
     0
281
     0
  0
CLASS
  1
AMCONTEXTMGR
  2
AcAmContextMgr
  3
DesignerAssemblies
 90
        0
280
     0
281
     0
  0
CLASS
  1
ACAMCONTEXTMODELER
  2
AcAmContextModeler
  3
DesignerAssemblies
 90
        0
280
     0
281
     0
  0
CLASS
  1
ACMDATADICTIONARY
  2
AcmDataDictionary
  3
"AcmSymBB|Product Description: AutoCAD Mechanical 2004 DX|Company: Autodesk"
 90
        0
280
     0
281
     0
  0
CLASS
  1
CATALOGSTATE
  2
AcAmCatalogState
  3
DesignerAssemblies
 90
        0
280
     0
281
     0
  0
CLASS
  1
ACAMGRCOMPDEFSET
  2
AcAmGrCompDefSet
  3
DesignerAssemblies
 90
        0
280
     0
281
     0
  0
CLASS
  1
AMDTBROWSERDBTAB
  2
AmdtBrowserDbTab
  3
McadcomServices
 90
        0
280
     0
281
     0
  0
CLASS
  1
CBROWSERAPPOBJECT
  2
CBrowserAppObject
  3
McadcomServices
 90
        0
280
     0
281
     0
  0
CLASS
  1
DM_PLACEHOLDER
  2
AcDmSelsetPlaceholder
  3
AcMechDwgViewMgmt
 90
        0
280
     0
281
     0
  0
CLASS
  1
ACMSTANDARDDIN
  2
AcmStandardDIN
  3
"Amdt_StdImp|Product Description: AutoCAD Mechanical 2004 DX|Company: Autodesk"
 90
        0
280
     0
281
     0
  0
CLASS
  1
AMGOBJPROPCFG
  2
AmgObjPropCfg
  3
"AmgLay|Product Description: AutoCAD Mechanical 2000|Company: Autodesk"
 90
        1
280
     0
281
     0
  0
CLASS
  1
AMDTEDGESTANDARDDIN13715
  2
AmdtEdgeStdDIN13715
  3
"Amdt_StdImp|Product Description: AutoCAD Mechanical 2004 DX|Company: Autodesk"
 90
        0
280
     0
281
     0
  0
CLASS
  1
ACMSURFSTANDARDDIN
  2
AcmSurfTextStdDIN
  3
"Amdt_StdImp|Product Description: AutoCAD Mechanical 2004 DX|Company: Autodesk"
 90
        0
280
     0
281
     0
  0
CLASS
  1
ACMFCFSTANDARDDIN
  2
AcmFCFStdDIN
  3
"Amdt_StdImp|Product Description: AutoCAD Mechanical 2004 DX|Company: Autodesk"
 90
        0
280
     0
281
     0
  0
CLASS
  1
ACMWELDSTANDARDDIN
  2
AcmWeldingStdDIN
  3
"Amdt_StdImp|Product Description: AutoCAD Mechanical 2004 DX|Company: Autodesk"
 90
        0
280
     0
281
     0
  0
CLASS
  1
ACMIDSTANDARDDIN
  2
AcmIdStdDIN
  3
"Amdt_StdImp|Product Description: AutoCAD Mechanical 2004 DX|Company: Autodesk"
 90
        0
280
     0
281
     0
  0
CLASS
  1
ACMDATUMSTANDARDDIN
  2
AcmDatumStdDIN
  3
"Amdt_StdImp|Product Description: AutoCAD Mechanical 2004 DX|Company: Autodesk"
 90
        0
280
     0
281
     0
  0
CLASS
  1
ACMBOMSTANDARDDIN
  2
AcmBOMStdDIN
  3
"Amdt_StdImp|Product Description: AutoCAD Mechanical 2004 DX|Company: Autodesk"
 90
        0
280
     0
281
     0
  0
CLASS
  1
ACMDETAILSTANDARDDIN
  2
AmdtDetailSymStdDIN
  3
"Amdt_StdImp|Product Description: AutoCAD Mechanical 2004 DX|Company: Autodesk"
 90
        0
280
     0
281
     0
  0
CLASS
  1
ACMSECTIONSTANDARDDIN
  2
AmdtSectionSymStdDIN
  3
"Amdt_StdImp|Product Description: AutoCAD Mechanical 2004 DX|Company: Autodesk"
 90
        0
280
     0
281
     0
  0
CLASS
  1
ACMCENTERLINESTANDARDDIN
  2
AmdtCenterLineStdDIN
  3
"Amdt_StdImp|Product Description: AutoCAD Mechanical 2004 DX|Company: Autodesk"
 90
        0
280
     0
281
     0
  0
CLASS
  1
ACMTHREADLINESTANDARDDIN
  2
AmdtThreadLineStdDIN
  3
"Amdt_StdImp|Product Description: AutoCAD Mechanical 2004 DX|Company: Autodesk"
 90
        0
280
     0
281
     0
  0
CLASS
  1
ACMNOTESTANDARDDIN
  2
AmdtNoteStdDIN
  3
"Amdt_StdImp|Product Description: AutoCAD Mechanical 2004 DX|Company: Autodesk"
 90
        0
280
     0
281
     0
  0
CLASS
  1
AMDTNOTETEMPLATEDB
  2
AmdtNoteTemplateDB
  3
AMDT_STDIMP_MODULE_NAME
 90
        0
280
     0
281
     0
  0
CLASS
  1
ACAMGLAYSTD
  2
AcAmgLayStd
  3
"AcAmgLayStd|Product Description: AutoCAD Mechanical 2000|Company: Autodesk"
 90
        0
280
     0
281
     0
  0
CLASS
  1
ACAMGDIMSTD
  2
AcAmgDimStd
  3
"AcAmgDimStd|Product Description: AutoCAD Mechanical 2000|Company: Autodesk"
 90
        0
280
     0
281
     0
  0
CLASS
  1
ACAMGHOLECHARTSTDDIN
  2
AcAmgHoleChartStdDIN
  3
ACMSYMBB_MODULE_NAME
 90
        0
280
     0
281
     0
  0
CLASS
  1
ACAMGTITLESTD
  2
AcAmgTitleStd
  3
"TITLEAPP"
 90
        0
280
     0
281
     0
  0
CLASS
  1
ACAMGFILTERDAT
  2
AcAmgFilterDat
  3
"AcadM|Product Description: AutoCAD Mechanical 2000|Company: Autodesk"
 90
        0
280
     0
281
     0
  0
CLASS
  1
DICTIONARYVAR
  2
AcDbDictionaryVar
  3
ObjectDBX Classes
 90
        0
280
     0
281
     0
  0
CLASS
  1
ACDBPLACEHOLDER
  2
AcDbPlaceHolder
  3
ObjectDBX Classes
 90
        0
280
     0
281
     0
  0
CLASS
  1
LAYOUT
  2
AcDbLayout
  3
ObjectDBX Classes
 90
        0
280
     0
281
     0
  0
ENDSEC
  0
SECTION
  2
TABLES
  0
TABLE
  2
VPORT
  5
136A
330
0
100
AcDbSymbolTable
 70
     5
  0
VPORT
  5
1647
330
136A
100
AcDbSymbolTableRecord
100
AcDbViewportTableRecord
  2
*Active
 70
     0
 10
0.0
 20
0.0
 11
1.0
 21
1.0
 12
471.3272118548945
 22
341.5912650485886
 13
0.0
 23
0.0
 14
5.0
 24
5.0
 15
50.0
 25
50.0
 16
0.0
 26
0.0
 36
1.0
 17
0.0
 27
0.0
 37
0.0
 40
469.3463920368396
 41
1.494545454545454
 42
50.0
 43
0.0
 44
0.0
 50
0.0
 51
0.0
 71
     0
 72
  1000
 73
     1
 74
     1
 75
     0
 76
     0
 77
     0
 78
     0
281
     0
 65
     0
110
0.0
120
0.0
130
0.0
111
1.0
121
0.0
131
0.0
112
0.0
122
1.0
132
0.0
 79
     0
146
0.0
  0
ENDTAB
  0
TABLE
  2
LTYPE
  5
1367
330
0
100
AcDbSymbolTable
 70
    21
  0
LTYPE
  5
1374
330
1367
100
AcDbSymbolTableRecord
100
AcDbLinetypeTableRecord
  2
BYBLOCK
 70
     0
  3

 72
    65
 73
     0
 40
0.0
  0
LTYPE
  5
1375
330
1367
100
AcDbSymbolTableRecord
100
AcDbLinetypeTableRecord
  2
BYLAYER
 70
     0
  3

 72
    65
 73
     0
 40
0.0
  0
LTYPE
  5
1376
330
1367
100
AcDbSymbolTableRecord
100
AcDbLinetypeTableRecord
  2
CONTINUOUS
 70
     0
  3
Solid line
 72
    65
 73
     0
 40
0.0
  0
LTYPE
  5
1385
330
1367
100
AcDbSymbolTableRecord
100
AcDbLinetypeTableRecord
  2
GEN7
 70
     0
  3
____ _ ____ _ ____ _ ____ _ ____ _ ____ _ ____ _ ____ _ ____ _
 72
    65
 73
     4
 40
22.0
 49
10.75
 74
     0
 49
-3.75
 74
     0
 49
3.75
 74
     0
 49
-3.75
 74
     0
  0
LTYPE
  5
13BA
330
1367
100
AcDbSymbolTableRecord
100
AcDbLinetypeTableRecord
  2
GEN3A
 70
     0
  3
 - - - - -
 72
    65
 73
     2
 40
3.125
 49
2.25
 74
     0
 49
-0.875
 74
     0
  0
LTYPE
  5
159D
330
1367
100
AcDbSymbolTableRecord
100
AcDbLinetypeTableRecord
  2
HIDDEN
 70
     0
  3
Verdeckt
 72
    65
 73
     2
 40
9.525
 49
6.349999999999999
 74
     0
 49
-3.174999999999999
 74
     0
  0
LTYPE
  5
159E
330
1367
100
AcDbSymbolTableRecord
100
AcDbLinetypeTableRecord
  2
PHANTOM2
 70
     0
  3
Phantom (.5x) ___ _ _ ___ _ _ ___ _ _ ___ _ _
 72
    65
 73
     6
 40
31.75
 49
15.875
 74
     0
 49
-3.174999999999999
 74
     0
 49
3.174999999999999
 74
     0
 49
-3.174999999999999
 74
     0
 49
3.174999999999999
 74
     0
 49
-3.174999999999999
 74
     0
  0
LTYPE
  5
159F
330
1367
100
AcDbSymbolTableRecord
100
AcDbLinetypeTableRecord
  2
CENTER
 70
     0
  3
Mitte ____ _ ____ _ ____ _ ____ _ ____ _ ____
 72
    65
 73
     4
 40
50.8
 49
31.75
 74
     0
 49
-6.349999999999999
 74
     0
 49
6.349999999999999
 74
     0
 49
-6.349999999999999
 74
     0
  0
LTYPE
  5
15D6
330
1367
100
AcDbSymbolTableRecord
100
AcDbLinetypeTableRecord
  2
Amconstr
 70
     0
  3
_______________________
 72
    65
 73
     2
 40
9999.0
 49
9999.0
 74
     0
 49
0.0
 74
     0
  0
LTYPE
  5
15DB
330
1367
100
AcDbSymbolTableRecord
100
AcDbLinetypeTableRecord
  2
Amzigzag
 70
     0
  3
/\/-/\/-/\/-/\/-/\/-/\/
 72
    65
 73
     2
 40
11.0001
 49
0.0001
 74
     4
 75
   136
340
15DA
 46
0.04
 50
0.0
 44
0.0
 45
0.0
 49
-11.0
 74
     0
  0
LTYPE
  5
15DC
330
1367
100
AcDbSymbolTableRecord
100
AcDbLinetypeTableRecord
  2
AM_DIN_F_W050
 70
     0
  3
__ __ __ __ __ __ __ __ __ __ __ __ __ __ __
 72
    65
 73
     2
 40
6.25
 49
4.75
 74
     0
 49
-1.5
 74
     0
  0
LTYPE
  5
15DD
330
1367
100
AcDbSymbolTableRecord
100
AcDbLinetypeTableRecord
  2
AM_DIN_G_W050
 70
     0
  3
____ . ____ . ____ . ____ . ____ . ____ . ____
 72
    65
 73
     4
 40
13.75
 49
9.75
 74
     0
 49
-1.5
 74
     0
 49
1.0
 74
     0
 49
-1.5
 74
     0
  0
LTYPE
  5
15DE
330
1367
100
AcDbSymbolTableRecord
100
AcDbLinetypeTableRecord
  2
AM_DIN_K_W050
 70
     0
  3
_____ . . _____ . . _____ . . ____ .. ____
 72
    65
 73
     6
 40
16.25
 49
9.75
 74
     0
 49
-1.5
 74
     0
 49
1.0
 74
     0
 49
-1.5
 74
     0
 49
1.0
 74
     0
 49
-1.5
 74
     0
  0
LTYPE
  5
15DF
330
1367
100
AcDbSymbolTableRecord
100
AcDbLinetypeTableRecord
  2
AM_DIN_G_W050x2
 70
     0
  3
__ . __ . __ . __ . __ . __
 72
    65
 73
     4
 40
6.875
 49
4.75
 74
     0
 49
-0.875
 74
     0
 49
0.375
 74
     0
 49
-0.875
 74
     0
  0
LTYPE
  5
15E0
330
1367
100
AcDbSymbolTableRecord
100
AcDbLinetypeTableRecord
  2
AM_DIN_F_W050x2
 70
     0
  3
 _ _ _ _ _ _ _ _ _ _ _ _
 72
    65
 73
     2
 40
3.125
 49
2.25
 74
     0
 49
-0.875
 74
     0
  0
LTYPE
  5
15EF
330
1367
100
AcDbSymbolTableRecord
100
AcDbLinetypeTableRecord
  2
ACDINWELD
 70
     0
  3
_ _ _ _ _
 72
    65
 73
     2
 40
2.0
 49
2.0
 74
     0
 49
-1.0
 74
     0
  0
LTYPE
  5
15F0
330
1367
100
AcDbSymbolTableRecord
100
AcDbLinetypeTableRecord
  2
ACDINTGB
 70
     0
  3
__ . . __ . .
 72
    65
 73
     6
 40
9.0
 49
4.0
 74
     0
 49
-1.0
 74
     0
 49
1.0
 74
     0
 49
-1.0
 74
     0
 49
1.0
 74
     0
 49
-1.0
 74
     0
  0
LTYPE
  5
15F1
330
1367
100
AcDbSymbolTableRecord
100
AcDbLinetypeTableRecord
  2
ACDINTGL
 70
     0
  3
_ _ _ _ _
 72
    65
 73
     2
 40
3.0
 49
2.0
 74
     0
 49
-1.0
 74
     0
  0
ENDTAB
  0
TABLE
  2
LAYER
  5
1364
330
0
100
AcDbSymbolTable
 70
    12
  0
LAYER
  5
1370
330
1364
100
AcDbSymbolTableRecord
100
AcDbLayerTableRecord
  2
0
 70
     0
 62
     7
  6
CONTINUOUS
370
    -3
390
1561
  0
LAYER
  5
138A
330
1364
100
AcDbSymbolTableRecord
100
AcDbLayerTableRecord
  2
3A
 70
     0
 62
     6
  6
GEN3A
370
    -3
390
1561
  0
LAYER
  5
138B
330
1364
100
AcDbSymbolTableRecord
100
AcDbLayerTableRecord
  2
4
 70
     0
 62
     3
  6
CONTINUOUS
370
    -3
390
1561
  0
LAYER
  5
138D
330
1364
100
AcDbSymbolTableRecord
100
AcDbLayerTableRecord
  2
5
 70
     0
 62
     3
  6
CONTINUOUS
370
    -3
390
1561
  0
LAYER
  5
1390
330
1364
100
AcDbSymbolTableRecord
100
AcDbLayerTableRecord
  2
8
 70
     0
 62
     1
  6
CONTINUOUS
370
    -3
390
1561
  0
LAYER
  5
1393
330
1364
100
AcDbSymbolTableRecord
100
AcDbLayerTableRecord
  2
SCHRAFFUR_RAND
 70
     1
 62
    36
  6
CONTINUOUS
370
    -3
390
1561
  0
LAYER
  5
13B3
330
1364
100
AcDbSymbolTableRecord
100
AcDbLayerTableRecord
  2
MAßLINIEN
 70
     0
 62
    30
  6
GEN7
370
    -3
390
1561
  0
LAYER
  5
13C3
330
1364
100
AcDbSymbolTableRecord
100
AcDbLayerTableRecord
  2
DEFPOINTS
 70
     0
 62
     7
  6
CONTINUOUS
290
     0
370
    -3
390
1561
  0
ENDTAB
  0
TABLE
  2
STYLE
  5
1365
330
0
100
AcDbSymbolTable
 70
     4
  0
STYLE
  5
1371
330
1365
100
AcDbSymbolTableRecord
100
AcDbTextStyleTableRecord
  2
STANDARD
 70
     0
 40
0.0
 41
1.0
 50
0.0
 71
     0
 42
17.5
  3
ISOCP.SHX
  4

  0
STYLE
  5
15DA
330
1365
100
AcDbSymbolTableRecord
100
AcDbTextStyleTableRecord
  2

 70
     1
 40
0.0
 41
1.0
 50
0.0
 71
     0
 42
0.2
  3
genltshp.shx
  4

  0
STYLE
  5
15E1
330
1365
100
AcDbSymbolTableRecord
100
AcDbTextStyleTableRecord
  2
ACDINTS
 70
     0
 40
1.0
 41
1.0
 50
0.0
 71
     0
 42
0.2
  3
isocp.shx
  4

  0
STYLE
  5
15EE
330
1365
100
AcDbSymbolTableRecord
100
AcDbTextStyleTableRecord
  2
ACDINGDT
 70
     0
 40
0.0
 41
1.0
 50
0.0
 71
     0
 42
0.2
  3
AMGDT
  4

  0
ENDTAB
  0
TABLE
  2
VIEW
  5
1368
330
0
100
AcDbSymbolTable
 70
     6
  0
VIEW
  5
141E
330
1368
100
AcDbSymbolTableRecord
100
AcDbViewTableRecord
  2
GEN1
 70
     0
 40
525.0
 10
394.960474
 20
787.5
 41
789.920949
 11
0.0
 21
0.0
 31
1.0
 12
0.0
 22
0.0
 32
0.0
 42
50.0
 43
0.0
 44
0.0
 50
0.0
 71
     0
281
     0
 72
     0
  0
VIEW
  5
141F
330
1368
100
AcDbSymbolTableRecord
100
AcDbViewTableRecord
  2
GEN2
 70
     0
 40
525.0
 10
655.039526
 20
787.5
 41
789.920949
 11
0.0
 21
0.0
 31
1.0
 12
0.0
 22
0.0
 32
0.0
 42
50.0
 43
0.0
 44
0.0
 50
0.0
 71
     0
281
     0
 72
     0
  0
VIEW
  5
1420
330
1368
100
AcDbSymbolTableRecord
100
AcDbViewTableRecord
  2
GEN3
 70
     0
 40
525.0
 10
394.960474
 20
262.5
 41
789.920949
 11
0.0
 21
0.0
 31
1.0
 12
0.0
 22
0.0
 32
0.0
 42
50.0
 43
0.0
 44
0.0
 50
0.0
 71
     0
281
     0
 72
     0
  0
VIEW
  5
1421
330
1368
100
AcDbSymbolTableRecord
100
AcDbViewTableRecord
  2
GEN4
 70
     0
 40
525.0
 10
655.039526
 20
262.5
 41
789.920949
 11
0.0
 21
0.0
 31
1.0
 12
0.0
 22
0.0
 32
0.0
 42
50.0
 43
0.0
 44
0.0
 50
0.0
 71
     0
281
     0
 72
     0
  0
VIEW
  5
1422
330
1368
100
AcDbSymbolTableRecord
100
AcDbViewTableRecord
  2
GEN5
 70
     0
 40
525.0
 10
525.0
 20
525.0
 41
789.920949
 11
0.0
 21
0.0
 31
1.0
 12
0.0
 22
0.0
 32
0.0
 42
50.0
 43
0.0
 44
0.0
 50
0.0
 71
     0
281
     0
 72
     0
  0
VIEW
  5
1423
330
1368
100
AcDbSymbolTableRecord
100
AcDbViewTableRecord
  2
GEN6
 70
     0
 40
1049.9895
 10
525.0
 20
525.0
 41
1579.826099
 11
0.0
 21
0.0
 31
1.0
 12
0.0
 22
0.0
 32
0.0
 42
50.0
 43
0.0
 44
0.0
 50
0.0
 71
     0
281
     0
 72
     0
  0
ENDTAB
  0
TABLE
  2
UCS
  5
1369
330
0
100
AcDbSymbolTable
 70
     0
  0
ENDTAB
  0
TABLE
  2
APPID
  5
136B
330
0
100
AcDbSymbolTable
 70
    36
  0
APPID
  5
1372
330
136B
100
AcDbSymbolTableRecord
100
AcDbRegAppTableRecord
  2
ACAD
 70
     0
  0
APPID
  5
13AA
330
136B
100
AcDbSymbolTableRecord
100
AcDbRegAppTableRecord
  2
GENIUS_GENOENT_13
 70
     0
  0
APPID
  5
13AB
330
136B
100
AcDbSymbolTableRecord
100
AcDbRegAppTableRecord
  2
GENIUS_GENCFG_13
 70
     0
1001
GENIUS_GENCFG0_13
1000
GEN@INFO_POS@XLATE
1001
GENIUS_GENCFG1_13
1000
GEN@INFO_POS
1001
GENIUS_GENCFG2_13
1000
GEN@LAYER@DEFS
1001
GENIUS_GENCFG3_13
1000
GEN@LAYER@ENTSORT
1001
GENIUS_GENCFG4_13
1000
GEN
1001
GENIUS_GEVCFG0_13
1000
GEV
1001
GENIUS_DUMCFG0_13
1000
DUM
  0
APPID
  5
13AC
330
136B
100
AcDbSymbolTableRecord
100
AcDbRegAppTableRecord
  2
GENIUS_DUMCFG0_13
 70
     0
1001
GENIUS_GENCFG_13
1071
937214870
1000
13AC
1000
DUM
1070
     0
  0
APPID
  5
13AD
330
136B
100
AcDbSymbolTableRecord
100
AcDbRegAppTableRecord
  2
GENIUS_GENCFG0_13
 70
     0
1001
GENIUS_GENCFG_13
1071
1020868122
1000
13AD
1000
GEN@INFO_POS@XLATE
1070
     7
1000
GenCfgObject
1000
GenCfgShort
1000
GenCfgReal
1000
GenCfgBool
1000
GenCfgString
1000
GenCfgDim
1000
GenCfgAttrInf
1000
INFOPOINTS
1070
     0
1002
{
1000
GENINF14
1070
     0
1002
{
1000
2GENINF
1070
     4
1000
2
1002
{
1002
}
1000
5GENINF
1070
     4
1000
5
1002
{
1002
}
1000
7GENINF
1070
     4
1000
7
1002
{
1002
}
1000
9GENINF
1070
     4
1000
9
1002
{
1002
}
1000
11GENINF
1070
     4
1000
11
1002
{
1002
}
1000
14GENINF
1070
     4
1000
14
1002
{
1002
}
1002
}
1000
GENINF13
1070
     0
1002
{
1000
2GENINF
1070
     4
1000
2
1002
{
1002
}
1000
3GENINF
1070
     4
1000
3
1002
{
1002
}
1000
4GENINF
1070
     4
1000
4
1002
{
1002
}
1000
5GENINF
1070
     4
1000
5
1002
{
1002
}
1000
6GENINF
1070
     4
1000
6
1002
{
1002
}
1000
7GENINF
1070
     4
1000
7
1002
{
1002
}
1000
8GENINF
1070
     4
1000
8
1002
{
1002
}
1000
9GENINF
1070
     4
1000
9
1002
{
1002
}
1000
10GENINF
1070
     4
1000
10
1002
{
1002
}
1000
11GENINF
1070
     4
1000
11
1002
{
1002
}
1000
12GENINF
1070
     4
1000
12
1002
{
1002
}
1000
13GENINF
1070
     4
1000
13
1002
{
1002
}
1000
14GENINF
1070
     4
1000
14
1002
{
1002
}
1000
15GENINF
1070
     4
1000
15
1002
{
1002
}
1000
16GENINF
1070
     4
1000
16
1002
{
1002
}
1000
17GENINF
1070
     4
1000
17
1002
{
1002
}
1000
18GENINF
1070
     4
1000
18
1002
{
1002
}
1000
19GENINF
1070
     4
1000
19
1002
{
1002
}
1000
20GENINF
1070
     4
1000
20
1002
{
1002
}
1000
21GENINF
1070
     4
1000
21
1002
{
1002
}
1000
22GENINF
1070
     4
1000
22
1002
{
1002
}
1000
23GENINF
1070
     4
1000
23
1002
{
1002
}
1000
24GENINF
1070
     4
1000
24
1002
{
1002
}
1000
0GENINF
1070
     4
1000
0
1002
{
1002
}
1002
}
1000
GENINFO
1070
     0
1002
{
1000
3GENINF
1070
     4
1000
3
1002
{
1002
}
1000
4GENINF
1070
     4
1000
4
1002
{
1002
}
1000
5GENINF
1070
     4
1000
5
1002
{
1002
}
1000
6GENINF
1070
     4
1000
6
1002
{
1002
}
1000
7GENINF
1070
     4
1000
7
1002
{
1002
}
1000
8GENINF
1070
     4
1000
8
1002
{
1002
}
1000
9GENINF
1070
     4
1000
9
1002
{
1002
}
1000
10GENINF
1070
     4
1000
10
1002
{
1002
}
1000
11GENINF
1070
     4
1000
11
1002
{
1002
}
1000
12GENINF
1070
     4
1000
12
1002
{
1002
}
1000
13GENINF
1070
     4
1000
13
1002
{
1002
}
1000
14GENINF
1070
     4
1000
14
1002
{
1002
}
1000
15GENINF
1070
     4
1000
15
1002
{
1002
}
1000
16GENINF
1070
     4
1000
16
1002
{
1002
}
1000
17GENINF
1070
     4
1000
17
1002
{
1002
}
1000
18GENINF
1070
     4
1000
18
1002
{
1002
}
1000
19GENINF
1070
     4
1000
19
1002
{
1002
}
1000
20GENINF
1070
     4
1000
20
1002
{
1002
}
1000
21GENINF
1070
     4
1000
21
1002
{
1002
}
1000
22GENINF
1070
     4
1000
22
1002
{
1002
}
1002
}
1000
DININFO
1070
     0
1002
{
1000
ST-NAME1
1070
     4
1000
5
1002
{
1002
}
1000
ST-NAME2
1070
     4
1000
6
1002
{
1002
}
1000
ST-NORM1
1070
     4
1000
7
1002
{
1002
}
1000
ST-NORM2
1070
     4
1000
8
1002
{
1002
}
1000
ST-MAT1
1070
     4
1000
9
1002
{
1002
}
1000
ST-MAT2
1070
     4
1000
10
1002
{
1002
}
1002
}
1002
}
1000
POS_NUMBERS
1070
     0
1002
{
1000
GENPOS14
1070
     0
1002
{
1000
1GENPOS
1070
     4
1000
1
1002
{
1002
}
1000
2GENPOS
1070
     4
1000
2
1002
{
1002
}
1000
5GENPOS
1070
     4
1000
5
1002
{
1002
}
1000
7GENPOS
1070
     4
1000
7
1002
{
1002
}
1000
9GENPOS
1070
     4
1000
9
1002
{
1002
}
1000
11GENPOS
1070
     4
1000
11
1002
{
1002
}
1000
14GENPOS
1070
     4
1000
14
1002
{
1002
}
1002
}
1000
GENPOS13
1070
     0
1002
{
1000
1GENPOS
1070
     4
1000
1
1002
{
1002
}
1000
2GENPOS
1070
     4
1000
2
1002
{
1002
}
1000
3GENPOS
1070
     4
1000
3
1002
{
1002
}
1000
4GENPOS
1070
     4
1000
4
1002
{
1002
}
1000
5GENPOS
1070
     4
1000
5
1002
{
1002
}
1000
6GENPOS
1070
     4
1000
6
1002
{
1002
}
1000
7GENPOS
1070
     4
1000
7
1002
{
1002
}
1000
8GENPOS
1070
     4
1000
8
1002
{
1002
}
1000
9GENPOS
1070
     4
1000
9
1002
{
1002
}
1000
10GENPOS
1070
     4
1000
10
1002
{
1002
}
1000
11GENPOS
1070
     4
1000
11
1002
{
1002
}
1000
12GENPOS
1070
     4
1000
12
1002
{
1002
}
1000
13GENPOS
1070
     4
1000
13
1002
{
1002
}
1000
14GENPOS
1070
     4
1000
14
1002
{
1002
}
1000
15GENPOS
1070
     4
1000
15
1002
{
1002
}
1000
16GENPOS
1070
     4
1000
16
1002
{
1002
}
1000
17GENPOS
1070
     4
1000
17
1002
{
1002
}
1000
18GENPOS
1070
     4
1000
18
1002
{
1002
}
1000
19GENPOS
1070
     4
1000
19
1002
{
1002
}
1000
20GENPOS
1070
     4
1000
20
1002
{
1002
}
1000
21GENPOS
1070
     4
1000
21
1002
{
1002
}
1000
22GENPOS
1070
     4
1000
22
1002
{
1002
}
1000
23GENPOS
1070
     4
1000
23
1002
{
1002
}
1000
24GENPOS
1070
     4
1000
24
1002
{
1002
}
1000
0GENPOS
1070
     4
1000
0
1002
{
1002
}
1002
}
1000
GENPOS
1070
     0
1002
{
1000
1GENPOS
1070
     4
1000
1
1002
{
1002
}
1000
2GENPOS
1070
     4
1000
2
1002
{
1002
}
1000
3GENPOS
1070
     4
1000
3
1002
{
1002
}
1000
4GENPOS
1070
     4
1000
4
1002
{
1002
}
1000
5GENPOS
1070
     4
1000
5
1002
{
1002
}
1000
6GENPOS
1070
     4
1000
6
1002
{
1002
}
1000
7GENPOS
1070
     4
1000
7
1002
{
1002
}
1000
8GENPOS
1070
     4
1000
8
1002
{
1002
}
1000
9GENPOS
1070
     4
1000
9
1002
{
1002
}
1000
10GENPOS
1070
     4
1000
10
1002
{
1002
}
1000
11GENPOS
1070
     4
1000
11
1002
{
1002
}
1000
12GENPOS
1070
     4
1000
12
1002
{
1002
}
1000
13GENPOS
1070
     4
1000
13
1002
{
1002
}
1000
14GENPOS
1070
     4
1000
14
1002
{
1002
}
1000
15GENPOS
1070
     4
1000
15
1002
{
1002
}
1000
16GENPOS
1070
     4
1000
16
1002
{
1002
}
1000
17GENPOS
1070
     4
1000
17
1002
{
1002
}
1000
18GENPOS
1070
     4
1000
18
1002
{
1002
}
1000
19GENPOS
1070
     4
1000
19
1002
{
1002
}
1000
20GENPOS
1070
     4
1000
20
1002
{
1002
}
1000
21GENPOS
1070
     4
1000
21
1002
{
1002
}
1000
22GENPOS
1070
     4
1000
22
1002
{
1002
}
1000
23GENPOS
1070
     4
1000
23
1002
{
1002
}
1002
}
1000
DIN985
1070
     0
1002
{
1000
POSITION
1070
     4
1000
1
1002
{
1002
}
1000
MENGE
1070
     4
1000
2
1002
{
1002
}
1000
BLATT
1070
     4
1000
3
1002
{
1002
}
1000
BENENN
1070
     4
1000
5
1002
{
1002
}
1000
BENENN2
1070
     4
1000
6
1002
{
1002
}
1000
NORM
1070
     4
1000
7
1002
{
1002
}
1000
NORM2
1070
     4
1000
8
1002
{
1002
}
1000
WERKSTOFF
1070
     4
1000
9
1002
{
1002
}
1000
WERKSTOFF2
1070
     4
1000
10
1002
{
1002
}
1002
}
1000
DIN986
1070
     0
1002
{
1000
POSITION
1070
     4
1000
1
1002
{
1002
}
1000
MENGE
1070
     4
1000
2
1002
{
1002
}
1000
BLATT
1070
     4
1000
3
1002
{
1002
}
1000
BENENN
1070
     4
1000
5
1002
{
1002
}
1000
BENENN2
1070
     4
1000
6
1002
{
1002
}
1000
NORM
1070
     4
1000
7
1002
{
1002
}
1000
NORM2
1070
     4
1000
8
1002
{
1002
}
1000
WERKSTOFF
1070
     4
1000
9
1002
{
1002
}
1000
WERKSTOFF2
1070
     4
1000
10
1002
{
1002
}
1002
}
1000
DIN987
1070
     0
1002
{
1000
POSITION
1070
     4
1000
1
1002
{
1002
}
1000
MENGE
1070
     4
1000
2
1002
{
1002
}
1000
BLATT
1070
     4
1000
3
1002
{
1002
}
1000
BENENN
1070
     4
1000
5
1002
{
1002
}
1000
BENENN2
1070
     4
1000
6
1002
{
1002
}
1000
NORM
1070
     4
1000
7
1002
{
1002
}
1000
NORM2
1070
     4
1000
8
1002
{
1002
}
1000
WERKSTOFF
1070
     4
1000
9
1002
{
1002
}
1000
WERKSTOFF2
1070
     4
1000
10
1002
{
1002
}
1002
}
1002
}
  0
APPID
  5
13AE
330
136B
100
AcDbSymbolTableRecord
100
AcDbRegAppTableRecord
  2
GENIUS_GENCFG1_13
 70
     0
1001
GENIUS_GENCFG_13
1071
1020868122
1000
13AE
1000
GEN@INFO_POS
1070
     7
1000
GenCfgObject
1000
GenCfgShort
1000
GenCfgReal
1000
GenCfgBool
1000
GenCfgString
1000
GenCfgDim
1000
GenCfgAttrInf
1000
DescrText
1070
     4
1000
5, ,6, ,7, ,8
1002
{
1002
}
1000
DescrText2
1070
     4
1000
26
1002
{
1002
}
1000
VisibleAttr1
1070
     4
1000
1
1002
{
1002
}
1000
VisibleAttr2
1070
     4
1000
26
1002
{
1002
}
1000
UpdateBlock
1070
     3
1070
     1
1002
{
1002
}
1000
Attrib
1070
     0
1002
{
1000
0
1070
     6
1002
{
1000
Prompt
1070
     4
1000
(genmsg gendwg 103)
1002
{
1002
}
1000
Value
1070
     4
1000

1002
{
1002
}
1000
EditFlag
1070
     1
1070
     0
1002
{
1002
}
1000
PosInDDATTE
1070
     1
1070
    27
1002
{
1002
}
1000
FieldLen
1070
     1
1070
    -1
1002
{
1002
}
1002
}
1000
1
1070
     6
1002
{
1000
Prompt
1070
     4
1000
(genmsg gendwg 31)
1002
{
1002
}
1000
Value
1070
     4
1000
1
1002
{
1002
}
1000
EditFlag
1070
     1
1070
     1
1002
{
1002
}
1000
PosInDDATTE
1070
     1
1070
     1
1002
{
1002
}
1000
FieldLen
1070
     1
1070
    -1
1002
{
1002
}
1002
}
1000
2
1070
     6
1002
{
1000
Prompt
1070
     4
1000
(genmsg gendwg 32)
1002
{
1002
}
1000
Value
1070
     4
1000
1
1002
{
1002
}
1000
EditFlag
1070
     1
1070
     1
1002
{
1002
}
1000
PosInDDATTE
1070
     1
1070
     2
1002
{
1002
}
1000
FieldLen
1070
     1
1070
    -1
1002
{
1002
}
1002
}
1000
3
1070
     6
1002
{
1000
Prompt
1070
     4
1000
(genmsg gendwg 33)
1002
{
1002
}
1000
Value
1070
     4
1000

1002
{
1002
}
1000
EditFlag
1070
     1
1070
     1
1002
{
1002
}
1000
PosInDDATTE
1070
     1
1070
     3
1002
{
1002
}
1000
FieldLen
1070
     1
1070
    -1
1002
{
1002
}
1002
}
1000
4
1070
     6
1002
{
1000
Prompt
1070
     4
1000
(genmsg gendwg 34)
1002
{
1002
}
1000
Value
1070
     4
1000

1002
{
1002
}
1000
EditFlag
1070
     1
1070
     1
1002
{
1002
}
1000
PosInDDATTE
1070
     1
1070
     4
1002
{
1002
}
1000
FieldLen
1070
     1
1070
    -1
1002
{
1002
}
1002
}
1000
5
1070
     6
1002
{
1000
Prompt
1070
     4
1000
(genmsg gendwg 35)
1002
{
1002
}
1000
Value
1070
     4
1000

1002
{
1002
}
1000
EditFlag
1070
     1
1070
     1
1002
{
1002
}
1000
PosInDDATTE
1070
     1
1070
     5
1002
{
1002
}
1000
FieldLen
1070
     1
1070
    -1
1002
{
1002
}
1002
}
1000
6
1070
     6
1002
{
1000
Prompt
1070
     4
1000
(genmsg gendwg 36)
1002
{
1002
}
1000
Value
1070
     4
1000

1002
{
1002
}
1000
EditFlag
1070
     1
1070
     1
1002
{
1002
}
1000
PosInDDATTE
1070
     1
1070
     6
1002
{
1002
}
1000
FieldLen
1070
     1
1070
    -1
1002
{
1002
}
1002
}
1000
7
1070
     6
1002
{
1000
Prompt
1070
     4
1000
(genmsg gendwg 37)
1002
{
1002
}
1000
Value
1070
     4
1000

1002
{
1002
}
1000
EditFlag
1070
     1
1070
     1
1002
{
1002
}
1000
PosInDDATTE
1070
     1
1070
     7
1002
{
1002
}
1000
FieldLen
1070
     1
1070
    -1
1002
{
1002
}
1002
}
1000
8
1070
     6
1002
{
1000
Prompt
1070
     4
1000
(genmsg gendwg 38)
1002
{
1002
}
1000
Value
1070
     4
1000

1002
{
1002
}
1000
EditFlag
1070
     1
1070
     1
1002
{
1002
}
1000
PosInDDATTE
1070
     1
1070
     8
1002
{
1002
}
1000
FieldLen
1070
     1
1070
    -1
1002
{
1002
}
1002
}
1000
9
1070
     6
1002
{
1000
Prompt
1070
     4
1000
(genmsg gendwg 39)
1002
{
1002
}
1000
Value
1070
     4
1000

1002
{
1002
}
1000
EditFlag
1070
     1
1070
     1
1002
{
1002
}
1000
PosInDDATTE
1070
     1
1070
     9
1002
{
1002
}
1000
FieldLen
1070
     1
1070
    -1
1002
{
1002
}
1002
}
1000
10
1070
     6
1002
{
1000
Prompt
1070
     4
1000
(genmsg gendwg 40)
1002
{
1002
}
1000
Value
1070
     4
1000

1002
{
1002
}
1000
EditFlag
1070
     1
1070
     1
1002
{
1002
}
1000
PosInDDATTE
1070
     1
1070
    10
1002
{
1002
}
1000
FieldLen
1070
     1
1070
    -1
1002
{
1002
}
1002
}
1000
11
1070
     6
1002
{
1000
Prompt
1070
     4
1000
(genmsg gendwg 41)
1002
{
1002
}
1000
Value
1070
     4
1000

1002
{
1002
}
1000
EditFlag
1070
     1
1070
     1
1002
{
1002
}
1000
PosInDDATTE
1070
     1
1070
    11
1002
{
1002
}
1000
FieldLen
1070
     1
1070
    -1
1002
{
1002
}
1002
}
1000
12
1070
     6
1002
{
1000
Prompt
1070
     4
1000
(genmsg gendwg 42)
1002
{
1002
}
1000
Value
1070
     4
1000

1002
{
1002
}
1000
EditFlag
1070
     1
1070
     1
1002
{
1002
}
1000
PosInDDATTE
1070
     1
1070
    12
1002
{
1002
}
1000
FieldLen
1070
     1
1070
    -1
1002
{
1002
}
1002
}
1000
13
1070
     6
1002
{
1000
Prompt
1070
     4
1000
(genmsg gendwg 43)
1002
{
1002
}
1000
Value
1070
     4
1000

1002
{
1002
}
1000
EditFlag
1070
     1
1070
     1
1002
{
1002
}
1000
PosInDDATTE
1070
     1
1070
    13
1002
{
1002
}
1000
FieldLen
1070
     1
1070
    -1
1002
{
1002
}
1002
}
1000
14
1070
     6
1002
{
1000
Prompt
1070
     4
1000
(genmsg gendwg 44)
1002
{
1002
}
1000
Value
1070
     4
1000

1002
{
1002
}
1000
EditFlag
1070
     1
1070
     1
1002
{
1002
}
1000
PosInDDATTE
1070
     1
1070
    14
1002
{
1002
}
1000
FieldLen
1070
     1
1070
    -1
1002
{
1002
}
1002
}
1000
15
1070
     6
1002
{
1000
Prompt
1070
     4
1000
(genmsg gendwg 45)
1002
{
1002
}
1000
Value
1070
     4
1000

1002
{
1002
}
1000
EditFlag
1070
     1
1070
     1
1002
{
1002
}
1000
PosInDDATTE
1070
     1
1070
    15
1002
{
1002
}
1000
FieldLen
1070
     1
1070
    -1
1002
{
1002
}
1002
}
1000
16
1070
     6
1002
{
1000
Prompt
1070
     4
1000
(genmsg gendwg 46)
1002
{
1002
}
1000
Value
1070
     4
1000

1002
{
1002
}
1000
EditFlag
1070
     1
1070
     1
1002
{
1002
}
1000
PosInDDATTE
1070
     1
1070
    16
1002
{
1002
}
1000
FieldLen
1070
     1
1070
    -1
1002
{
1002
}
1002
}
1000
17
1070
     6
1002
{
1000
Prompt
1070
     4
1000
(genmsg gendwg 47)
1002
{
1002
}
1000
Value
1070
     4
1000

1002
{
1002
}
1000
EditFlag
1070
     1
1070
     1
1002
{
1002
}
1000
PosInDDATTE
1070
     1
1070
    17
1002
{
1002
}
1000
FieldLen
1070
     1
1070
    -1
1002
{
1002
}
1002
}
1000
18
1070
     6
1002
{
1000
Prompt
1070
     4
1000
(genmsg gendwg 48)
1002
{
1002
}
1000
Value
1070
     4
1000

1002
{
1002
}
1000
EditFlag
1070
     1
1070
     1
1002
{
1002
}
1000
PosInDDATTE
1070
     1
1070
    18
1002
{
1002
}
1000
FieldLen
1070
     1
1070
    -1
1002
{
1002
}
1002
}
1000
19
1070
     6
1002
{
1000
Prompt
1070
     4
1000
(genmsg gendwg 99)
1002
{
1002
}
1000
Value
1070
     4
1000

1002
{
1002
}
1000
EditFlag
1070
     1
1070
     1
1002
{
1002
}
1000
PosInDDATTE
1070
     1
1070
    19
1002
{
1002
}
1000
FieldLen
1070
     1
1070
    -1
1002
{
1002
}
1002
}
1000
20
1070
     6
1002
{
1000
Prompt
1070
     4
1000
(genmsg gendwg 100)
1002
{
1002
}
1000
Value
1070
     4
1000

1002
{
1002
}
1000
EditFlag
1070
     1
1070
     1
1002
{
1002
}
1000
PosInDDATTE
1070
     1
1070
    20
1002
{
1002
}
1000
FieldLen
1070
     1
1070
    -1
1002
{
1002
}
1002
}
1000
21
1070
     6
1002
{
1000
Prompt
1070
     4
1000
(genmsg gendwg 101)
1002
{
1002
}
1000
Value
1070
     4
1000

1002
{
1002
}
1000
EditFlag
1070
     1
1070
     1
1002
{
1002
}
1000
PosInDDATTE
1070
     1
1070
    21
1002
{
1002
}
1000
FieldLen
1070
     1
1070
    -1
1002
{
1002
}
1002
}
1000
22
1070
     6
1002
{
1000
Prompt
1070
     4
1000
(genmsg gendwg 102)
1002
{
1002
}
1000
Value
1070
     4
1000

1002
{
1002
}
1000
EditFlag
1070
     1
1070
     1
1002
{
1002
}
1000
PosInDDATTE
1070
     1
1070
    22
1002
{
1002
}
1000
FieldLen
1070
     1
1070
    -1
1002
{
1002
}
1002
}
1000
23
1070
     6
1002
{
1000
Prompt
1070
     4
1000
(genmsg gendwg 30)
1002
{
1002
}
1000
Value
1070
     4
1000

1002
{
1002
}
1000
EditFlag
1070
     1
1070
     1
1002
{
1002
}
1000
PosInDDATTE
1070
     1
1070
    23
1002
{
1002
}
1000
FieldLen
1070
     1
1070
    -1
1002
{
1002
}
1002
}
1000
24
1070
     6
1002
{
1000
Prompt
1070
     4
1000
(genmsg gendwg 104)
1002
{
1002
}
1000
Value
1070
     4
1000

1002
{
1002
}
1000
EditFlag
1070
     1
1070
     1
1002
{
1002
}
1000
PosInDDATTE
1070
     1
1070
    24
1002
{
1002
}
1000
FieldLen
1070
     1
1070
    -1
1002
{
1002
}
1002
}
1000
25
1070
     6
1002
{
1000
Prompt
1070
     4
1000
(genmsg gendwg 105)
1002
{
1002
}
1000
Value
1070
     4
1000

1002
{
1002
}
1000
EditFlag
1070
     1
1070
     1
1002
{
1002
}
1000
PosInDDATTE
1070
     1
1070
    25
1002
{
1002
}
1000
FieldLen
1070
     1
1070
    -1
1002
{
1002
}
1002
}
1000
26
1070
     6
1002
{
1000
Prompt
1070
     4
1000
(genmsg gendwg 106)
1002
{
1002
}
1000
Value
1070
     4
1000

1002
{
1002
}
1000
EditFlag
1070
     1
1070
     1
1002
{
1002
}
1000
PosInDDATTE
1070
     1
1070
    26
1002
{
1002
}
1000
FieldLen
1070
     1
1070
    -1
1002
{
1002
}
1002
}
1000
27
1070
     6
1002
{
1000
Prompt
1070
     4
1000
(genmsg gendwg 109)
1002
{
1002
}
1000
Value
1070
     4
1000

1002
{
1002
}
1000
EditFlag
1070
     1
1070
     2
1002
{
1002
}
1000
PosInDDATTE
1070
     1
1070
    27
1002
{
1002
}
1000
FieldLen
1070
     1
1070
    -1
1002
{
1002
}
1002
}
1002
}
1000
Xlate
1070
     0
1002
{
1000
>
1002
}
  0
APPID
  5
13AF
330
136B
100
AcDbSymbolTableRecord
100
AcDbRegAppTableRecord
  2
GENIUS_GENCFG2_13
 70
     0
1001
GENIUS_GENCFG_13
1071
1020868122
1000
13AF
1000
GEN@LAYER@DEFS
1070
     9
1000
GenCfgObject
1000
GenCfgShort
1000
GenCfgReal
1000
GenCfgBool
1000
GenCfgString
1000
GenCfgDim
1000
GenCfgAttrInf
1000
GenCfgLaySection
1000
GenCfgLayer
1000
Basic
1070
     0
1002
{
1000
0
1070
     8
1000
0
1002
{
1000
Color
1070
     1
1070
     7
1002
{
1002
}
1000
LType
1070
     4
1000
CONTINUOUS
1002
{
1002
}
1000
Base
1070
     3
1070
     0
1002
{
1002
}
1002
}
1000
1
1070
     8
1000
1
1002
{
1000
Color
1070
     1
1070
    14
1002
{
1002
}
1000
LType
1070
     4
1000
CONTINUOUS
1002
{
1002
}
1000
Base
1070
     3
1070
     0
1002
{
1002
}
1002
}
1000
2
1070
     8
1000
2
1002
{
1000
Color
1070
     1
1070
     5
1002
{
1002
}
1000
LType
1070
     4
1000
CONTINUOUS
1002
{
1002
}
1000
Base
1070
     3
1070
     0
1002
{
1002
}
1002
}
1000
3
1070
     8
1000
3
1002
{
1000
Color
1070
     1
1070
     6
1002
{
1002
}
1000
LType
1070
     4
1000
GEN3
1002
{
1002
}
1000
Base
1070
     3
1070
     0
1002
{
1002
}
1002
}
1000
4
1070
     8
1000
4
1002
{
1000
Color
1070
     1
1070
     3
1002
{
1002
}
1000
LType
1070
     4
1000
CONTINUOUS
1002
{
1002
}
1000
Base
1070
     3
1070
     0
1002
{
1002
}
1002
}
1000
5
1070
     8
1000
5
1002
{
1000
Color
1070
     1
1070
     3
1002
{
1002
}
1000
LType
1070
     4
1000
CONTINUOUS
1002
{
1002
}
1000
Base
1070
     3
1070
     0
1002
{
1002
}
1002
}
1000
6
1070
     8
1000
6
1002
{
1000
Color
1070
     1
1070
     2
1002
{
1002
}
1000
LType
1070
     4
1000
CONTINUOUS
1002
{
1002
}
1000
Base
1070
     3
1070
     0
1002
{
1002
}
1002
}
1000
7
1070
     8
1000
7
1002
{
1000
Color
1070
     1
1070
     4
1002
{
1002
}
1000
LType
1070
     4
1000
GEN7
1002
{
1002
}
1000
Base
1070
     3
1070
     0
1002
{
1002
}
1002
}
1000
8
1070
     8
1000
8
1002
{
1000
Color
1070
     1
1070
     1
1002
{
1002
}
1000
LType
1070
     4
1000
CONTINUOUS
1002
{
1002
}
1000
Base
1070
     3
1070
     0
1002
{
1002
}
1002
}
1000
3A
1070
     8
1000
3A
1002
{
1000
Color
1070
     1
1070
     6
1002
{
1002
}
1000
LType
1070
     4
1000
GEN3A
1002
{
1002
}
1000
Base
1070
     3
1070
     0
1002
{
1002
}
1002
}
1000
7A
1070
     8
1000
7A
1002
{
1000
Color
1070
     1
1070
     4
1002
{
1002
}
1000
LType
1070
     4
1000
GEN7A
1002
{
1002
}
1000
Base
1070
     3
1070
     0
1002
{
1002
}
1002
}
1000
2A
1070
     8
1000
2A
1002
{
1000
Color
1070
     1
1070
     7
1002
{
1002
}
1000
LType
1070
     4
1000
GEN7
1002
{
1002
}
1000
Base
1070
     3
1070
     0
1002
{
1002
}
1002
}
1000
4A
1070
     8
1000
4A
1002
{
1000
Color
1070
     1
1070
     3
1002
{
1002
}
1000
LType
1070
     4
1000
GEN4A
1002
{
1002
}
1000
Base
1070
     3
1070
     0
1002
{
1002
}
1002
}
1000
9
1070
     8
1000
9
1002
{
1000
Color
1070
     1
1070
   253
1002
{
1002
}
1000
LType
1070
     4
1000
CONTINUOUS
1002
{
1002
}
1000
Base
1070
     3
1070
     0
1002
{
1002
}
1002
}
1000
IP
1070
     8
1000
IP
1002
{
1000
Color
1070
     1
1070
     7
1002
{
1002
}
1000
LType
1070
     4
1000
CONTINUOUS
1002
{
1002
}
1000
Base
1070
     3
1070
     0
1002
{
1002
}
1002
}
1002
}
1000
Standard
1070
     0
1002
{
1000
0N
1070
     8
1000
0N
1002
{
1000
Color
1070
     1
1070
     7
1002
{
1002
}
1000
LType
1070
     4
1000
CONTINUOUS
1002
{
1002
}
1000
Base
1070
     3
1070
     0
1002
{
1002
}
1002
}
1000
1N
1070
     8
1000
1N
1002
{
1000
Color
1070
     1
1070
    14
1002
{
1002
}
1000
LType
1070
     4
1000
CONTINUOUS
1002
{
1002
}
1000
Base
1070
     3
1070
     0
1002
{
1002
}
1002
}
1000
2N
1070
     8
1000
2N
1002
{
1000
Color
1070
     1
1070
     5
1002
{
1002
}
1000
LType
1070
     4
1000
CONTINUOUS
1002
{
1002
}
1000
Base
1070
     3
1070
     0
1002
{
1002
}
1002
}
1000
3N
1070
     8
1000
3N
1002
{
1000
Color
1070
     1
1070
     6
1002
{
1002
}
1000
LType
1070
     4
1000
GEN3
1002
{
1002
}
1000
Base
1070
     3
1070
     0
1002
{
1002
}
1002
}
1000
4N
1070
     8
1000
4N
1002
{
1000
Color
1070
     1
1070
     3
1002
{
1002
}
1000
LType
1070
     4
1000
CONTINUOUS
1002
{
1002
}
1000
Base
1070
     3
1070
     0
1002
{
1002
}
1002
}
1000
5N
1070
     8
1000
5N
1002
{
1000
Color
1070
     1
1070
     3
1002
{
1002
}
1000
LType
1070
     4
1000
CONTINUOUS
1002
{
1002
}
1000
Base
1070
     3
1070
     0
1002
{
1002
}
1002
}
1000
6N
1070
     8
1000
6N
1002
{
1000
Color
1070
     1
1070
     2
1002
{
1002
}
1000
LType
1070
     4
1000
CONTINUOUS
1002
{
1002
}
1000
Base
1070
     3
1070
     0
1002
{
1002
}
1002
}
1000
7N
1070
     8
1000
7N
1002
{
1000
Color
1070
     1
1070
     4
1002
{
1002
}
1000
LType
1070
     4
1000
GEN7
1002
{
1002
}
1000
Base
1070
     3
1070
     0
1002
{
1002
}
1002
}
1000
8N
1070
     8
1000
8N
1002
{
1000
Color
1070
     1
1070
     1
1002
{
1002
}
1000
LType
1070
     4
1000
CONTINUOUS
1002
{
1002
}
1000
Base
1070
     3
1070
     0
1002
{
1002
}
1002
}
1000
3AN
1070
     8
1000
3AN
1002
{
1000
Color
1070
     1
1070
     6
1002
{
1002
}
1000
LType
1070
     4
1000
GEN3A
1002
{
1002
}
1000
Base
1070
     3
1070
     0
1002
{
1002
}
1002
}
1000
7AN
1070
     8
1000
7AN
1002
{
1000
Color
1070
     1
1070
     4
1002
{
1002
}
1000
LType
1070
     4
1000
GEN7A
1002
{
1002
}
1000
Base
1070
     3
1070
     0
1002
{
1002
}
1002
}
1000
2AN
1070
     8
1000
2AN
1002
{
1000
Color
1070
     1
1070
     7
1002
{
1002
}
1000
LType
1070
     4
1000
GEN7
1002
{
1002
}
1000
Base
1070
     3
1070
     0
1002
{
1002
}
1002
}
1000
4AN
1070
     8
1000
4AN
1002
{
1000
Color
1070
     1
1070
     3
1002
{
1002
}
1000
LType
1070
     4
1000
GEN4A
1002
{
1002
}
1000
Base
1070
     3
1070
     0
1002
{
1002
}
1002
}
1000
9N
1070
     8
1000
9N
1002
{
1000
Color
1070
     1
1070
   253
1002
{
1002
}
1000
LType
1070
     4
1000
CONTINUOUS
1002
{
1002
}
1000
Base
1070
     3
1070
     0
1002
{
1002
}
1002
}
1000
IPN
1070
     8
1000
IPN
1002
{
1000
Color
1070
     1
1070
     7
1002
{
1002
}
1000
LType
1070
     4
1000
CONTINUOUS
1002
{
1002
}
1000
Base
1070
     3
1070
     0
1002
{
1002
}
1002
}
1002
}
1000
Extra
1070
     0
1002
{
1000
Klin
1070
     8
1000
KLIN
1002
{
1000
Color
1070
     1
1070
     1
1002
{
1002
}
1000
LType
1070
     4
1000
CONTINUOUS
1002
{
1002
}
1000
Base
1070
     3
1070
     1
1002
{
1002
}
1002
}
1000
Info
1070
     8
1000
INFO
1002
{
1000
Color
1070
     1
1070
     4
1002
{
1002
}
1000
LType
1070
     4
1000
CONTINUOUS
1002
{
1002
}
1000
Base
1070
     3
1070
     1
1002
{
1002
}
1002
}
1000
Rahm2
1070
     8
1000
RAHM2
1002
{
1000
Color
1070
     1
1070
     1
1002
{
1002
}
1000
LType
1070
     4
1000
CONTINUOUS
1002
{
1002
}
1000
Base
1070
     3
1070
     1
1002
{
1002
}
1002
}
1000
Rahm3
1070
     8
1000
RAHM3
1002
{
1000
Color
1070
     1
1070
     2
1002
{
1002
}
1000
LType
1070
     4
1000
CONTINUOUS
1002
{
1002
}
1000
Base
1070
     3
1070
     1
1002
{
1002
}
1002
}
1000
Rahm5
1070
     8
1000
RAHM5
1002
{
1000
Color
1070
     1
1070
     7
1002
{
1002
}
1000
LType
1070
     4
1000
CONTINUOUS
1002
{
1002
}
1000
Base
1070
     3
1070
     1
1002
{
1002
}
1002
}
1000
View
1070
     8
1000
VIEW
1002
{
1000
Color
1070
     1
1070
     1
1002
{
1002
}
1000
LType
1070
     4
1000
CONTINUOUS
1002
{
1002
}
1000
Base
1070
     3
1070
     1
1002
{
1002
}
1002
}
1000
Behind
1070
     8
1000
BEHIND
1002
{
1000
Color
1070
     1
1070
   253
1002
{
1002
}
1000
LType
1070
     4
1000
CONTINUOUS
1002
{
1002
}
1000
Base
1070
     3
1070
     1
1002
{
1002
}
1002
}
1002
}
  0
APPID
  5
13B0
330
136B
100
AcDbSymbolTableRecord
100
AcDbRegAppTableRecord
  2
GENIUS_GENCFG3_13
 70
     0
1001
GENIUS_GENCFG_13
1071
1020868122
1000
13B0
1000
GEN@LAYER@ENTSORT
1070
    10
1000
GenCfgObject
1000
GenCfgShort
1000
GenCfgReal
1000
GenCfgBool
1000
GenCfgString
1000
GenCfgDim
1000
GenCfgAttrInf
1000
GenCfgLaySection
1000
GenCfgLayer
1000
GenCfgEntSort
1000
ADDL
1070
     9
1000
5
1002
{
1000
Class
1070
     4
1000
SYM
1002
{
1002
}
1000
Color
1070
     1
1070
     1
1002
{
1002
}
1000
LType
1070
     4
1000
BYLAYER
1002
{
1002
}
1002
}
1000
ALTR
1070
     9
1000
4
1002
{
1000
Class
1070
     4
1000

1002
{
1002
}
1000
Color
1070
     1
1070
     7
1002
{
1002
}
1000
LType
1070
     4
1000
GEN3A
1002
{
1002
}
1002
}
1000
BELI
1070
     9
1000
4
1002
{
1000
Class
1070
     4
1000

1002
{
1002
}
1000
Color
1070
     1
1070
   256
1002
{
1002
}
1000
LType
1070
     4
1000
BYLAYER
1002
{
1002
}
1002
}
1000
BHNV
1070
     9
1000
9
1002
{
1000
Class
1070
     4
1000
INV
1002
{
1002
}
1000
Color
1070
     1
1070
   256
1002
{
1002
}
1000
LType
1070
     4
1000
BYLAYER
1002
{
1002
}
1002
}
1000
BHNVS
1070
     9
1000
BEHIND
1002
{
1000
Class
1070
     4
1000
INV
1002
{
1002
}
1000
Color
1070
     1
1070
   256
1002
{
1002
}
1000
LType
1070
     4
1000
BYLAYER
1002
{
1002
}
1002
}
1000
BLID
1070
     9
1000
4A
1002
{
1000
Class
1070
     4
1000

1002
{
1002
}
1000
Color
1070
     1
1070
   256
1002
{
1002
}
1000
LType
1070
     4
1000
BYLAYER
1002
{
1002
}
1002
}
1000
BOAP
1070
     9
1000
4A
1002
{
1000
Class
1070
     4
1000

1002
{
1002
}
1000
Color
1070
     1
1070
   256
1002
{
1002
}
1000
LType
1070
     4
1000
BYLAYER
1002
{
1002
}
1002
}
1000
BOR2
1070
     9
1000
RAHM2
1002
{
1000
Class
1070
     4
1000
SPZ,SYM
1002
{
1002
}
1000
Color
1070
     1
1070
   256
1002
{
1002
}
1000
LType
1070
     4
1000
BYLAYER
1002
{
1002
}
1002
}
1000
BOR3
1070
     9
1000
RAHM3
1002
{
1000
Class
1070
     4
1000
SPZ,SYM
1002
{
1002
}
1000
Color
1070
     1
1070
   256
1002
{
1002
}
1000
LType
1070
     4
1000
BYLAYER
1002
{
1002
}
1002
}
1000
BOR5
1070
     9
1000
RAHM5
1002
{
1000
Class
1070
     4
1000
SPZ,SYM
1002
{
1002
}
1000
Color
1070
     1
1070
   256
1002
{
1002
}
1000
LType
1070
     4
1000
BYLAYER
1002
{
1002
}
1002
}
1000
BOR7
1070
     9
1000
RAHM5
1002
{
1000
Class
1070
     4
1000
SPZ,SYM
1002
{
1002
}
1000
Color
1070
     1
1070
     7
1002
{
1002
}
1000
LType
1070
     4
1000
CONTINUOUS
1002
{
1002
}
1002
}
1000
BPAP
1070
     9
1000
4A
1002
{
1000
Class
1070
     4
1000

1002
{
1002
}
1000
Color
1070
     1
1070
   256
1002
{
1002
}
1000
LType
1070
     4
1000
BYLAYER
1002
{
1002
}
1002
}
1000
BPEX
1070
     9
1000
4A
1002
{
1000
Class
1070
     4
1000

1002
{
1002
}
1000
Color
1070
     1
1070
   256
1002
{
1002
}
1000
LType
1070
     4
1000
BYLAYER
1002
{
1002
}
1002
}
1000
BTDI
1070
     9
1000
5
1002
{
1000
Class
1070
     4
1000
DIM,SYM
1002
{
1002
}
1000
Color
1070
     1
1070
   256
1002
{
1002
}
1000
LType
1070
     4
1000
BYLAYER
1002
{
1002
}
1002
}
1000
CAL2
1070
     9
1000
4
1002
{
1000
Class
1070
     4
1000
SYM
1002
{
1002
}
1000
Color
1070
     1
1070
   256
1002
{
1002
}
1000
LType
1070
     4
1000
BYLAYER
1002
{
1002
}
1002
}
1000
CAL3
1070
     9
1000
4
1002
{
1000
Class
1070
     4
1000
SYM
1002
{
1002
}
1000
Color
1070
     1
1070
     2
1002
{
1002
}
1000
LType
1070
     4
1000
BYLAYER
1002
{
1002
}
1002
}
1000
CAL5
1070
     9
1000
4
1002
{
1000
Class
1070
     4
1000
SYM
1002
{
1002
}
1000
Color
1070
     1
1070
     7
1002
{
1002
}
1000
LType
1070
     4
1000
BYLAYER
1002
{
1002
}
1002
}
1000
CAL7
1070
     9
1000
4
1002
{
1000
Class
1070
     4
1000
SYM
1002
{
1002
}
1000
Color
1070
     1
1070
     5
1002
{
1002
}
1000
LType
1070
     4
1000
BYLAYER
1002
{
1002
}
1002
}
1000
CENN
1070
     9
1000
7A
1002
{
1000
Class
1070
     4
1000
CEN
1002
{
1002
}
1000
Color
1070
     1
1070
   256
1002
{
1002
}
1000
LType
1070
     4
1000
BYLAYER
1002
{
1002
}
1002
}
1000
CENW
1070
     9
1000
7
1002
{
1000
Class
1070
     4
1000
CEN
1002
{
1002
}
1000
Color
1070
     1
1070
   256
1002
{
1002
}
1000
LType
1070
     4
1000
BYLAYER
1002
{
1002
}
1002
}
1000
CLIN
1070
     9
1000
KLIN
1002
{
1000
Class
1070
     4
1000
SPZ
1002
{
1002
}
1000
Color
1070
     1
1070
   256
1002
{
1002
}
1000
LType
1070
     4
1000
BYLAYER
1002
{
1002
}
1002
}
1000
CON1
1070
     9
1000
0
1002
{
1000
Class
1070
     4
1000
CON,BGD
1002
{
1002
}
1000
Color
1070
     1
1070
   256
1002
{
1002
}
1000
LType
1070
     4
1000
BYLAYER
1002
{
1002
}
1002
}
1000
CON2
1070
     9
1000
1
1002
{
1000
Class
1070
     4
1000
CON,BGD
1002
{
1002
}
1000
Color
1070
     1
1070
   256
1002
{
1002
}
1000
LType
1070
     4
1000
BYLAYER
1002
{
1002
}
1002
}
1000
CON3
1070
     9
1000
2
1002
{
1000
Class
1070
     4
1000
CON,BGD
1002
{
1002
}
1000
Color
1070
     1
1070
   256
1002
{
1002
}
1000
LType
1070
     4
1000
BYLAYER
1002
{
1002
}
1002
}
1000
CON4
1070
     9
1000
2
1002
{
1000
Class
1070
     4
1000
CON,BGD
1002
{
1002
}
1000
Color
1070
     1
1070
   256
1002
{
1002
}
1000
LType
1070
     4
1000
BYLAYER
1002
{
1002
}
1002
}
1000
DERP
1070
     9
1000
4
1002
{
1000
Class
1070
     4
1000

1002
{
1002
}
1000
Color
1070
     1
1070
   256
1002
{
1002
}
1000
LType
1070
     4
1000
BYLAYER
1002
{
1002
}
1002
}
1000
DETA
1070
     9
1000
4
1002
{
1000
Class
1070
     4
1000

1002
{
1002
}
1000
Color
1070
     1
1070
   256
1002
{
1002
}
1000
LType
1070
     4
1000
BYLAYER
1002
{
1002
}
1002
}
1000
DIAG
1070
     9
1000
5
1002
{
1000
Class
1070
     4
1000
SYM
1002
{
1002
}
1000
Color
1070
     1
1070
   256
1002
{
1002
}
1000
LType
1070
     4
1000
BYLAYER
1002
{
1002
}
1002
}
1000
DILI
1070
     9
1000
5
1002
{
1000
Class
1070
     4
1000
DIM,SYM
1002
{
1002
}
1000
Color
1070
     1
1070
   256
1002
{
1002
}
1000
LType
1070
     4
1000
BYLAYER
1002
{
1002
}
1002
}
1000
DITO2
1070
     9
1000
5
1002
{
1000
Class
1070
     4
1000
DIM,SYM
1002
{
1002
}
1000
Color
1070
     1
1070
     3
1002
{
1002
}
1000
LType
1070
     4
1000
BYLAYER
1002
{
1002
}
1002
}
1000
DITO3
1070
     9
1000
5
1002
{
1000
Class
1070
     4
1000
DIM,SYM
1002
{
1002
}
1000
Color
1070
     1
1070
     2
1002
{
1002
}
1000
LType
1070
     4
1000
BYLAYER
1002
{
1002
}
1002
}
1000
DITX
1070
     9
1000
5
1002
{
1000
Class
1070
     4
1000
DIM,SYM
1002
{
1002
}
1000
Color
1070
     1
1070
     2
1002
{
1002
}
1000
LType
1070
     4
1000
CONTINUOUS
1002
{
1002
}
1002
}
1000
DIXL
1070
     9
1000
5
1002
{
1000
Class
1070
     4
1000
DIM,SYM
1002
{
1002
}
1000
Color
1070
     1
1070
   256
1002
{
1002
}
1000
LType
1070
     4
1000
BYLAYER
1002
{
1002
}
1002
}
1000
EXMP
1070
     9
1000
4A
1002
{
1000
Class
1070
     4
1000

1002
{
1002
}
1000
Color
1070
     1
1070
   256
1002
{
1002
}
1000
LType
1070
     4
1000
BYLAYER
1002
{
1002
}
1002
}
1000
FEMN
1070
     9
1000
8
1002
{
1000
Class
1070
     4
1000

1002
{
1002
}
1000
Color
1070
     1
1070
   256
1002
{
1002
}
1000
LType
1070
     4
1000
BYLAYER
1002
{
1002
}
1002
}
1000
FEMPN
1070
     9
1000
8
1002
{
1000
Class
1070
     4
1000
SYM
1002
{
1002
}
1000
Color
1070
     1
1070
     3
1002
{
1002
}
1000
LType
1070
     4
1000
BYLAYER
1002
{
1002
}
1002
}
1000
FEMSP
1070
     9
1000
4A
1002
{
1000
Class
1070
     4
1000

1002
{
1002
}
1000
Color
1070
     1
1070
   256
1002
{
1002
}
1000
LType
1070
     4
1000
CONTINUOUS
1002
{
1002
}
1002
}
1000
FEMST
1070
     9
1000
4A
1002
{
1000
Class
1070
     4
1000
SYM
1002
{
1002
}
1000
Color
1070
     1
1070
     3
1002
{
1002
}
1000
LType
1070
     4
1000
BYLAYER
1002
{
1002
}
1002
}
1000
FEMVN
1070
     9
1000
2
1002
{
1000
Class
1070
     4
1000
CON
1002
{
1002
}
1000
Color
1070
     1
1070
   256
1002
{
1002
}
1000
LType
1070
     4
1000
BYLAYER
1002
{
1002
}
1002
}
1000
FEMVT
1070
     9
1000
2
1002
{
1000
Class
1070
     4
1000
SYM
1002
{
1002
}
1000
Color
1070
     1
1070
     3
1002
{
1002
}
1000
LType
1070
     4
1000
BYLAYER
1002
{
1002
}
1002
}
1000
FLAT
1070
     9
1000
0
1002
{
1000
Class
1070
     4
1000

1002
{
1002
}
1000
Color
1070
     1
1070
   256
1002
{
1002
}
1000
LType
1070
     4
1000
BYLAYER
1002
{
1002
}
1002
}
1000
FRAR
1070
     9
1000
4A
1002
{
1000
Class
1070
     4
1000

1002
{
1002
}
1000
Color
1070
     1
1070
   256
1002
{
1002
}
1000
LType
1070
     4
1000
BYLAYER
1002
{
1002
}
1002
}
1000
GRLI
1070
     9
1000
5
1002
{
1000
Class
1070
     4
1000
SYM
1002
{
1002
}
1000
Color
1070
     1
1070
   256
1002
{
1002
}
1000
LType
1070
     4
1000
BYLAYER
1002
{
1002
}
1002
}
1000
GVLI
1070
     9
1000
4A
1002
{
1000
Class
1070
     4
1000

1002
{
1002
}
1000
Color
1070
     1
1070
   256
1002
{
1002
}
1000
LType
1070
     4
1000
BYLAYER
1002
{
1002
}
1002
}
1000
HATC
1070
     9
1000
8
1002
{
1000
Class
1070
     4
1000
HTC,BGD
1002
{
1002
}
1000
Color
1070
     1
1070
   256
1002
{
1002
}
1000
LType
1070
     4
1000
BYLAYER
1002
{
1002
}
1002
}
1000
HIDN
1070
     9
1000
3A
1002
{
1000
Class
1070
     4
1000
HID,BGD
1002
{
1002
}
1000
Color
1070
     1
1070
   256
1002
{
1002
}
1000
LType
1070
     4
1000
BYLAYER
1002
{
1002
}
1002
}
1000
HIDW
1070
     9
1000
3
1002
{
1000
Class
1070
     4
1000
HID,BGD
1002
{
1002
}
1000
Color
1070
     1
1070
   256
1002
{
1002
}
1000
LType
1070
     4
1000
BYLAYER
1002
{
1002
}
1002
}
1000
HLIN
1070
     9
1000
4
1002
{
1000
Class
1070
     4
1000
BGD
1002
{
1002
}
1000
Color
1070
     1
1070
   256
1002
{
1002
}
1000
LType
1070
     4
1000
BYLAYER
1002
{
1002
}
1002
}
1000
HOCN
1070
     9
1000
7A
1002
{
1000
Class
1070
     4
1000
CEN
1002
{
1002
}
1000
Color
1070
     1
1070
   256
1002
{
1002
}
1000
LType
1070
     4
1000
BYLAYER
1002
{
1002
}
1002
}
1000
HOCW
1070
     9
1000
7
1002
{
1000
Class
1070
     4
1000
CEN
1002
{
1002
}
1000
Color
1070
     1
1070
   256
1002
{
1002
}
1000
LType
1070
     4
1000
BYLAYER
1002
{
1002
}
1002
}
1000
INFO
1070
     9
1000
INFO
1002
{
1000
Class
1070
     4
1000
SPZ,SYM
1002
{
1002
}
1000
Color
1070
     1
1070
   256
1002
{
1002
}
1000
LType
1070
     4
1000
BYLAYER
1002
{
1002
}
1002
}
1000
LADI
1070
     9
1000
4
1002
{
1000
Class
1070
     4
1000
BGD
1002
{
1002
}
1000
Color
1070
     1
1070
   256
1002
{
1002
}
1000
LType
1070
     4
1000
BYLAYER
1002
{
1002
}
1002
}
1000
LEAD
1070
     9
1000
5
1002
{
1000
Class
1070
     4
1000
SYM
1002
{
1002
}
1000
Color
1070
     1
1070
   256
1002
{
1002
}
1000
LType
1070
     4
1000
BYLAYER
1002
{
1002
}
1002
}
1000
N_ADDL
1070
     9
1000
5N
1002
{
1000
Class
1070
     4
1000
SYM
1002
{
1002
}
1000
Color
1070
     1
1070
     1
1002
{
1002
}
1000
LType
1070
     4
1000
BYLAYER
1002
{
1002
}
1002
}
1000
N_BHNV
1070
     9
1000
9N
1002
{
1000
Class
1070
     4
1000
INV
1002
{
1002
}
1000
Color
1070
     1
1070
   256
1002
{
1002
}
1000
LType
1070
     4
1000
BYLAYER
1002
{
1002
}
1002
}
1000
N_CON1
1070
     9
1000
0N
1002
{
1000
Class
1070
     4
1000
CON,BGD
1002
{
1002
}
1000
Color
1070
     1
1070
   256
1002
{
1002
}
1000
LType
1070
     4
1000
BYLAYER
1002
{
1002
}
1002
}
1000
N_CON2
1070
     9
1000
1N
1002
{
1000
Class
1070
     4
1000
CON,BGD
1002
{
1002
}
1000
Color
1070
     1
1070
   256
1002
{
1002
}
1000
LType
1070
     4
1000
BYLAYER
1002
{
1002
}
1002
}
1000
N_CON3
1070
     9
1000
2N
1002
{
1000
Class
1070
     4
1000
CON,BGD
1002
{
1002
}
1000
Color
1070
     1
1070
   256
1002
{
1002
}
1000
LType
1070
     4
1000
BYLAYER
1002
{
1002
}
1002
}
1000
N_CON4
1070
     9
1000
2N
1002
{
1000
Class
1070
     4
1000
CON,BGD
1002
{
1002
}
1000
Color
1070
     1
1070
   256
1002
{
1002
}
1000
LType
1070
     4
1000
BYLAYER
1002
{
1002
}
1002
}
1000
N_CENN
1070
     9
1000
7AN
1002
{
1000
Class
1070
     4
1000
CEN
1002
{
1002
}
1000
Color
1070
     1
1070
   256
1002
{
1002
}
1000
LType
1070
     4
1000
BYLAYER
1002
{
1002
}
1002
}
1000
N_CENW
1070
     9
1000
7N
1002
{
1000
Class
1070
     4
1000
CEN
1002
{
1002
}
1000
Color
1070
     1
1070
   256
1002
{
1002
}
1000
LType
1070
     4
1000
BYLAYER
1002
{
1002
}
1002
}
1000
N_DILI
1070
     9
1000
5N
1002
{
1000
Class
1070
     4
1000
DIM,SYM
1002
{
1002
}
1000
Color
1070
     1
1070
   256
1002
{
1002
}
1000
LType
1070
     4
1000
BYLAYER
1002
{
1002
}
1002
}
1000
N_DITX
1070
     9
1000
5N
1002
{
1000
Class
1070
     4
1000
DIM,SYM
1002
{
1002
}
1000
Color
1070
     1
1070
     2
1002
{
1002
}
1000
LType
1070
     4
1000
CONTINUOUS
1002
{
1002
}
1002
}
1000
N_DIXL
1070
     9
1000
5N
1002
{
1000
Class
1070
     4
1000
DIM,SYM
1002
{
1002
}
1000
Color
1070
     1
1070
   256
1002
{
1002
}
1000
LType
1070
     4
1000
BYLAYER
1002
{
1002
}
1002
}
1000
N_HATC
1070
     9
1000
8N
1002
{
1000
Class
1070
     4
1000
HTC,BGD
1002
{
1002
}
1000
Color
1070
     1
1070
   256
1002
{
1002
}
1000
LType
1070
     4
1000
BYLAYER
1002
{
1002
}
1002
}
1000
N_HIDN
1070
     9
1000
3AN
1002
{
1000
Class
1070
     4
1000
HID,BGD
1002
{
1002
}
1000
Color
1070
     1
1070
   256
1002
{
1002
}
1000
LType
1070
     4
1000
BYLAYER
1002
{
1002
}
1002
}
1000
N_HIDW
1070
     9
1000
3N
1002
{
1000
Class
1070
     4
1000
HID,BGD
1002
{
1002
}
1000
Color
1070
     1
1070
   256
1002
{
1002
}
1000
LType
1070
     4
1000
BYLAYER
1002
{
1002
}
1002
}
1000
N_NGIP
1070
     9
1000
IPN
1002
{
1000
Class
1070
     4
1000

1002
{
1002
}
1000
Color
1070
     1
1070
   256
1002
{
1002
}
1000
LType
1070
     4
1000
BYLAYER
1002
{
1002
}
1002
}
1000
N_PHAN
1070
     9
1000
4AN
1002
{
1000
Class
1070
     4
1000

1002
{
1002
}
1000
Color
1070
     1
1070
   256
1002
{
1002
}
1000
LType
1070
     4
1000
BYLAYER
1002
{
1002
}
1002
}
1000
N_POSL
1070
     9
1000
5N
1002
{
1000
Class
1070
     4
1000
SYM
1002
{
1002
}
1000
Color
1070
     1
1070
   256
1002
{
1002
}
1000
LType
1070
     4
1000
BYLAYER
1002
{
1002
}
1002
}
1000
N_TCON
1070
     9
1000
0N
1002
{
1000
Class
1070
     4
1000
CON,BGD
1002
{
1002
}
1000
Color
1070
     1
1070
   256
1002
{
1002
}
1000
LType
1070
     4
1000
BYLAYER
1002
{
1002
}
1002
}
1000
N_THLI
1070
     9
1000
4N
1002
{
1000
Class
1070
     4
1000
BGD
1002
{
1002
}
1000
Color
1070
     1
1070
   256
1002
{
1002
}
1000
LType
1070
     4
1000
BYLAYER
1002
{
1002
}
1002
}
1000
N_TLEN
1070
     9
1000
0N
1002
{
1000
Class
1070
     4
1000
CON,BGD
1002
{
1002
}
1000
Color
1070
     1
1070
   256
1002
{
1002
}
1000
LType
1070
     4
1000
BYLAYER
1002
{
1002
}
1002
}
1000
N_TXT3
1070
     9
1000
6N
1002
{
1000
Class
1070
     4
1000
SYM
1002
{
1002
}
1000
Color
1070
     1
1070
   256
1002
{
1002
}
1000
LType
1070
     4
1000
BYLAYER
1002
{
1002
}
1002
}
1000
N_VPLI
1070
     9
1000
2AN
1002
{
1000
Class
1070
     4
1000

1002
{
1002
}
1000
Color
1070
     1
1070
   256
1002
{
1002
}
1000
LType
1070
     4
1000
BYLAYER
1002
{
1002
}
1002
}
1000
NGIP
1070
     9
1000
IP
1002
{
1000
Class
1070
     4
1000

1002
{
1002
}
1000
Color
1070
     1
1070
   256
1002
{
1002
}
1000
LType
1070
     4
1000
BYLAYER
1002
{
1002
}
1002
}
1000
PAL2
1070
     9
1000
RAHM2
1002
{
1000
Class
1070
     4
1000
SPZ,SYM
1002
{
1002
}
1000
Color
1070
     1
1070
   256
1002
{
1002
}
1000
LType
1070
     4
1000
BYLAYER
1002
{
1002
}
1002
}
1000
PAL3
1070
     9
1000
RAHM3
1002
{
1000
Class
1070
     4
1000
SPZ,SYM
1002
{
1002
}
1000
Color
1070
     1
1070
   256
1002
{
1002
}
1000
LType
1070
     4
1000
BYLAYER
1002
{
1002
}
1002
}
1000
PAL5
1070
     9
1000
RAHM5
1002
{
1000
Class
1070
     4
1000
SPZ,SYM
1002
{
1002
}
1000
Color
1070
     1
1070
   256
1002
{
1002
}
1000
LType
1070
     4
1000
BYLAYER
1002
{
1002
}
1002
}
1000
PAL7
1070
     9
1000
RAHM5
1002
{
1000
Class
1070
     4
1000
SPZ,SYM
1002
{
1002
}
1000
Color
1070
     1
1070
     7
1002
{
1002
}
1000
LType
1070
     4
1000
CONTINUOUS
1002
{
1002
}
1002
}
1000
PHAN
1070
     9
1000
4A
1002
{
1000
Class
1070
     4
1000

1002
{
1002
}
1000
Color
1070
     1
1070
   256
1002
{
1002
}
1000
LType
1070
     4
1000
BYLAYER
1002
{
1002
}
1002
}
1000
POSL
1070
     9
1000
5
1002
{
1000
Class
1070
     4
1000
SYM
1002
{
1002
}
1000
Color
1070
     1
1070
   256
1002
{
1002
}
1000
LType
1070
     4
1000
BYLAYER
1002
{
1002
}
1002
}
1000
POSN
1070
     9
1000
6
1002
{
1000
Class
1070
     4
1000
SYM
1002
{
1002
}
1000
Color
1070
     1
1070
     7
1002
{
1002
}
1000
LType
1070
     4
1000
BYLAYER
1002
{
1002
}
1002
}
1000
POSREF
1070
     9
1000
6
1002
{
1000
Class
1070
     4
1000
SYM
1002
{
1002
}
1000
Color
1070
     1
1070
     5
1002
{
1002
}
1000
LType
1070
     4
1000
BYLAYER
1002
{
1002
}
1002
}
1000
POSX
1070
     9
1000
5
1002
{
1000
Class
1070
     4
1000
SYM
1002
{
1002
}
1000
Color
1070
     1
1070
     2
1002
{
1002
}
1000
LType
1070
     4
1000
CONTINUOUS
1002
{
1002
}
1002
}
1000
PSEC
1070
     9
1000
4A
1002
{
1000
Class
1070
     4
1000

1002
{
1002
}
1000
Color
1070
     1
1070
   256
1002
{
1002
}
1000
LType
1070
     4
1000
BYLAYER
1002
{
1002
}
1002
}
1000
RCGN
1070
     9
1000
7A
1002
{
1000
Class
1070
     4
1000
CEN
1002
{
1002
}
1000
Color
1070
     1
1070
   256
1002
{
1002
}
1000
LType
1070
     4
1000
BYLAYER
1002
{
1002
}
1002
}
1000
RCGW
1070
     9
1000
7
1002
{
1000
Class
1070
     4
1000
CEN
1002
{
1002
}
1000
Color
1070
     1
1070
   256
1002
{
1002
}
1000
LType
1070
     4
1000
BYLAYER
1002
{
1002
}
1002
}
1000
RFDI
1070
     9
1000
4
1002
{
1000
Class
1070
     4
1000
BGD
1002
{
1002
}
1000
Color
1070
     1
1070
   256
1002
{
1002
}
1000
LType
1070
     4
1000
BYLAYER
1002
{
1002
}
1002
}
1000
RQTR
1070
     9
1000
4
1002
{
1000
Class
1070
     4
1000

1002
{
1002
}
1000
Color
1070
     1
1070
     7
1002
{
1002
}
1000
LType
1070
     4
1000
GEN7A
1002
{
1002
}
1002
}
1000
RSBO
1070
     9
1000
4
1002
{
1000
Class
1070
     4
1000
BGD
1002
{
1002
}
1000
Color
1070
     1
1070
   256
1002
{
1002
}
1000
LType
1070
     4
1000
BYLAYER
1002
{
1002
}
1002
}
1000
SBRK
1070
     9
1000
4
1002
{
1000
Class
1070
     4
1000
BGD
1002
{
1002
}
1000
Color
1070
     1
1070
   256
1002
{
1002
}
1000
LType
1070
     4
1000
BYLAYER
1002
{
1002
}
1002
}
1000
SCEN
1070
     9
1000
7
1002
{
1000
Class
1070
     4
1000

1002
{
1002
}
1000
Color
1070
     1
1070
   256
1002
{
1002
}
1000
LType
1070
     4
1000
CONTINUOUS
1002
{
1002
}
1002
}
1000
SECT
1070
     9
1000
4
1002
{
1000
Class
1070
     4
1000
BGD
1002
{
1002
}
1000
Color
1070
     1
1070
   256
1002
{
1002
}
1000
LType
1070
     4
1000
BYLAYER
1002
{
1002
}
1002
}
1000
SELN
1070
     9
1000
7A
1002
{
1000
Class
1070
     4
1000

1002
{
1002
}
1000
Color
1070
     1
1070
   256
1002
{
1002
}
1000
LType
1070
     4
1000
BYLAYER
1002
{
1002
}
1002
}
1000
SELW
1070
     9
1000
7
1002
{
1000
Class
1070
     4
1000

1002
{
1002
}
1000
Color
1070
     1
1070
   256
1002
{
1002
}
1000
LType
1070
     4
1000
BYLAYER
1002
{
1002
}
1002
}
1000
SSYS
1070
     9
1000
0
1002
{
1000
Class
1070
     4
1000

1002
{
1002
}
1000
Color
1070
     1
1070
   256
1002
{
1002
}
1000
LType
1070
     4
1000
BYLAYER
1002
{
1002
}
1002
}
1000
STLI
1070
     9
1000
4
1002
{
1000
Class
1070
     4
1000

1002
{
1002
}
1000
Color
1070
     1
1070
     7
1002
{
1002
}
1000
LType
1070
     4
1000
GEN3A
1002
{
1002
}
1002
}
1000
SYB1
1070
     9
1000
5
1002
{
1000
Class
1070
     4
1000
SYM
1002
{
1002
}
1000
Color
1070
     1
1070
   256
1002
{
1002
}
1000
LType
1070
     4
1000
BYLAYER
1002
{
1002
}
1002
}
1000
SYB2
1070
     9
1000
5
1002
{
1000
Class
1070
     4
1000
SYM
1002
{
1002
}
1000
Color
1070
     1
1070
   256
1002
{
1002
}
1000
LType
1070
     4
1000
BYLAYER
1002
{
1002
}
1002
}
1000
SYB3
1070
     9
1000
6
1002
{
1000
Class
1070
     4
1000
SYM
1002
{
1002
}
1000
Color
1070
     1
1070
   256
1002
{
1002
}
1000
LType
1070
     4
1000
CONTINUOUS
1002
{
1002
}
1002
}
1000
SYB5
1070
     9
1000
5
1002
{
1000
Class
1070
     4
1000
SYM
1002
{
1002
}
1000
Color
1070
     1
1070
     7
1002
{
1002
}
1000
LType
1070
     4
1000
BYLAYER
1002
{
1002
}
1002
}
1000
SYMN
1070
     9
1000
7A
1002
{
1000
Class
1070
     4
1000
CEN
1002
{
1002
}
1000
Color
1070
     1
1070
   256
1002
{
1002
}
1000
LType
1070
     4
1000
BYLAYER
1002
{
1002
}
1002
}
1000
SYMW
1070
     9
1000
7
1002
{
1000
Class
1070
     4
1000
CEN
1002
{
1002
}
1000
Color
1070
     1
1070
   256
1002
{
1002
}
1000
LType
1070
     4
1000
BYLAYER
1002
{
1002
}
1002
}
1000
TCON
1070
     9
1000
0
1002
{
1000
Class
1070
     4
1000
CON,BGD
1002
{
1002
}
1000
Color
1070
     1
1070
   256
1002
{
1002
}
1000
LType
1070
     4
1000
BYLAYER
1002
{
1002
}
1002
}
1000
THLI
1070
     9
1000
4
1002
{
1000
Class
1070
     4
1000
BGD
1002
{
1002
}
1000
Color
1070
     1
1070
   256
1002
{
1002
}
1000
LType
1070
     4
1000
BYLAYER
1002
{
1002
}
1002
}
1000
TIT2
1070
     9
1000
RAHM2
1002
{
1000
Class
1070
     4
1000
SPZ,SYM
1002
{
1002
}
1000
Color
1070
     1
1070
   256
1002
{
1002
}
1000
LType
1070
     4
1000
BYLAYER
1002
{
1002
}
1002
}
1000
TIT3
1070
     9
1000
RAHM3
1002
{
1000
Class
1070
     4
1000
SPZ,SYM
1002
{
1002
}
1000
Color
1070
     1
1070
   256
1002
{
1002
}
1000
LType
1070
     4
1000
BYLAYER
1002
{
1002
}
1002
}
1000
TIT5
1070
     9
1000
RAHM5
1002
{
1000
Class
1070
     4
1000
SPZ,SYM
1002
{
1002
}
1000
Color
1070
     1
1070
   256
1002
{
1002
}
1000
LType
1070
     4
1000
BYLAYER
1002
{
1002
}
1002
}
1000
TIT7
1070
     9
1000
RAHM5
1002
{
1000
Class
1070
     4
1000
SPZ,SYM
1002
{
1002
}
1000
Color
1070
     1
1070
     7
1002
{
1002
}
1000
LType
1070
     4
1000
CONTINUOUS
1002
{
1002
}
1002
}
1000
TLEN
1070
     9
1000
0
1002
{
1000
Class
1070
     4
1000
CON,BGD
1002
{
1002
}
1000
Color
1070
     1
1070
   256
1002
{
1002
}
1000
LType
1070
     4
1000
BYLAYER
1002
{
1002
}
1002
}
1000
TRKN
1070
     9
1000
7A
1002
{
1000
Class
1070
     4
1000

1002
{
1002
}
1000
Color
1070
     1
1070
   256
1002
{
1002
}
1000
LType
1070
     4
1000
BYLAYER
1002
{
1002
}
1002
}
1000
TRKW
1070
     9
1000
7
1002
{
1000
Class
1070
     4
1000

1002
{
1002
}
1000
Color
1070
     1
1070
   256
1002
{
1002
}
1000
LType
1070
     4
1000
BYLAYER
1002
{
1002
}
1002
}
1000
TRLI
1070
     9
1000
4
1002
{
1000
Class
1070
     4
1000
BGD
1002
{
1002
}
1000
Color
1070
     1
1070
   256
1002
{
1002
}
1000
LType
1070
     4
1000
BYLAYER
1002
{
1002
}
1002
}
1000
TXT1
1070
     9
1000
6
1002
{
1000
Class
1070
     4
1000
SYM
1002
{
1002
}
1000
Color
1070
     1
1070
     2
1002
{
1002
}
1000
LType
1070
     4
1000
BYLAYER
1002
{
1002
}
1002
}
1000
TXT2
1070
     9
1000
6
1002
{
1000
Class
1070
     4
1000
SYM
1002
{
1002
}
1000
Color
1070
     1
1070
     2
1002
{
1002
}
1000
LType
1070
     4
1000
BYLAYER
1002
{
1002
}
1002
}
1000
TXT3
1070
     9
1000
6
1002
{
1000
Class
1070
     4
1000
SYM
1002
{
1002
}
1000
Color
1070
     1
1070
   256
1002
{
1002
}
1000
LType
1070
     4
1000
BYLAYER
1002
{
1002
}
1002
}
1000
TXT5
1070
     9
1000
6
1002
{
1000
Class
1070
     4
1000
SYM
1002
{
1002
}
1000
Color
1070
     1
1070
     7
1002
{
1002
}
1000
LType
1070
     4
1000
BYLAYER
1002
{
1002
}
1002
}
1000
TXT7
1070
     9
1000
6
1002
{
1000
Class
1070
     4
1000
SYM
1002
{
1002
}
1000
Color
1070
     1
1070
     7
1002
{
1002
}
1000
LType
1070
     4
1000
BYLAYER
1002
{
1002
}
1002
}
1000
VIEW
1070
     9
1000
VIEW
1002
{
1000
Class
1070
     4
1000
SPZ
1002
{
1002
}
1000
Color
1070
     1
1070
   256
1002
{
1002
}
1000
LType
1070
     4
1000
BYLAYER
1002
{
1002
}
1002
}
1000
VPLI
1070
     9
1000
2A
1002
{
1000
Class
1070
     4
1000

1002
{
1002
}
1000
Color
1070
     1
1070
   256
1002
{
1002
}
1000
LType
1070
     4
1000
BYLAYER
1002
{
1002
}
1002
}
1000
ZIZA
1070
     9
1000
4
1002
{
1000
Class
1070
     4
1000
BGD
1002
{
1002
}
1000
Color
1070
     1
1070
   256
1002
{
1002
}
1000
LType
1070
     4
1000
GENZIGZAG
1002
{
1002
}
1002
}
  0
APPID
  5
13B1
330
136B
100
AcDbSymbolTableRecord
100
AcDbRegAppTableRecord
  2
GENIUS_GENCFG4_13
 70
     0
1001
GENIUS_GENCFG_13
1071
1020868255
1000
13B1
1000
GEN
1070
     9
1000
GenCfgObject
1000
GenCfgShort
1000
GenCfgReal
1000
GenCfgBool
1000
GenCfgString
1000
GenCfgDim
1000
GenCfgLaySection
1000
GenCfgLType
1000
GenCfgFilter
1000
Balloon
1070
     0
1002
{
1000
GenIF
1070
     1
1070
     0
1002
{
1002
}
1000
GenPosInc
1070
     1
1070
     1
1002
{
1002
}
1000
GenPosBlk
1070
     1
1070
     8
1002
{
1002
}
1000
GenPosVar
1070
     1
1070
     0
1002
{
1002
}
1000
GenZiCir
1070
     2
1040
1.5
1002
{
1002
}
1000
MaxCharForCenteredText
1070
     1
1070
    30
1002
{
1002
}
1000
Snap
1070
     0
1002
{
1000
ActivationRadius
1070
     2
1040
1.0
1002
{
1002
}
1000
M
1070
     0
1002
{
1000
SnapStepX
1070
     2
1040
20.0
1002
{
1002
}
1000
SnapStepY
1070
     2
1040
10.0
1002
{
1002
}
1002
}
1000
I
1070
     0
1002
{
1000
SnapStepX
1070
     2
1040
1.0
1002
{
1002
}
1000
SnapStepY
1070
     2
1040
0.5
1002
{
1002
}
1002
}
1002
}
1002
}
1000
Centerline
1070
     0
1002
{
1000
ScaleNot
1070
     3
1070
     0
1002
{
1002
}
1000
M
1070
     0
1002
{
1000
GenCenAng
1070
     4
1000
45|90|135
1002
{
1002
}
1000
GenCenDia
1070
     2
1040
10.0
1002
{
1002
}
1000
GenCenDias
1070
     4
1000
10|20|30
1002
{
1002
}
1000
GenCenDist
1070
     2
1040
3.0
1002
{
1002
}
1000
GenCenLen
1070
     2
1040
10.0
1002
{
1002
}
1000
GenCenOff
1070
     2
1040
10.0
1002
{
1002
}
1002
}
1000
I
1070
     0
1002
{
1000
GenCenAng
1070
     4
1000
45|90|135
1002
{
1002
}
1000
GenCenDia
1070
     2
1040
0.5
1002
{
1002
}
1000
GenCenDias
1070
     4
1000
0.5|1.0|1.5
1002
{
1002
}
1000
GenCenDist
1070
     2
1040
0.125
1002
{
1002
}
1000
GenCenLen
1070
     2
1040
0.5
1002
{
1002
}
1000
GenCenOff
1070
     2
1040
0.5
1002
{
1002
}
1002
}
1002
}
1000
CLine
1070
     0
1002
{
1000
CAngArray
1070
     4
1000
30|45|60
1002
{
1002
}
1000
Typ
1070
     4
1000
XLINE
1002
{
1002
}
1000
M
1070
     0
1002
{
1000
CLinArray
1070
     4
1000
10|20|30
1002
{
1002
}
1002
}
1000
I
1070
     0
1002
{
1000
CLinArray
1070
     4
1000
0.125|0.25|0.5
1002
{
1002
}
1002
}
1002
}
1000
Detail
1070
     0
1002
{
1002
}
1000
Dimension
1070
     5
1002
{
1000
DIMALT
1070
     1
1070
     0
1002
{
1002
}
1000
DIMALTD
1070
     1
1070
     2
1002
{
1002
}
1000
DIMALTTD
1070
     1
1070
     4
1002
{
1002
}
1000
DIMALTTZ
1070
     1
1070
     0
1002
{
1002
}
1000
DIMALTU
1070
     1
1070
     2
1002
{
1002
}
1000
DIMALTZ
1070
     1
1070
     0
1002
{
1002
}
1000
DIMAUNIT
1070
     1
1070
     0
1002
{
1002
}
1000
DIMBLK
1070
     4
1000

1002
{
1002
}
1000
DIMBLK1
1070
     4
1000

1002
{
1002
}
1000
DIMBLK2
1070
     4
1000

1002
{
1002
}
1000
DIMCLRD
1070
     1
1070
   256
1002
{
1002
}
1000
DIMCLRE
1070
     1
1070
   256
1002
{
1002
}
1000
DIMCLRT
1070
     1
1070
     2
1002
{
1002
}
1000
DIMDLE
1070
     2
1040
0.0
1002
{
1002
}
1000
DIMFIT
1070
     1
1070
     3
1002
{
1002
}
1000
DIMJUST
1070
     1
1070
     0
1002
{
1002
}
1000
DIMLFAC
1070
     2
1040
1.0
1002
{
1002
}
1000
DIMLIM
1070
     1
1070
     0
1002
{
1002
}
1000
DIMPOST
1070
     4
1000

1002
{
1002
}
1000
DIMRND
1070
     2
1040
0.0
1002
{
1002
}
1000
DIMSAH
1070
     1
1070
     0
1002
{
1002
}
1000
DIMSCALE
1070
     2
1040
1.0
1002
{
1002
}
1000
DIMSD1
1070
     1
1070
     0
1002
{
1002
}
1000
DIMSD2
1070
     1
1070
     0
1002
{
1002
}
1000
DIMSE1
1070
     1
1070
     0
1002
{
1002
}
1000
DIMSE2
1070
     1
1070
     0
1002
{
1002
}
1000
DIMSOXD
1070
     1
1070
     0
1002
{
1002
}
1000
DIMTAD
1070
     1
1070
     0
1002
{
1002
}
1000
DIMTFAC
1070
     2
1040
0.71
1002
{
1002
}
1000
DIMTIH
1070
     1
1070
     0
1002
{
1002
}
1000
DIMTIX
1070
     1
1070
     0
1002
{
1002
}
1000
DIMTM
1070
     2
1040
0.1
1002
{
1002
}
1000
DIMTOFL
1070
     1
1070
     0
1002
{
1002
}
1000
DIMTOH
1070
     1
1070
     0
1002
{
1002
}
1000
DIMTOL
1070
     1
1070
     0
1002
{
1002
}
1000
DIMTOLJ
1070
     1
1070
     1
1002
{
1002
}
1000
DIMTP
1070
     2
1040
0.1
1002
{
1002
}
1000
DIMTSZ
1070
     2
1040
0.0
1002
{
1002
}
1000
DIMTVP
1070
     2
1040
0.0
1002
{
1002
}
1000
DIMTXSTY
1070
     4
1000
STANDARD
1002
{
1002
}
1000
DIMTZIN
1070
     1
1070
     0
1002
{
1002
}
1000
DIMUNIT
1070
     1
1070
     2
1002
{
1002
}
1000
DIMUPT
1070
     1
1070
     0
1002
{
1002
}
1000
M
1070
     0
1002
{
1000
DIMALTF
1070
     2
1040
0.03937
1002
{
1002
}
1000
DIMAPOST
1070
     4
1000
"
1002
{
1002
}
1000
DIMASZ
1070
     2
1040
2.5
1002
{
1002
}
1000
DIMCEN
1070
     2
1040
0.0
1002
{
1002
}
1000
DIMDEC
1070
     1
1070
     2
1002
{
1002
}
1000
DIMDLI
1070
     2
1040
7.0
1002
{
1002
}
1000
DIMEXE
1070
     2
1040
1.0
1002
{
1002
}
1000
DIMEXO
1070
     2
1040
1.0
1002
{
1002
}
1000
DIMGAP
1070
     2
1040
0.6
1002
{
1002
}
1000
DIMTDEC
1070
     1
1070
     3
1002
{
1002
}
1000
DIMTXT
1070
     2
1040
3.5
1002
{
1002
}
1000
DIMZIN
1070
     1
1070
     8
1002
{
1002
}
1002
}
1000
I
1070
     0
1002
{
1000
DIMALTF
1070
     2
1040
25.4
1002
{
1002
}
1000
DIMAPOST
1070
     4
1000
mm
1002
{
1002
}
1000
DIMASZ
1070
     2
1040
0.1
1002
{
1002
}
1000
DIMCEN
1070
     2
1040
0.0
1002
{
1002
}
1000
DIMDEC
1070
     1
1070
     4
1002
{
1002
}
1000
DIMDLI
1070
     2
1040
0.5
1002
{
1002
}
1000
DIMEXE
1070
     2
1040
0.1
1002
{
1002
}
1000
DIMEXO
1070
     2
1040
0.05
1002
{
1002
}
1000
DIMGAP
1070
     2
1040
0.06
1002
{
1002
}
1000
DIMTDEC
1070
     1
1070
     4
1002
{
1002
}
1000
DIMTXT
1070
     2
1040
0.12
1002
{
1002
}
1000
DIMZIN
1070
     1
1070
     7
1002
{
1002
}
1002
}
1000
GEN-ISO
1070
     5
1002
{
1000
NAME
1070
     4
1000
GEN-ISO
1002
{
1002
}
1000
DIMTAD
1070
     1
1070
     1
1002
{
1002
}
1000
DIMTOLJ
1070
     1
1070
     0
1002
{
1002
}
1000
DIMTOFL
1070
     1
1070
     1
1002
{
1002
}
1000
M
1070
     0
1002
{
1002
}
1000
I
1070
     0
1002
{
1002
}
1002
}
1000
GEN-ISO-POS
1070
     5
1002
{
1000
NAME
1070
     4
1000
GEN-ISO-POS
1002
{
1002
}
1000
DIMTOLJ
1070
     1
1070
     0
1002
{
1002
}
1000
DIMTXSTY
1070
     4
1000
STANDARD
1002
{
1002
}
1000
M
1070
     0
1002
{
1000
DIMASZ
1070
     2
1040
2.5
1002
{
1002
}
1000
DIMGAP
1070
     2
1040
1.5
1002
{
1002
}
1000
DIMTXT
1070
     2
1040
5.0
1002
{
1002
}
1002
}
1000
I
1070
     0
1002
{
1000
DIMASZ
1070
     2
1040
0.1
1002
{
1002
}
1000
DIMGAP
1070
     2
1040
0.06
1002
{
1002
}
1000
DIMTXT
1070
     2
1040
0.2
1002
{
1002
}
1002
}
1002
}
1000
GEN-ISO-CIR
1070
     5
1002
{
1000
NAME
1070
     4
1000
GEN-ISO$3
1002
{
1002
}
1000
DIMFIT
1070
     1
1070
     0
1002
{
1002
}
1000
DIMTAD
1070
     1
1070
     1
1002
{
1002
}
1000
DIMTOH
1070
     1
1070
     1
1002
{
1002
}
1000
DIMTOLJ
1070
     1
1070
     0
1002
{
1002
}
1000
DIMUPT
1070
     1
1070
     1
1002
{
1002
}
1000
M
1070
     0
1002
{
1002
}
1000
I
1070
     0
1002
{
1002
}
1002
}
1000
GEN-ISO-RAD
1070
     5
1002
{
1000
NAME
1070
     4
1000
GEN-ISO$4
1002
{
1002
}
1000
DIMFIT
1070
     1
1070
     0
1002
{
1002
}
1000
DIMTAD
1070
     1
1070
     1
1002
{
1002
}
1000
DIMTIH
1070
     1
1070
     0
1002
{
1002
}
1000
DIMTIX
1070
     1
1070
     0
1002
{
1002
}
1000
DIMTOH
1070
     1
1070
     1
1002
{
1002
}
1000
DIMTOLJ
1070
     1
1070
     0
1002
{
1002
}
1000
DIMTOFL
1070
     1
1070
     0
1002
{
1002
}
1000
DIMUPT
1070
     1
1070
     1
1002
{
1002
}
1000
M
1070
     0
1002
{
1002
}
1000
I
1070
     0
1002
{
1002
}
1002
}
1000
GEN-ISO-ORD
1070
     5
1002
{
1000
NAME
1070
     4
1000
GEN-ISO$6
1002
{
1002
}
1000
DIMTOLJ
1070
     1
1070
     0
1002
{
1002
}
1000
M
1070
     0
1002
{
1002
}
1000
I
1070
     0
1002
{
1002
}
1002
}
1000
GEN-ISO-AXE-F
1070
     5
1002
{
1000
NAME
1070
     4
1000
GEN-ISO-AXE-F
1002
{
1002
}
1000
DIMSE1
1070
     1
1070
     1
1002
{
1002
}
1000
DIMSE2
1070
     1
1070
     1
1002
{
1002
}
1000
DIMTAD
1070
     1
1070
     1
1002
{
1002
}
1000
DIMTOLJ
1070
     1
1070
     0
1002
{
1002
}
1000
DIMTOFL
1070
     1
1070
     1
1002
{
1002
}
1000
M
1070
     0
1002
{
1002
}
1000
I
1070
     0
1002
{
1002
}
1002
}
1000
GEN-ISO-AXE-H
1070
     5
1002
{
1000
NAME
1070
     4
1000
GEN-ISO-AXE-H
1002
{
1002
}
1000
DIMBLK1
1070
     4
1000
GENAXEH
1002
{
1002
}
1000
DIMLFAC
1070
     2
1040
2.0
1002
{
1002
}
1000
DIMSAH
1070
     1
1070
     1
1002
{
1002
}
1000
DIMSE1
1070
     1
1070
     1
1002
{
1002
}
1000
DIMSE2
1070
     1
1070
     1
1002
{
1002
}
1000
DIMTAD
1070
     1
1070
     1
1002
{
1002
}
1000
DIMTOLJ
1070
     1
1070
     0
1002
{
1002
}
1000
DIMTOFL
1070
     1
1070
     1
1002
{
1002
}
1000
M
1070
     0
1002
{
1002
}
1000
I
1070
     0
1002
{
1002
}
1002
}
1000
GEN-ANSI
1070
     5
1002
{
1000
NAME
1070
     4
1000
GEN-ANSI
1002
{
1002
}
1000
DIMTIH
1070
     1
1070
     1
1002
{
1002
}
1000
DIMTOH
1070
     1
1070
     1
1002
{
1002
}
1000
DIMTAD
1070
     1
1070
     0
1002
{
1002
}
1000
DIMTOLJ
1070
     1
1070
     1
1002
{
1002
}
1000
M
1070
     0
1002
{
1002
}
1000
I
1070
     0
1002
{
1002
}
1002
}
1000
GEN-ANSI-POS
1070
     5
1002
{
1000
NAME
1070
     4
1000
GEN-ANSI-POS
1002
{
1002
}
1000
DIMTOLJ
1070
     1
1070
     1
1002
{
1002
}
1000
DIMTXSTY
1070
     4
1000
STANDARD
1002
{
1002
}
1000
M
1070
     0
1002
{
1000
DIMASZ
1070
     2
1040
2.5
1002
{
1002
}
1000
DIMGAP
1070
     2
1040
1.5
1002
{
1002
}
1000
DIMTXT
1070
     2
1040
5.0
1002
{
1002
}
1002
}
1000
I
1070
     0
1002
{
1000
DIMASZ
1070
     2
1040
0.1
1002
{
1002
}
1000
DIMGAP
1070
     2
1040
0.06
1002
{
1002
}
1000
DIMTXT
1070
     2
1040
0.2
1002
{
1002
}
1002
}
1002
}
1000
GEN-ANSI-CIR
1070
     5
1002
{
1000
NAME
1070
     4
1000
GEN-ANSI$3
1002
{
1002
}
1000
DIMFIT
1070
     1
1070
     0
1002
{
1002
}
1000
DIMTAD
1070
     1
1070
     0
1002
{
1002
}
1000
DIMTIH
1070
     1
1070
     1
1002
{
1002
}
1000
DIMTIX
1070
     1
1070
     0
1002
{
1002
}
1000
DIMTOFL
1070
     1
1070
     0
1002
{
1002
}
1000
DIMTOH
1070
     1
1070
     1
1002
{
1002
}
1000
DIMTOLJ
1070
     1
1070
     1
1002
{
1002
}
1000
DIMUPT
1070
     1
1070
     1
1002
{
1002
}
1000
M
1070
     0
1002
{
1002
}
1000
I
1070
     0
1002
{
1002
}
1002
}
1000
GEN-ANSI-RAD
1070
     5
1002
{
1000
NAME
1070
     4
1000
GEN-ANSI$4
1002
{
1002
}
1000
DIMFIT
1070
     1
1070
     0
1002
{
1002
}
1000
DIMTAD
1070
     1
1070
     0
1002
{
1002
}
1000
DIMTIH
1070
     1
1070
     1
1002
{
1002
}
1000
DIMTIX
1070
     1
1070
     0
1002
{
1002
}
1000
DIMTOFL
1070
     1
1070
     0
1002
{
1002
}
1000
DIMTOH
1070
     1
1070
     1
1002
{
1002
}
1000
DIMTOLJ
1070
     1
1070
     1
1002
{
1002
}
1000
DIMUPT
1070
     1
1070
     1
1002
{
1002
}
1000
M
1070
     0
1002
{
1002
}
1000
I
1070
     0
1002
{
1002
}
1002
}
1000
GEN-ANSI-ORD
1070
     5
1002
{
1000
NAME
1070
     4
1000
GEN-ANSI$6
1002
{
1002
}
1000
DIMTAD
1070
     1
1070
     0
1002
{
1002
}
1000
DIMTIH
1070
     1
1070
     1
1002
{
1002
}
1000
DIMTOH
1070
     1
1070
     1
1002
{
1002
}
1000
DIMTOLJ
1070
     1
1070
     1
1002
{
1002
}
1000
M
1070
     0
1002
{
1002
}
1000
I
1070
     0
1002
{
1002
}
1002
}
1000
GEN-ANSI-AXE-F
1070
     5
1002
{
1000
NAME
1070
     4
1000
GEN-ANSI-AXE-F
1002
{
1002
}
1000
DIMBLK1
1070
     4
1000
GENAXEH
1002
{
1002
}
1000
DIMSAH
1070
     1
1070
     1
1002
{
1002
}
1000
DIMSE1
1070
     1
1070
     1
1002
{
1002
}
1000
DIMSE2
1070
     1
1070
     1
1002
{
1002
}
1000
DIMTAD
1070
     1
1070
     0
1002
{
1002
}
1000
DIMTIH
1070
     1
1070
     1
1002
{
1002
}
1000
DIMTOH
1070
     1
1070
     1
1002
{
1002
}
1000
DIMTOLJ
1070
     1
1070
     1
1002
{
1002
}
1000
M
1070
     0
1002
{
1002
}
1000
I
1070
     0
1002
{
1002
}
1002
}
1000
GEN-ANSI-AXE-H
1070
     5
1002
{
1000
NAME
1070
     4
1000
GEN-ANSI-AXE-H
1002
{
1002
}
1000
DIMBLK1
1070
     4
1000
GENAXEH
1002
{
1002
}
1000
DIMLFAC
1070
     2
1040
2.0
1002
{
1002
}
1000
DIMSAH
1070
     1
1070
     1
1002
{
1002
}
1000
DIMSE1
1070
     1
1070
     1
1002
{
1002
}
1000
DIMSE2
1070
     1
1070
     1
1002
{
1002
}
1000
DIMTAD
1070
     1
1070
     0
1002
{
1002
}
1000
DIMTOFL
1070
     1
1070
     1
1002
{
1002
}
1000
DIMTOLJ
1070
     1
1070
     1
1002
{
1002
}
1000
M
1070
     0
1002
{
1002
}
1000
I
1070
     0
1002
{
1002
}
1002
}
1002
}
1000
DimSet
1070
     0
1002
{
1000
ChainSum
1070
     3
1070
     0
1002
{
1002
}
1000
DimDclTyp0
1070
     4
1000
dim23
1002
{
1002
}
1000
HorBra
1070
     3
1070
     0
1002
{
1002
}
1000
StrDia
1070
     4
1000
%%c<>
1002
{
1002
}
1000
StrRad
1070
     4
1000
R<>
1002
{
1002
}
1000
TextMinus
1070
     4
1000
<>
1002
{
1002
}
1000
TextPlus
1070
     4
1000
<>
1002
{
1002
}
1000
M
1070
     0
1002
{
1000
DimdliFirst
1070
     2
1040
10.0
1002
{
1002
}
1000
PointMakeDist
1070
     2
1040
10.0
1002
{
1002
}
1002
}
1000
I
1070
     0
1002
{
1000
DimdliFirst
1070
     2
1040
0.5
1002
{
1002
}
1000
PointMakeDist
1070
     2
1040
0.5
1002
{
1002
}
1002
}
1000
FitGrade
1070
     4
1000
h7
1002
{
1002
}
1002
}
1000
Drawing
1070
     0
1002
{
1000
ChamferDimMode
1070
     1
1070
     2
1002
{
1002
}
1000
Gen_Fiso
1070
    -3
1040
1.0
1002
{
1002
}
1000
GenDimStil
1070
     4
1000
ISO
1002
{
1002
}
1000
GenDwgUScale
1070
     2
1040
1.0
1002
{
1002
}
1000
GenInch
1070
     4
1000
M
1002
{
1002
}
1000
GenPlotScale
1070
     4
1000
1:5
1002
{
1002
}
1000
Revisi
1070
     4
1000
0
1002
{
1002
}
1000
Version
1070
    -5
1000
14.01/Apr  1 1998
1002
{
1002
}
1000
Platform
1070
    -5
1000
WINNT
1002
{
1002
}
1002
}
1000
DwgVar
1070
     0
1002
{
1000
M
1070
     0
1002
{
1002
}
1000
I
1070
     0
1002
{
1002
}
1002
}
1000
Hatch
1070
     0
1002
{
1000
GenHtcFlag
1070
     3
1070
     0
1002
{
1002
}
1002
}
1000
Info_Pos
1070
     0
1002
{
1000
>
1002
}
1000
Layer
1070
     6
1002
{
1000
Defs
1070
     0
1002
{
1000
>
1002
}
1000
EntSort
1070
     0
1002
{
1000
>
1002
}
1000
Match
1070
     0
1002
{
1002
}
1000
Settings
1070
     0
1002
{
1000
FocGrNC
1070
     3
1070
     0
1002
{
1002
}
1000
FocGrLo
1070
     3
1070
     0
1002
{
1002
}
1000
FocLoNC
1070
     3
1070
     0
1002
{
1002
}
1000
FocusCol
1070
     1
1070
   253
1002
{
1002
}
1000
GenStdLG
1070
     4
1000

1002
{
1002
}
1000
LayMatch
1070
     3
1070
     0
1002
{
1002
}
1000
LgOff
1070
     3
1070
     0
1002
{
1002
}
1000
CurLG
1070
    -5
1000

1002
{
1002
}
1002
}
1002
}
1000
LType
1070
     0
1002
{
1000
GEN3
1070
     7
1000
genius.lin
1002
{
1002
}
1000
GEN7
1070
     7
1000
genius.lin
1002
{
1002
}
1000
GEN4A
1070
     7
1000
genius.lin
1002
{
1002
}
1000
GEN3A
1070
     7
1000
genius.lin
1002
{
1002
}
1000
GEN7A
1070
     7
1000
genius.lin
1002
{
1002
}
1000
GENZIGZAG
1070
     7
1000
genius.lin
1002
{
1002
}
1002
}
1000
Objecter
1070
     0
1002
{
1000
CreateGroups
1070
     3
1070
     0
1002
{
1002
}
1000
LaySwitch
1070
     3
1070
     1
1002
{
1002
}
1000
LastObj
1070
    -5
1000
1425
1002
{
1002
}
1000
TimeStamp
1070
    -5
1000
20020508.16282237
1002
{
1002
}
1002
}
1000
OSWiz
1070
     0
1002
{
1000
Filter
1070
     0
1002
{
1000
HATCH
1070
     8
1002
{
1000
EntityType
1070
     4
1000
LINE
1002
{
1002
}
1000
Layer
1070
     4
1000
8,8N,*-8,*-8N
1002
{
1002
}
1000
Linetype
1070
     4
1000
*
1002
{
1002
}
1000
Color
1070
     4
1000
*
1002
{
1002
}
1000
ApplyInDims
1070
     3
1070
     1
1002
{
1002
}
1002
}
1000
SYMBOLS
1070
     8
1002
{
1000
EntityType
1070
     4
1000
*
1002
{
1002
}
1000
Layer
1070
     4
1000
[5-6],[5-6]N,*-[5-6],*-[5-6]N
1002
{
1002
}
1000
Linetype
1070
     4
1000
*
1002
{
1002
}
1000
Color
1070
     4
1000
*
1002
{
1002
}
1000
ApplyInDims
1070
     3
1070
     1
1002
{
1002
}
1002
}
1000
FEM
1070
     8
1002
{
1000
EntityType
1070
     4
1000
*
1002
{
1002
}
1000
Layer
1070
     4
1000
4A,4AN,*-4A,*-4AN
1002
{
1002
}
1000
Linetype
1070
     4
1000
*
1002
{
1002
}
1000
Color
1070
     4
1000
*
1002
{
1002
}
1000
ApplyInDims
1070
     3
1070
     1
1002
{
1002
}
1002
}
1002
}
1002
}
1000
PaList
1070
     0
1002
{
1000
AutoUpdatePartList
1070
     1
1070
     0
1002
{
1002
}
1000
ReadInfoPoint
1070
     3
1070
     0
1002
{
1002
}
1000
ReadPosNr
1070
     3
1070
     1
1002
{
1002
}
1000
RevStr
1070
     4
1000
0
1002
{
1002
}
1002
}
1000
Paper
1070
     0
1002
{
1002
}
1000
PartDB
1070
     0
1002
{
1000
GenDbOwner
1070
     4
1000

1002
{
1002
}
1002
}
1000
System
1070
     0
1002
{
1000
Menu
1070
     4
1000
GEV
1002
{
1002
}
1002
}
1000
Title
1070
     0
1002
{
1000
MakeView
1070
     1
1070
     2
1002
{
1002
}
1002
}
1000
Tools
1070
     0
1002
{
1000
Trans
1070
     0
1002
{
1000
Drawingtranslation
1070
    -4
1070
     1
1002
{
1002
}
1000
upreserve
1070
     3
1070
     0
1002
{
1002
}
1000
originally_on
1070
    -4
1070
     0
1002
{
1002
}
1000
sourcelang
1070
    -5
1000
D
1002
{
1002
}
1002
}
1002
}
  0
APPID
  5
13B2
330
136B
100
AcDbSymbolTableRecord
100
AcDbRegAppTableRecord
  2
GENIUS_GEVCFG0_13
 70
     0
1001
GENIUS_GENCFG_13
1071
1020868122
1000
13B2
1000
GEV
1070
     1
1000
GenCfgObject
1000
VED
1070
     0
1002
{
1002
}
  0
APPID
  5
13F5
330
136B
100
AcDbSymbolTableRecord
100
AcDbRegAppTableRecord
  2
GEV_VCCNULL_SWITCH_OFF
 70
     0
  0
APPID
  5
13F6
330
136B
100
AcDbSymbolTableRecord
100
AcDbRegAppTableRecord
  2
GENIUS_GENDTOL_13
 70
     0
  0
APPID
  5
13F7
330
136B
100
AcDbSymbolTableRecord
100
AcDbRegAppTableRecord
  2
GENIUS_GENBLLY_14
 70
     0
  0
APPID
  5
13F8
330
136B
100
AcDbSymbolTableRecord
100
AcDbRegAppTableRecord
  2
GENIUS_GENODEF_13
 70
     0
  0
APPID
  5
13F9
330
136B
100
AcDbSymbolTableRecord
100
AcDbRegAppTableRecord
  2
GENIUS_GENOBJ-N-CRS_13
 70
     0
  0
APPID
  5
13FA
330
136B
100
AcDbSymbolTableRecord
100
AcDbRegAppTableRecord
  2
GENIUS_GENOREF_13
 70
     0
  0
APPID
  5
13FB
330
136B
100
AcDbSymbolTableRecord
100
AcDbRegAppTableRecord
  2
GENIUS_GENOLIS_13
 70
     0
  0
APPID
  5
13FC
330
136B
100
AcDbSymbolTableRecord
100
AcDbRegAppTableRecord
  2
GENIUS_GEFCFG0_13
 70
     0
  0
APPID
  5
13FD
330
136B
100
AcDbSymbolTableRecord
100
AcDbRegAppTableRecord
  2
GENIUS_VERSION2
 70
     0
  0
APPID
  5
13FE
330
136B
100
AcDbSymbolTableRecord
100
AcDbRegAppTableRecord
  2
GENIUS_GENREC_14
 70
     0
  0
APPID
  5
13FF
330
136B
100
AcDbSymbolTableRecord
100
AcDbRegAppTableRecord
  2
GENIUS_GENOBJ-N-REC_13
 70
     0
  0
APPID
  5
1400
330
136B
100
AcDbSymbolTableRecord
100
AcDbRegAppTableRecord
  2
GENIUS_GENOBJ-N-TIT_13
 70
     0
  0
APPID
  5
1401
330
136B
100
AcDbSymbolTableRecord
100
AcDbRegAppTableRecord
  2
GENIUS_GENTITLE_13
 70
     0
  0
APPID
  5
1402
330
136B
100
AcDbSymbolTableRecord
100
AcDbRegAppTableRecord
  2
GENIUS_GENZVEED_13
 70
     0
  0
APPID
  5
1403
330
136B
100
AcDbSymbolTableRecord
100
AcDbRegAppTableRecord
  2
GENIUS_GENOBJ-N-SDF_13
 70
     0
  0
APPID
  5
1404
330
136B
100
AcDbSymbolTableRecord
100
AcDbRegAppTableRecord
  2
GENIUS_GENSCREG_13
 70
     0
  0
APPID
  5
1405
330
136B
100
AcDbSymbolTableRecord
100
AcDbRegAppTableRecord
  2
GENIUS_GENBLKED_14
 70
     0
  0
APPID
  5
1570
330
136B
100
AcDbSymbolTableRecord
100
AcDbRegAppTableRecord
  2
MCAD_NO_VIS
 70
     0
  0
APPID
  5
1571
330
136B
100
AcDbSymbolTableRecord
100
AcDbRegAppTableRecord
  2
ACAD_TEMP_GRAPHIC
 70
     0
  0
APPID
  5
15A1
330
136B
100
AcDbSymbolTableRecord
100
AcDbRegAppTableRecord
  2
AD_DRAW
 70
     0
  0
APPID
  5
15A4
330
136B
100
AcDbSymbolTableRecord
100
AcDbRegAppTableRecord
  2
ACATTRIBSERVICES
 70
     0
  0
APPID
  5
15C4
330
136B
100
AcDbSymbolTableRecord
100
AcDbRegAppTableRecord
  2
DESIGNERASSEMBLIES
 70
     0
  0
APPID
  5
15CA
330
136B
100
AcDbSymbolTableRecord
100
AcDbRegAppTableRecord
  2
ACADM_DIM_EDIT
 70
     0
  0
APPID
  5
15CB
330
136B
100
AcDbSymbolTableRecord
100
AcDbRegAppTableRecord
  2
AMDT_DM_ADJ
 70
     0
  0
APPID
  5
15FD
330
136B
100
AcDbSymbolTableRecord
100
AcDbRegAppTableRecord
  2
ACAD_DSTYLE_DIMARC_LENGTH_SYMBOL
 70
     0
  0
APPID
  5
15FE
330
136B
100
AcDbSymbolTableRecord
100
AcDbRegAppTableRecord
  2
ACAD_DSTYLE_DIMJOGGED_JOGANGLE_SYMBOL
 70
     0
  0
ENDTAB
  0
TABLE
  2
DIMSTYLE
  5
136C
330
0
100
AcDbSymbolTable
 70
     8
100
AcDbDimStyleTable
 71
     0
  0
DIMSTYLE
105
1394
102
{ACAD_REACTORS
330
1180
330
118A
330
1194
330
119F
330
11A9
330
1224
330
1175
102
}
330
136C
100
AcDbSymbolTableRecord
100
AcDbDimStyleTableRecord
  2
GEN-ISO
 70
     0
  4
"
 40
5.0
 41
2.5
 42
1.0
 43
7.0
 44
1.0
 47
0.1
 48
0.1
 73
     0
 74
     0
 77
     1
 78
     8
140
3.5
141
0.0
143
0.03937
146
0.71
147
0.6
172
     1
176
   256
177
   256
178
     2
271
     2
272
     3
274
     4
283
     0
340
1371
  0
DIMSTYLE
105
15FC
330
136C
100
AcDbSymbolTableRecord
100
AcDbDimStyleTableRecord
  2
AM_DIN
 70
     0
  4
"
 41
2.5
 42
1.0
 43
10.0
 44
1.0
 47
0.1
 48
0.1
 73
     0
 74
     0
 77
     1
 78
     8
 79
     2
140
3.5
141
0.0
143
0.0393701
146
0.71
147
1.5
172
     1
176
   256
177
   256
178
     2
271
     2
272
     3
274
     4
283
     0
284
     8
340
1371
371
    -1
372
    -1
1001
ACAD_DSTYLE_DIMARC_LENGTH_SYMBOL
1070
   379
1070
     0
1001
ACAD_DSTYLE_DIMJOGGED_JOGANGLE_SYMBOL
1070
   384
1040
1.570796326794896
  0
DIMSTYLE
105
160D
330
136C
100
AcDbSymbolTableRecord
100
AcDbDimStyleTableRecord
  2
AM_DIN$3
 70
     0
  4
"
 41
2.5
 42
1.0
 43
10.0
 44
1.0
 47
0.1
 48
0.1
 73
     0
 77
     1
 78
     8
 79
     2
140
3.5
141
0.0
143
0.0393701
146
0.71
147
1.5
176
   256
177
   256
178
     2
271
     2
272
     3
274
     4
283
     0
284
     8
288
     1
289
     0
340
1371
371
    -1
372
    -1
1001
ACAD_DSTYLE_DIMARC_LENGTH_SYMBOL
1070
   379
1070
     0
1001
ACAD_DSTYLE_DIMJOGGED_JOGANGLE_SYMBOL
1070
   384
1040
1.570796326794896
  0
DIMSTYLE
105
1612
330
136C
100
AcDbSymbolTableRecord
100
AcDbDimStyleTableRecord
  2
AM_DIN$4
 70
     0
  4
"
 41
2.5
 42
1.0
 43
10.0
 44
1.0
 47
0.1
 48
0.1
 73
     0
 77
     1
 78
     8
 79
     2
140
3.5
141
0.0
143
0.0393701
146
0.71
147
1.5
176
   256
177
   256
178
     2
271
     2
272
     3
274
     4
283
     0
284
     8
288
     1
289
     0
340
1371
371
    -1
372
    -1
1001
ACAD_DSTYLE_DIMARC_LENGTH_SYMBOL
1070
   379
1070
     0
1001
ACAD_DSTYLE_DIMJOGGED_JOGANGLE_SYMBOL
1070
   384
1040
1.570796326794896
  0
DIMSTYLE
105
1617
330
136C
100
AcDbSymbolTableRecord
100
AcDbDimStyleTableRecord
  2
AM_DIN$6
 70
     0
  4
"
 41
2.5
 42
1.0
 43
10.0
 44
1.0
 47
0.1
 48
0.1
 73
     0
 74
     0
 78
     8
 79
     2
140
3.5
141
0.0
143
0.0393701
146
0.71
147
1.5
172
     1
176
   256
177
   256
178
     2
271
     2
272
     3
274
     4
283
     0
284
     8
340
1371
371
    -1
372
    -1
1001
ACAD_DSTYLE_DIMARC_LENGTH_SYMBOL
1070
   379
1070
     0
1001
ACAD_DSTYLE_DIMJOGGED_JOGANGLE_SYMBOL
1070
   384
1040
1.570796326794896
  0
DIMSTYLE
105
161C
330
136C
100
AcDbSymbolTableRecord
100
AcDbDimStyleTableRecord
  2
AM_DIN$7
 70
     0
  4
"
 41
2.5
 42
1.0
 43
10.0
 44
1.0
 47
0.1
 48
0.1
 73
     0
 74
     0
 77
     1
 78
     8
 79
     2
140
5.0
141
0.0
143
0.0393701
146
0.71
147
1.5
172
     1
176
   256
177
   256
178
     2
271
     2
272
     3
274
     4
283
     0
284
     8
340
1371
371
    -1
372
    -1
1001
ACAD_DSTYLE_DIMARC_LENGTH_SYMBOL
1070
   379
1070
     0
1001
ACAD_DSTYLE_DIMJOGGED_JOGANGLE_SYMBOL
1070
   384
1040
1.570796326794896
  0
DIMSTYLE
105
1621
330
136C
100
AcDbSymbolTableRecord
100
AcDbDimStyleTableRecord
  2
AM_DIN$SF
 70
     0
  4
"
 41
2.5
 42
1.0
 43
10.0
 44
1.0
 47
0.1
 48
0.1
 73
     0
 74
     0
 75
     1
 76
     1
 77
     1
 78
     8
 79
     2
140
3.5
141
0.0
143
0.0393701
146
0.71
147
1.5
172
     1
176
   256
177
   256
178
     2
271
     2
272
     3
274
     4
283
     0
284
     8
340
1371
371
    -1
372
    -1
1001
ACAD_DSTYLE_DIMARC_LENGTH_SYMBOL
1070
   379
1070
     0
1001
ACAD_DSTYLE_DIMJOGGED_JOGANGLE_SYMBOL
1070
   384
1040
1.570796326794896
  0
DIMSTYLE
105
162A
330
136C
100
AcDbSymbolTableRecord
100
AcDbDimStyleTableRecord
  2
AM_DIN$SH
 70
     0
  4
"
 41
2.5
 42
1.0
 43
10.0
 44
1.0
 47
0.1
 48
0.1
 73
     0
 74
     0
 75
     1
 76
     1
 77
     1
 78
     8
 79
     2
140
3.5
141
0.0
143
0.0393701
144
2.0
146
0.71
147
1.5
172
     1
173
     1
176
   256
177
   256
178
     2
271
     2
272
     3
274
     4
283
     0
284
     8
340
1371
343
1622
371
    -1
372
    -1
1001
ACAD_DSTYLE_DIMARC_LENGTH_SYMBOL
1070
   379
1070
     0
1001
ACAD_DSTYLE_DIMJOGGED_JOGANGLE_SYMBOL
1070
   384
1040
1.570796326794896
  0
ENDTAB
  0
TABLE
  2
BLOCK_RECORD
  5
1363
330
0
100
AcDbSymbolTable
 70
    17
  0
BLOCK_RECORD
  5
137A
330
1363
100
AcDbSymbolTableRecord
100
AcDbBlockTableRecord
  2
*MODEL_SPACE
340
1568
  0
BLOCK_RECORD
  5
1377
330
1363
100
AcDbSymbolTableRecord
100
AcDbBlockTableRecord
  2
*PAPER_SPACE
340
1569
  0
BLOCK_RECORD
  5
1396
330
1363
100
AcDbSymbolTableRecord
100
AcDbBlockTableRecord
  2
*X0
340
0
102
{BLKREFS
331
1151
102
}
  0
BLOCK_RECORD
  5
1397
330
1363
100
AcDbSymbolTableRecord
100
AcDbBlockTableRecord
  2
*X1
340
0
102
{BLKREFS
331
116A
102
}
  0
BLOCK_RECORD
  5
139E
330
1363
100
AcDbSymbolTableRecord
100
AcDbBlockTableRecord
  2
*X2
340
0
102
{BLKREFS
331
1219
102
}
  0
BLOCK_RECORD
  5
13A0
330
1363
100
AcDbSymbolTableRecord
100
AcDbBlockTableRecord
  2
*X3
340
0
102
{BLKREFS
331
1279
102
}
  0
BLOCK_RECORD
  5
13A1
330
1363
100
AcDbSymbolTableRecord
100
AcDbBlockTableRecord
  2
*X4
340
0
102
{BLKREFS
331
1299
102
}
  0
BLOCK_RECORD
  5
13A2
330
1363
100
AcDbSymbolTableRecord
100
AcDbBlockTableRecord
  2
*X5
340
0
102
{BLKREFS
331
12B9
102
}
  0
BLOCK_RECORD
  5
13BB
330
1363
100
AcDbSymbolTableRecord
100
AcDbBlockTableRecord
  2
*D6
340
0
  0
BLOCK_RECORD
  5
13CA
330
1363
100
AcDbSymbolTableRecord
100
AcDbBlockTableRecord
  2
KATALOG_LEER
340
0
102
{BLKREFS
331
1407
331
1424
102
}
  0
BLOCK_RECORD
  5
1479
330
1363
100
AcDbSymbolTableRecord
100
AcDbBlockTableRecord
  2
*D9
340
0
  0
BLOCK_RECORD
  5
1485
330
1363
100
AcDbSymbolTableRecord
100
AcDbBlockTableRecord
  2
*D10
340
0
  0
BLOCK_RECORD
  5
1491
330
1363
100
AcDbSymbolTableRecord
100
AcDbBlockTableRecord
  2
*D11
340
0
  0
BLOCK_RECORD
  5
149D
330
1363
100
AcDbSymbolTableRecord
100
AcDbBlockTableRecord
  2
*D12
340
0
  0
BLOCK_RECORD
  5
14A9
330
1363
100
AcDbSymbolTableRecord
100
AcDbBlockTableRecord
  2
*D13
340
0
  0
BLOCK_RECORD
  5
14B5
330
1363
100
AcDbSymbolTableRecord
100
AcDbBlockTableRecord
  2
*D14
340
0
  0
BLOCK_RECORD
  5
1622
330
1363
100
AcDbSymbolTableRecord
100
AcDbBlockTableRecord
  2
GENAXEH
340
0
  0
ENDTAB
  0
ENDSEC
  0
SECTION
  2
BLOCKS
  0
BLOCK
  5
137B
330
137A
100
AcDbEntity
  8
0
100
AcDbBlockBegin
  2
*MODEL_SPACE
 70
     0
 10
0.0
 20
0.0
 30
0.0
  3
*MODEL_SPACE
  1

  0
ENDBLK
  5
137C
330
137A
100
AcDbEntity
  8
0
100
AcDbBlockEnd
  0
BLOCK
  5
1378
330
1377
100
AcDbEntity
 67
     1
  8
0
100
AcDbBlockBegin
  2
*PAPER_SPACE
 70
     0
 10
0.0
 20
0.0
 30
0.0
  3
*PAPER_SPACE
  1

  0
ENDBLK
  5
1379
330
1377
100
AcDbEntity
 67
     1
  8
0
100
AcDbBlockEnd
  0
BLOCK
  5
114A
330
1396
100
AcDbEntity
  8
0
100
AcDbBlockBegin
  2
*X0
 70
     1
 10
0.0
 20
0.0
 30
0.0
  3
*X0
  1

  0
LINE
  5
114B
330
1396
100
AcDbEntity
  8
8
100
AcDbLine
 10
550.849
 20
926.665
 30
0.0
 11
556.46
 21
932.276
 31
0.0
  0
LINE
  5
114C
330
1396
100
AcDbEntity
  8
8
100
AcDbLine
 10
547.567
 20
927.8730000000001
 30
0.0
 11
554.379
 21
934.6849999999999
 31
0.0
  0
LINE
  5
114D
330
1396
100
AcDbEntity
  8
8
100
AcDbLine
 10
547.075
 20
931.8710000000001
 30
0.0
 11
550.452
 21
935.2489999999999
 31
0.0
  0
LINE
  5
114E
330
1396
100
AcDbEntity
  8
8
100
AcDbLine
 10
555.6969999999999
 20
927.3999999999999
 30
0.0
 11
548.6889999999999
 21
934.4079999999999
 31
0.0
  0
LINE
  5
114F
330
1396
100
AcDbEntity
  8
8
100
AcDbLine
 10
551.942
 20
926.665
 30
0.0
 11
547.0049999999999
 21
931.6010000000002
 31
0.0
  0
ENDBLK
  5
1150
330
1396
100
AcDbEntity
  8
0
100
AcDbBlockEnd
  0
BLOCK
  5
1163
330
1397
100
AcDbEntity
  8
0
100
AcDbBlockBegin
  2
*X1
 70
     1
 10
0.0
 20
0.0
 30
0.0
  3
*X1
  1

  0
LINE
  5
1164
330
1397
100
AcDbEntity
  8
8
100
AcDbLine
 10
549.432
 20
1010.561
 30
0.0
 11
556.181
 21
1017.309
 31
0.0
  0
LINE
  5
1165
330
1397
100
AcDbEntity
  8
8
100
AcDbLine
 10
547.231
 20
1012.85
 30
0.0
 11
553.0459999999999
 21
1018.665
 31
0.0
  0
LINE
  5
1166
330
1397
100
AcDbEntity
  8
8
100
AcDbLine
 10
548.3430000000001
 20
1018.452
 30
0.0
 11
548.556
 21
1018.665
 31
0.0
  0
LINE
  5
1167
330
1397
100
AcDbEntity
  8
8
100
AcDbLine
 10
556.095
 20
1012.314
 30
0.0
 11
549.744
 21
1018.665
 31
0.0
  0
LINE
  5
1168
330
1397
100
AcDbEntity
  8
8
100
AcDbLine
 10
553.628
 20
1010.291
 30
0.0
 11
547.1319999999999
 21
1016.787
 31
0.0
  0
ENDBLK
  5
1169
330
1397
100
AcDbEntity
  8
0
100
AcDbBlockEnd
  0
BLOCK
  5
11DE
330
139E
100
AcDbEntity
  8
0
100
AcDbBlockBegin
  2
*X2
 70
     1
 10
0.0
 20
0.0
 30
0.0
  3
*X2
  1

  0
LINE
  5
11DF
330
139E
100
AcDbEntity
  8
8
100
AcDbLine
 10
724.3969999999999
 20
920.4030000000001
 30
0.0
 11
730.0019999999999
 21
926.008
 31
0.0
  0
LINE
  5
11E0
330
139E
100
AcDbEntity
  8
8
100
AcDbLine
 10
713.458
 20
920.6889999999999
 30
0.0
 11
718.24
 21
925.4710000000001
 31
0.0
  0
LINE
  5
11E1
330
139E
100
AcDbEntity
  8
8
100
AcDbLine
 10
702.5199999999999
 20
920.9760000000001
 30
0.0
 11
707.15
 21
925.6060000000001
 31
0.0
  0
LINE
  5
11E2
330
139E
100
AcDbEntity
  8
8
100
AcDbLine
 10
691.581
 20
921.2619999999999
 30
0.0
 11
696.211
 21
925.8930000000001
 31
0.0
  0
LINE
  5
11E3
330
139E
100
AcDbEntity
  8
8
100
AcDbLine
 10
680.6419999999999
 20
921.549
 30
0.0
 11
685.2719999999999
 21
926.1789999999999
 31
0.0
  0
LINE
  5
11E4
330
139E
100
AcDbEntity
  8
8
100
AcDbLine
 10
669.7029999999999
 20
921.835
 30
0.0
 11
674.3330000000001
 21
926.4660000000001
 31
0.0
  0
LINE
  5
11E5
330
139E
100
AcDbEntity
  8
8
100
AcDbLine
 10
658.5589999999999
 20
921.916
 30
0.0
 11
663.307
 21
926.665
 31
0.0
  0
LINE
  5
11E6
330
139E
100
AcDbEntity
  8
8
100
AcDbLine
 10
647.333
 20
921.916
 30
0.0
 11
652.082
 21
926.665
 31
0.0
  0
LINE
  5
11E7
330
139E
100
AcDbEntity
  8
8
100
AcDbLine
 10
636.1080000000001
 20
921.916
 30
0.0
 11
640.857
 21
926.665
 31
0.0
  0
LINE
  5
11E8
330
139E
100
AcDbEntity
  8
8
100
AcDbLine
 10
624.883
 20
921.916
 30
0.0
 11
629.631
 21
926.665
 31
0.0
  0
LINE
  5
11E9
330
139E
100
AcDbEntity
  8
8
100
AcDbLine
 10
613.658
 20
921.916
 30
0.0
 11
618.4059999999999
 21
926.665
 31
0.0
  0
LINE
  5
11EA
330
139E
100
AcDbEntity
  8
8
100
AcDbLine
 10
602.432
 20
921.916
 30
0.0
 11
607.181
 21
926.665
 31
0.0
  0
LINE
  5
11EB
330
139E
100
AcDbEntity
  8
8
100
AcDbLine
 10
591.2069999999999
 20
921.916
 30
0.0
 11
595.955
 21
926.665
 31
0.0
  0
LINE
  5
11EC
330
139E
100
AcDbEntity
  8
8
100
AcDbLine
 10
579.9819999999999
 20
921.916
 30
0.0
 11
584.73
 21
926.665
 31
0.0
  0
LINE
  5
11ED
330
139E
100
AcDbEntity
  8
8
100
AcDbLine
 10
568.7559999999999
 20
921.916
 30
0.0
 11
573.505
 21
926.665
 31
0.0
  0
LINE
  5
11EE
330
139E
100
AcDbEntity
  8
8
100
AcDbLine
 10
557.5309999999999
 20
921.916
 30
0.0
 11
562.279
 21
926.665
 31
0.0
  0
LINE
  5
11EF
330
139E
100
AcDbEntity
  8
8
100
AcDbLine
 10
546.306
 20
921.916
 30
0.0
 11
551.0539999999999
 21
926.665
 31
0.0
  0
LINE
  5
11F0
330
139E
100
AcDbEntity
  8
8
100
AcDbLine
 10
535.08
 20
921.916
 30
0.0
 11
539.8290000000001
 21
926.665
 31
0.0
  0
LINE
  5
11F1
330
139E
100
AcDbEntity
  8
8
100
AcDbLine
 10
521.603
 20
919.6649999999999
 30
0.0
 11
528.6030000000001
 21
926.665
 31
0.0
  0
LINE
  5
11F2
330
139E
100
AcDbEntity
  8
8
100
AcDbLine
 10
510.378
 20
919.6649999999999
 30
0.0
 11
515.378
 21
924.665
 31
0.0
  0
LINE
  5
11F3
330
139E
100
AcDbEntity
  8
8
100
AcDbLine
 10
499.153
 20
919.6649999999999
 30
0.0
 11
504.153
 21
924.665
 31
0.0
  0
LINE
  5
11F4
330
139E
100
AcDbEntity
  8
8
100
AcDbLine
 10
487.9269999999999
 20
919.6649999999999
 30
0.0
 11
492.9269999999999
 21
924.665
 31
0.0
  0
LINE
  5
11F5
330
139E
100
AcDbEntity
  8
8
100
AcDbLine
 10
476.702
 20
919.6649999999999
 30
0.0
 11
481.702
 21
924.665
 31
0.0
  0
LINE
  5
11F6
330
139E
100
AcDbEntity
  8
8
100
AcDbLine
 10
465.477
 20
919.6649999999999
 30
0.0
 11
470.4769999999999
 21
924.665
 31
0.0
  0
LINE
  5
11F7
330
139E
100
AcDbEntity
  8
8
100
AcDbLine
 10
454.251
 20
919.6649999999999
 30
0.0
 11
459.2509999999999
 21
924.665
 31
0.0
  0
LINE
  5
11F8
330
139E
100
AcDbEntity
  8
8
100
AcDbLine
 10
443.026
 20
919.6649999999999
 30
0.0
 11
448.026
 21
924.665
 31
0.0
  0
LINE
  5
11F9
330
139E
100
AcDbEntity
  8
8
100
AcDbLine
 10
431.958
 20
919.822
 30
0.0
 11
436.8009999999999
 21
924.665
 31
0.0
  0
LINE
  5
11FA
330
139E
100
AcDbEntity
  8
8
100
AcDbLine
 10
421.6359999999999
 20
920.725
 30
0.0
 11
426.234
 21
925.323
 31
0.0
  0
LINE
  5
11FB
330
139E
100
AcDbEntity
  8
8
100
AcDbLine
 10
411.314
 20
921.6289999999998
 30
0.0
 11
415.9119999999999
 21
926.2260000000001
 31
0.0
  0
LINE
  5
11FC
330
139E
100
AcDbEntity
  8
8
100
AcDbLine
 10
400.3769999999999
 20
921.916
 30
0.0
 11
405.125
 21
926.665
 31
0.0
  0
LINE
  5
11FD
330
139E
100
AcDbEntity
  8
8
100
AcDbLine
 10
389.151
 20
921.916
 30
0.0
 11
393.9
 21
926.665
 31
0.0
  0
LINE
  5
11FE
330
139E
100
AcDbEntity
  8
8
100
AcDbLine
 10
377.926
 20
921.916
 30
0.0
 11
382.674
 21
926.665
 31
0.0
  0
LINE
  5
11FF
330
139E
100
AcDbEntity
  8
8
100
AcDbLine
 10
366.701
 20
921.916
 30
0.0
 11
371.449
 21
926.665
 31
0.0
  0
LINE
  5
1200
330
139E
100
AcDbEntity
  8
8
100
AcDbLine
 10
355.475
 20
921.916
 30
0.0
 11
360.224
 21
926.665
 31
0.0
  0
LINE
  5
1201
330
139E
100
AcDbEntity
  8
8
100
AcDbLine
 10
344.644
 20
922.311
 30
0.0
 11
348.998
 21
926.665
 31
0.0
  0
LINE
  5
1202
330
139E
100
AcDbEntity
  8
8
100
AcDbLine
 10
336.073
 20
924.965
 30
0.0
 11
339.698
 21
928.589
 31
0.0
  0
LINE
  5
1203
330
139E
100
AcDbEntity
  8
8
100
AcDbLine
 10
329.851
 20
929.968
 30
0.0
 11
333.275
 21
933.3919999999999
 31
0.0
  0
LINE
  5
1204
330
139E
100
AcDbEntity
  8
8
100
AcDbLine
 10
325.455
 20
936.7980000000001
 30
0.0
 11
329.157
 21
940.4999999999999
 31
0.0
  0
LINE
  5
1205
330
139E
100
AcDbEntity
  8
8
100
AcDbLine
 10
323.311
 20
945.8789999999998
 30
0.0
 11
328.161
 21
950.7289999999999
 31
0.0
  0
LINE
  5
1206
330
139E
100
AcDbEntity
  8
8
100
AcDbLine
 10
323.054
 20
956.8469999999999
 30
0.0
 11
327.968
 21
961.762
 31
0.0
  0
LINE
  5
1207
330
139E
100
AcDbEntity
  8
8
100
AcDbLine
 10
322.861
 20
967.8789999999999
 30
0.0
 11
327.776
 21
972.794
 31
0.0
  0
LINE
  5
1208
330
139E
100
AcDbEntity
  8
8
100
AcDbLine
 10
322.668
 20
978.9119999999998
 30
0.0
 11
327.583
 21
983.8269999999999
 31
0.0
  0
LINE
  5
1209
330
139E
100
AcDbEntity
  8
8
100
AcDbLine
 10
322.476
 20
989.9449999999999
 30
0.0
 11
327.391
 21
994.86
 31
0.0
  0
LINE
  5
120A
330
139E
100
AcDbEntity
  8
8
100
AcDbLine
 10
322.283
 20
1000.978
 30
0.0
 11
327.198
 21
1005.893
 31
0.0
  0
LINE
  5
120B
330
139E
100
AcDbEntity
  8
8
100
AcDbLine
 10
322.091
 20
1012.01
 30
0.0
 11
327.006
 21
1016.925
 31
0.0
  0
LINE
  5
120C
330
139E
100
AcDbEntity
  8
8
100
AcDbLine
 10
321.898
 20
1023.043
 30
0.0
 11
326.813
 21
1027.958
 31
0.0
  0
LINE
  5
120D
330
139E
100
AcDbEntity
  8
8
100
AcDbLine
 10
321.705
 20
1034.076
 30
0.0
 11
326.62
 21
1038.991
 31
0.0
  0
LINE
  5
120E
330
139E
100
AcDbEntity
  8
8
100
AcDbLine
 10
320.602
 20
1044.197
 30
0.0
 11
326.428
 21
1050.024
 31
0.0
  0
LINE
  5
120F
330
139E
100
AcDbEntity
  8
8
100
AcDbLine
 10
312.169
 20
1046.99
 30
0.0
 11
319.957
 21
1054.778
 31
0.0
  0
LINE
  5
1210
330
139E
100
AcDbEntity
  8
8
100
AcDbLine
 10
301.322
 20
1047.369
 30
0.0
 11
308.618
 21
1054.665
 31
0.0
  0
LINE
  5
1211
330
139E
100
AcDbEntity
  8
8
100
AcDbLine
 10
290.476
 20
1047.747
 30
0.0
 11
297.393
 21
1054.665
 31
0.0
  0
LINE
  5
1212
330
139E
100
AcDbEntity
  8
8
100
AcDbLine
 10
279.629
 20
1048.126
 30
0.0
 11
286.168
 21
1054.665
 31
0.0
  0
LINE
  5
1213
330
139E
100
AcDbEntity
  8
8
100
AcDbLine
 10
268.783
 20
1048.505
 30
0.0
 11
274.942
 21
1054.665
 31
0.0
  0
LINE
  5
1214
330
139E
100
AcDbEntity
  8
8
100
AcDbLine
 10
257.874
 20
1048.822
 30
0.0
 11
263.717
 21
1054.665
 31
0.0
  0
LINE
  5
1215
330
139E
100
AcDbEntity
  8
8
100
AcDbLine
 10
244.492
 20
1046.665
 30
0.0
 11
252.492
 21
1054.665
 31
0.0
  0
LINE
  5
1216
330
139E
100
AcDbEntity
  8
8
100
AcDbLine
 10
233.266
 20
1046.665
 30
0.0
 11
241.267
 21
1054.665
 31
0.0
  0
LINE
  5
1217
330
139E
100
AcDbEntity
  8
8
100
AcDbLine
 10
222.041
 20
1046.665
 30
0.0
 11
230.041
 21
1054.665
 31
0.0
  0
ENDBLK
  5
1218
330
139E
100
AcDbEntity
  8
0
100
AcDbBlockEnd
  0
BLOCK
  5
125D
330
13A0
100
AcDbEntity
  8
0
100
AcDbBlockBegin
  2
*X3
 70
     1
 10
0.0
 20
0.0
 30
0.0
  3
*X3
  1

  0
LINE
  5
125E
330
13A0
100
AcDbEntity
  8
8
100
AcDbLine
 10
738.023
 20
1023.832
 30
0.0
 11
742.783
 21
1028.591
 31
0.0
  0
LINE
  5
125F
330
13A0
100
AcDbEntity
  8
8
100
AcDbLine
 10
727.085
 20
1024.118
 30
0.0
 11
732.6900000000001
 21
1029.723
 31
0.0
  0
LINE
  5
1260
330
13A0
100
AcDbEntity
  8
8
100
AcDbLine
 10
717.1210000000001
 20
1025.379
 30
0.0
 11
721.751
 21
1030.01
 31
0.0
  0
LINE
  5
1261
330
13A0
100
AcDbEntity
  8
8
100
AcDbLine
 10
706.1819999999999
 20
1025.666
 30
0.0
 11
710.812
 21
1030.296
 31
0.0
  0
LINE
  5
1262
330
13A0
100
AcDbEntity
  8
8
100
AcDbLine
 10
695.243
 20
1025.952
 30
0.0
 11
699.8730000000001
 21
1030.583
 31
0.0
  0
LINE
  5
1263
330
13A0
100
AcDbEntity
  8
8
100
AcDbLine
 10
684.304
 20
1026.239
 30
0.0
 11
688.9339999999999
 21
1030.869
 31
0.0
  0
LINE
  5
1264
330
13A0
100
AcDbEntity
  8
8
100
AcDbLine
 10
673.3649999999999
 20
1026.525
 30
0.0
 11
677.995
 21
1031.155
 31
0.0
  0
LINE
  5
1265
330
13A0
100
AcDbEntity
  8
8
100
AcDbLine
 10
662.426
 20
1026.812
 30
0.0
 11
667.056
 21
1031.442
 31
0.0
  0
LINE
  5
1266
330
13A0
100
AcDbEntity
  8
8
100
AcDbLine
 10
652.202
 20
1027.813
 30
0.0
 11
656.135
 21
1031.746
 31
0.0
  0
LINE
  5
1267
330
13A0
100
AcDbEntity
  8
8
100
AcDbLine
 10
646.3859999999999
 20
1033.222
 30
0.0
 11
650.419
 21
1037.255
 31
0.0
  0
LINE
  5
1268
330
13A0
100
AcDbEntity
  8
8
100
AcDbLine
 10
644.4199999999999
 20
1042.481
 30
0.0
 11
648.7359999999999
 21
1046.798
 31
0.0
  0
LINE
  5
1269
330
13A0
100
AcDbEntity
  8
8
100
AcDbLine
 10
640.284
 20
1049.57
 30
0.0
 11
645.1529999999999
 21
1054.44
 31
0.0
  0
LINE
  5
126A
330
13A0
100
AcDbEntity
  8
8
100
AcDbLine
 10
629.153
 20
1049.665
 30
0.0
 11
634.153
 21
1054.665
 31
0.0
  0
LINE
  5
126B
330
13A0
100
AcDbEntity
  8
8
100
AcDbLine
 10
617.927
 20
1049.665
 30
0.0
 11
622.927
 21
1054.665
 31
0.0
  0
LINE
  5
126C
330
13A0
100
AcDbEntity
  8
8
100
AcDbLine
 10
606.702
 20
1049.665
 30
0.0
 11
611.702
 21
1054.665
 31
0.0
  0
LINE
  5
126D
330
13A0
100
AcDbEntity
  8
8
100
AcDbLine
 10
595.4769999999999
 20
1049.665
 30
0.0
 11
600.4769999999999
 21
1054.665
 31
0.0
  0
LINE
  5
126E
330
13A0
100
AcDbEntity
  8
8
100
AcDbLine
 10
553.251
 20
1018.665
 30
0.0
 11
558.251
 21
1023.665
 31
0.0
  0
LINE
  5
126F
330
13A0
100
AcDbEntity
  8
8
100
AcDbLine
 10
584.2509999999999
 20
1049.665
 30
0.0
 11
589.2509999999999
 21
1054.665
 31
0.0
  0
LINE
  5
1270
330
13A0
100
AcDbEntity
  8
8
100
AcDbLine
 10
542.0259999999999
 20
1018.665
 30
0.0
 11
547.6119999999999
 21
1024.25
 31
0.0
  0
LINE
  5
1271
330
13A0
100
AcDbEntity
  8
8
100
AcDbLine
 10
573.0259999999999
 20
1049.665
 30
0.0
 11
578.0259999999999
 21
1054.665
 31
0.0
  0
LINE
  5
1272
330
13A0
100
AcDbEntity
  8
8
100
AcDbLine
 10
530.8009999999999
 20
1018.665
 30
0.0
 11
545.807
 21
1033.671
 31
0.0
  0
LINE
  5
1273
330
13A0
100
AcDbEntity
  8
8
100
AcDbLine
 10
561.8009999999999
 20
1049.665
 30
0.0
 11
566.8009999999999
 21
1054.665
 31
0.0
  0
LINE
  5
1274
330
13A0
100
AcDbEntity
  8
8
100
AcDbLine
 10
521.76
 20
1020.849
 30
0.0
 11
530.3949999999999
 21
1029.484
 31
0.0
  0
LINE
  5
1275
330
13A0
100
AcDbEntity
  8
8
100
AcDbLine
 10
540.9159999999999
 20
1040.006
 30
0.0
 11
546.269
 21
1045.358
 31
0.0
  0
LINE
  5
1276
330
13A0
100
AcDbEntity
  8
8
100
AcDbLine
 10
550.3029999999999
 20
1049.393
 30
0.0
 11
555.575
 21
1054.665
 31
0.0
  0
LINE
  5
1277
330
13A0
100
AcDbEntity
  8
8
100
AcDbLine
 10
541.1159999999999
 20
1051.43
 30
0.0
 11
544.35
 21
1054.665
 31
0.0
  0
ENDBLK
  5
1278
330
13A0
100
AcDbEntity
  8
0
100
AcDbBlockEnd
  0
BLOCK
  5
1289
330
13A1
100
AcDbEntity
  8
0
100
AcDbBlockBegin
  2
*X4
 70
     1
 10
0.0
 20
0.0
 30
0.0
  3
*X4
  1

  0
LINE
  5
128A
330
13A1
100
AcDbEntity
  8
8
100
AcDbLine
 10
602.243
 20
1059.665
 30
0.0
 11
608.76
 21
1066.181
 31
0.0
  0
LINE
  5
128B
330
13A1
100
AcDbEntity
  8
8
100
AcDbLine
 10
597.753
 20
1059.665
 30
0.0
 11
605.753
 21
1067.665
 31
0.0
  0
LINE
  5
128C
330
13A1
100
AcDbEntity
  8
8
100
AcDbLine
 10
593.263
 20
1059.665
 30
0.0
 11
601.263
 21
1067.665
 31
0.0
  0
LINE
  5
128D
330
13A1
100
AcDbEntity
  8
8
100
AcDbLine
 10
588.773
 20
1059.665
 30
0.0
 11
596.773
 21
1067.665
 31
0.0
  0
LINE
  5
128E
330
13A1
100
AcDbEntity
  8
8
100
AcDbLine
 10
584.283
 20
1059.665
 30
0.0
 11
592.283
 21
1067.665
 31
0.0
  0
LINE
  5
128F
330
13A1
100
AcDbEntity
  8
8
100
AcDbLine
 10
579.793
 20
1059.665
 30
0.0
 11
587.793
 21
1067.665
 31
0.0
  0
LINE
  5
1290
330
13A1
100
AcDbEntity
  8
8
100
AcDbLine
 10
575.302
 20
1059.665
 30
0.0
 11
583.3029999999999
 21
1067.665
 31
0.0
  0
LINE
  5
1291
330
13A1
100
AcDbEntity
  8
8
100
AcDbLine
 10
570.812
 20
1059.665
 30
0.0
 11
578.812
 21
1067.665
 31
0.0
  0
LINE
  5
1292
330
13A1
100
AcDbEntity
  8
8
100
AcDbLine
 10
566.3219999999999
 20
1059.665
 30
0.0
 11
574.3219999999999
 21
1067.665
 31
0.0
  0
LINE
  5
1293
330
13A1
100
AcDbEntity
  8
8
100
AcDbLine
 10
561.8319999999999
 20
1059.665
 30
0.0
 11
569.8319999999999
 21
1067.665
 31
0.0
  0
LINE
  5
1294
330
13A1
100
AcDbEntity
  8
8
100
AcDbLine
 10
557.3419999999999
 20
1059.665
 30
0.0
 11
565.3419999999999
 21
1067.665
 31
0.0
  0
LINE
  5
1295
330
13A1
100
AcDbEntity
  8
8
100
AcDbLine
 10
552.98
 20
1059.793
 30
0.0
 11
560.8519999999999
 21
1067.665
 31
0.0
  0
LINE
  5
1296
330
13A1
100
AcDbEntity
  8
8
100
AcDbLine
 10
551.2599999999999
 20
1062.563
 30
0.0
 11
556.3619999999999
 21
1067.665
 31
0.0
  0
LINE
  5
1297
330
13A1
100
AcDbEntity
  8
8
100
AcDbLine
 10
551.2599999999999
 20
1067.053
 30
0.0
 11
551.872
 21
1067.665
 31
0.0
  0
ENDBLK
  5
1298
330
13A1
100
AcDbEntity
  8
0
100
AcDbBlockEnd
  0
BLOCK
  5
12A9
330
13A2
100
AcDbEntity
  8
0
100
AcDbBlockBegin
  2
*X5
 70
     1
 10
0.0
 20
0.0
 30
0.0
  3
*X5
  1

  0
LINE
  5
12AA
330
13A2
100
AcDbEntity
  8
8
100
AcDbLine
 10
310.385
 20
1059.665
 30
0.0
 11
316.26
 21
1065.539
 31
0.0
  0
LINE
  5
12AB
330
13A2
100
AcDbEntity
  8
8
100
AcDbLine
 10
305.895
 20
1059.665
 30
0.0
 11
313.895
 21
1067.665
 31
0.0
  0
LINE
  5
12AC
330
13A2
100
AcDbEntity
  8
8
100
AcDbLine
 10
301.405
 20
1059.665
 30
0.0
 11
309.405
 21
1067.665
 31
0.0
  0
LINE
  5
12AD
330
13A2
100
AcDbEntity
  8
8
100
AcDbLine
 10
296.915
 20
1059.665
 30
0.0
 11
304.915
 21
1067.665
 31
0.0
  0
LINE
  5
12AE
330
13A2
100
AcDbEntity
  8
8
100
AcDbLine
 10
292.4240000000001
 20
1059.665
 30
0.0
 11
300.424
 21
1067.665
 31
0.0
  0
LINE
  5
12AF
330
13A2
100
AcDbEntity
  8
8
100
AcDbLine
 10
287.934
 20
1059.665
 30
0.0
 11
295.934
 21
1067.665
 31
0.0
  0
LINE
  5
12B0
330
13A2
100
AcDbEntity
  8
8
100
AcDbLine
 10
283.444
 20
1059.665
 30
0.0
 11
291.444
 21
1067.665
 31
0.0
  0
LINE
  5
12B1
330
13A2
100
AcDbEntity
  8
8
100
AcDbLine
 10
278.954
 20
1059.665
 30
0.0
 11
286.954
 21
1067.665
 31
0.0
  0
LINE
  5
12B2
330
13A2
100
AcDbEntity
  8
8
100
AcDbLine
 10
274.464
 20
1059.665
 30
0.0
 11
282.464
 21
1067.665
 31
0.0
  0
LINE
  5
12B3
330
13A2
100
AcDbEntity
  8
8
100
AcDbLine
 10
269.974
 20
1059.665
 30
0.0
 11
277.974
 21
1067.665
 31
0.0
  0
LINE
  5
12B4
330
13A2
100
AcDbEntity
  8
8
100
AcDbLine
 10
265.484
 20
1059.665
 30
0.0
 11
273.4840000000001
 21
1067.665
 31
0.0
  0
LINE
  5
12B5
330
13A2
100
AcDbEntity
  8
8
100
AcDbLine
 10
261.03
 20
1059.702
 30
0.0
 11
268.994
 21
1067.665
 31
0.0
  0
LINE
  5
12B6
330
13A2
100
AcDbEntity
  8
8
100
AcDbLine
 10
258.793
 20
1061.955
 30
0.0
 11
264.503
 21
1067.665
 31
0.0
  0
LINE
  5
12B7
330
13A2
100
AcDbEntity
  8
8
100
AcDbLine
 10
258.759
 20
1066.411
 30
0.0
 11
260.013
 21
1067.665
 31
0.0
  0
ENDBLK
  5
12B8
330
13A2
100
AcDbEntity
  8
0
100
AcDbBlockEnd
  0
BLOCK
  5
1511
330
13BB
100
AcDbEntity
  8
0
100
AcDbBlockBegin
  2
*D6
 70
     1
 10
0.0
 20
0.0
 30
0.0
  3
*D6
  1

  0
LINE
  5
1512
330
13BB
100
AcDbEntity
  8
0
  6
ByBlock
100
AcDbLine
 10
595.675965
 20
319.322039
 30
0.0
 11
670.451965
 21
319.322039
 31
0.0
  0
LINE
  5
1513
330
13BB
100
AcDbEntity
  8
0
  6
ByBlock
100
AcDbLine
 10
491.2749650000001
 20
259.322039
 30
0.0
 11
670.451965
 21
259.322039
 31
0.0
  0
LINE
  5
1514
330
13BB
100
AcDbEntity
  8
0
  6
ByBlock
100
AcDbLine
 10
665.4519650000001
 20
306.822039
 30
0.0
 11
665.4519650000001
 21
271.822039
 31
0.0
  0
SOLID
  5
1515
330
13BB
100
AcDbEntity
  8
0
  6
ByBlock
100
AcDbTrace
 10
663.3686309999999
 20
306.822039
 30
0.0
 11
667.535298
 21
306.822039
 31
0.0
 12
665.4519650000001
 22
319.322039
 32
0.0
 13
665.4519650000001
 23
319.322039
 33
0.0
  0
SOLID
  5
1516
330
13BB
100
AcDbEntity
  8
0
  6
ByBlock
100
AcDbTrace
 10
663.3686309999999
 20
271.822039
 30
0.0
 11
667.535298
 21
271.822039
 31
0.0
 12
665.4519650000001
 22
259.322039
 32
0.0
 13
665.4519650000001
 23
259.322039
 33
0.0
  0
MTEXT
  5
1517
330
13BB
100
AcDbEntity
  8
0
  6
ByBlock
 62
     2
100
AcDbMText
 10
653.7019650000001
 20
275.711039
 30
0.0
 40
17.5
 41
0.0
 71
     5
 72
     1
  1
60
 11
0.0
 21
1.0
 31
0.0
 73
     1
 44
1.0
1001
ACAD
1000
MTEXTBEGIN
1070
    73
1070
     1
1070
    44
1040
1.0
1070
    74
1070
     0
1000
MTEXTEND
  0
POINT
  5
1518
330
13BB
100
AcDbEntity
  8
DEFPOINTS
  6
ByBlock
 62
     0
100
AcDbPoint
 10
590.675965
 20
319.322039
 30
0.0
  0
POINT
  5
1519
330
13BB
100
AcDbEntity
  8
DEFPOINTS
  6
ByBlock
 62
     0
100
AcDbPoint
 10
486.274965
 20
259.322039
 30
0.0
  0
POINT
  5
151A
330
13BB
100
AcDbEntity
  8
DEFPOINTS
  6
ByBlock
 62
     0
100
AcDbPoint
 10
665.4519650000001
 20
259.322039
 30
0.0
  0
ENDBLK
  5
151B
330
13BB
100
AcDbEntity
  8
0
100
AcDbBlockEnd
  0
BLOCK
  5
13CB
330
13CA
100
AcDbEntity
  8
0
100
AcDbBlockBegin
  2
KATALOG_LEER
 70
     0
 10
0.0
 20
0.0
 30
0.0
  3
KATALOG_LEER
  1

  0
ENDBLK
  5
13CC
330
13CA
100
AcDbEntity
  8
0
100
AcDbBlockEnd
  0
BLOCK
  5
147A
330
1479
100
AcDbEntity
  8
0
100
AcDbBlockBegin
  2
*D9
 70
     1
 10
0.0
 20
0.0
 30
0.0
  3
*D9
  1

  0
LINE
  5
147B
330
1479
100
AcDbEntity
  8
0
  6
ByBlock
100
AcDbLine
 10
187.274965
 20
369.322039
 30
0.0
 11
187.274965
 21
529.2200389999999
 31
0.0
  0
LINE
  5
147C
330
1479
100
AcDbEntity
  8
0
  6
ByBlock
100
AcDbLine
 10
617.274965
 20
369.322039
 30
0.0
 11
617.274965
 21
529.2200389999999
 31
0.0
  0
LINE
  5
147D
330
1479
100
AcDbEntity
  8
0
  6
ByBlock
100
AcDbLine
 10
199.774965
 20
524.2200389999999
 30
0.0
 11
604.774965
 21
524.2200389999999
 31
0.0
  0
SOLID
  5
147E
330
1479
100
AcDbEntity
  8
0
  6
ByBlock
100
AcDbTrace
 10
199.774965
 20
526.303372
 30
0.0
 11
199.774965
 21
522.136706
 31
0.0
 12
187.274965
 22
524.2200389999999
 32
0.0
 13
187.274965
 23
524.2200389999999
 33
0.0
  0
SOLID
  5
147F
330
1479
100
AcDbEntity
  8
0
  6
ByBlock
100
AcDbTrace
 10
604.774965
 20
526.303372
 30
0.0
 11
604.774965
 21
522.136706
 31
0.0
 12
617.274965
 22
524.2200389999999
 32
0.0
 13
617.274965
 23
524.2200389999999
 33
0.0
  0
MTEXT
  5
1480
330
1479
100
AcDbEntity
  8
0
  6
ByBlock
 62
     2
100
AcDbMText
 10
396.105965
 20
535.9700389999999
 30
0.0
 40
17.5
 41
0.0
 71
     5
 72
     1
  1
\U+2205 430
 73
     1
 44
1.0
1001
ACAD
1000
MTEXTBEGIN
1070
    73
1070
     1
1070
    44
1040
1.0
1070
    74
1070
     0
1000
MTEXTEND
  0
POINT
  5
1481
330
1479
100
AcDbEntity
  8
DEFPOINTS
  6
ByBlock
 62
     0
100
AcDbPoint
 10
187.274965
 20
364.322039
 30
0.0
  0
POINT
  5
1482
330
1479
100
AcDbEntity
  8
DEFPOINTS
  6
ByBlock
 62
     0
100
AcDbPoint
 10
617.274965
 20
364.322039
 30
0.0
  0
POINT
  5
1483
330
1479
100
AcDbEntity
  8
DEFPOINTS
  6
ByBlock
 62
     0
100
AcDbPoint
 10
617.274965
 20
524.2200389999999
 30
0.0
  0
ENDBLK
  5
1484
330
1479
100
AcDbEntity
  8
0
100
AcDbBlockEnd
  0
BLOCK
  5
1486
330
1485
100
AcDbEntity
  8
0
100
AcDbBlockBegin
  2
*D10
 70
     1
 10
0.0
 20
0.0
 30
0.0
  3
*D10
  1

  0
LINE
  5
1487
330
1485
100
AcDbEntity
  8
0
  6
ByBlock
100
AcDbLine
 10
288.273965
 20
382.322039
 30
0.0
 11
288.273965
 21
462.524039
 31
0.0
  0
LINE
  5
1488
330
1485
100
AcDbEntity
  8
0
  6
ByBlock
100
AcDbLine
 10
516.2749650000001
 20
382.322039
 30
0.0
 11
516.2749650000001
 21
462.524039
 31
0.0
  0
LINE
  5
1489
330
1485
100
AcDbEntity
  8
0
  6
ByBlock
100
AcDbLine
 10
300.773965
 20
457.5240389999999
 30
0.0
 11
503.7749650000001
 21
457.5240389999999
 31
0.0
  0
SOLID
  5
148A
330
1485
100
AcDbEntity
  8
0
  6
ByBlock
100
AcDbTrace
 10
300.773965
 20
459.6073719999999
 30
0.0
 11
300.773965
 21
455.4407059999999
 31
0.0
 12
288.273965
 22
457.5240389999999
 32
0.0
 13
288.273965
 23
457.5240389999999
 33
0.0
  0
SOLID
  5
148B
330
1485
100
AcDbEntity
  8
0
  6
ByBlock
100
AcDbTrace
 10
503.7749650000001
 20
459.6073719999999
 30
0.0
 11
503.7749650000001
 21
455.4407059999999
 31
0.0
 12
516.2749650000001
 22
457.5240389999999
 32
0.0
 13
516.2749650000001
 23
457.5240389999999
 33
0.0
  0
MTEXT
  5
148C
330
1485
100
AcDbEntity
  8
0
  6
ByBlock
 62
     2
100
AcDbMText
 10
398.118965
 20
469.275762
 30
0.0
 40
17.5
 41
0.0
 71
     5
 72
     1
  1
\U+2205 228
 73
     1
 44
1.0
1001
ACAD
1000
MTEXTBEGIN
1070
    73
1070
     1
1070
    44
1040
1.0
1070
    74
1070
     0
1000
MTEXTEND
  0
POINT
  5
148D
330
1485
100
AcDbEntity
  8
DEFPOINTS
  6
ByBlock
 62
     0
100
AcDbPoint
 10
288.273965
 20
377.322039
 30
0.0
  0
POINT
  5
148E
330
1485
100
AcDbEntity
  8
DEFPOINTS
  6
ByBlock
 62
     0
100
AcDbPoint
 10
516.2749650000001
 20
377.322039
 30
0.0
  0
POINT
  5
148F
330
1485
100
AcDbEntity
  8
DEFPOINTS
  6
ByBlock
 62
     0
100
AcDbPoint
 10
516.2749650000001
 20
457.5240389999999
 30
0.0
  0
ENDBLK
  5
1490
330
1485
100
AcDbEntity
  8
0
100
AcDbBlockEnd
  0
BLOCK
  5
1492
330
1491
100
AcDbEntity
  8
0
100
AcDbBlockBegin
  2
*D11
 70
     1
 10
0.0
 20
0.0
 30
0.0
  3
*D11
  1

  0
LINE
  5
1493
330
1491
100
AcDbEntity
  8
0
  6
ByBlock
100
AcDbLine
 10
397.274965
 20
237.322039
 30
0.0
 11
136.962965
 21
237.322039
 31
0.0
  0
LINE
  5
1494
330
1491
100
AcDbEntity
  8
0
  6
ByBlock
100
AcDbLine
 10
187.041965
 20
372.322039
 30
0.0
 11
136.962965
 21
372.322039
 31
0.0
  0
LINE
  5
1495
330
1491
100
AcDbEntity
  8
0
  6
ByBlock
100
AcDbLine
 10
141.962965
 20
249.822039
 30
0.0
 11
141.962965
 21
359.822039
 31
0.0
  0
SOLID
  5
1496
330
1491
100
AcDbEntity
  8
0
  6
ByBlock
100
AcDbTrace
 10
139.879631
 20
249.822039
 30
0.0
 11
144.046298
 21
249.822039
 31
0.0
 12
141.962965
 22
237.322039
 32
0.0
 13
141.962965
 23
237.322039
 33
0.0
  0
SOLID
  5
1497
330
1491
100
AcDbEntity
  8
0
  6
ByBlock
100
AcDbTrace
 10
139.879631
 20
359.822039
 30
0.0
 11
144.046298
 21
359.822039
 31
0.0
 12
141.962965
 22
372.322039
 32
0.0
 13
141.962965
 23
372.322039
 33
0.0
  0
MTEXT
  5
1498
330
1491
100
AcDbEntity
  8
0
  6
ByBlock
 62
     2
100
AcDbMText
 10
130.212965
 20
302.953039
 30
0.0
 40
17.5
 41
0.0
 71
     5
 72
     1
  1
135
 11
0.0
 21
1.0
 31
0.0
 73
     1
 44
1.0
1001
ACAD
1000
MTEXTBEGIN
1070
    73
1070
     1
1070
    44
1040
1.0
1070
    74
1070
     0
1000
MTEXTEND
  0
POINT
  5
1499
330
1491
100
AcDbEntity
  8
DEFPOINTS
  6
ByBlock
 62
     0
100
AcDbPoint
 10
402.2749649999999
 20
237.322039
 30
0.0
  0
POINT
  5
149A
330
1491
100
AcDbEntity
  8
DEFPOINTS
  6
ByBlock
 62
     0
100
AcDbPoint
 10
192.041965
 20
372.322039
 30
0.0
  0
POINT
  5
149B
330
1491
100
AcDbEntity
  8
DEFPOINTS
  6
ByBlock
 62
     0
100
AcDbPoint
 10
141.962965
 20
372.322039
 30
0.0
  0
ENDBLK
  5
149C
330
1491
100
AcDbEntity
  8
0
100
AcDbBlockEnd
  0
BLOCK
  5
149E
330
149D
100
AcDbEntity
  8
0
100
AcDbBlockBegin
  2
*D12
 70
     1
 10
0.0
 20
0.0
 30
0.0
  3
*D12
  1

  0
LINE
  5
149F
330
149D
100
AcDbEntity
  8
0
  6
ByBlock
100
AcDbLine
 10
402.2749649999999
 20
185.322039
 30
0.0
 11
402.2749649999999
 21
138.406039
 31
0.0
  0
LINE
  5
14A0
330
149D
100
AcDbEntity
  8
0
  6
ByBlock
100
AcDbLine
 10
712.2749650000001
 20
287.322039
 30
0.0
 11
712.2749650000001
 21
138.406039
 31
0.0
  0
LINE
  5
14A1
330
149D
100
AcDbEntity
  8
0
  6
ByBlock
100
AcDbLine
 10
414.7749649999999
 20
143.406039
 30
0.0
 11
699.7749650000001
 21
143.406039
 31
0.0
  0
SOLID
  5
14A2
330
149D
100
AcDbEntity
  8
0
  6
ByBlock
100
AcDbTrace
 10
414.7749649999999
 20
145.489372
 30
0.0
 11
414.7749649999999
 21
141.322706
 31
0.0
 12
402.2749649999999
 22
143.406039
 32
0.0
 13
402.2749649999999
 23
143.406039
 33
0.0
  0
SOLID
  5
14A3
330
149D
100
AcDbEntity
  8
0
  6
ByBlock
100
AcDbTrace
 10
699.7749650000001
 20
145.489372
 30
0.0
 11
699.7749650000001
 21
141.322706
 31
0.0
 12
712.2749650000001
 22
143.406039
 32
0.0
 13
712.2749650000001
 23
143.406039
 33
0.0
  0
MTEXT
  5
14A4
330
149D
100
AcDbEntity
  8
0
  6
ByBlock
 62
     2
100
AcDbMText
 10
564.971965
 20
155.156039
 30
0.0
 40
17.5
 41
0.0
 71
     5
 72
     1
  1
310
 73
     1
 44
1.0
1001
ACAD
1000
MTEXTBEGIN
1070
    73
1070
     1
1070
    44
1040
1.0
1070
    74
1070
     0
1000
MTEXTEND
  0
POINT
  5
14A5
330
149D
100
AcDbEntity
  8
DEFPOINTS
  6
ByBlock
 62
     0
100
AcDbPoint
 10
402.2749649999999
 20
190.322039
 30
0.0
  0
POINT
  5
14A6
330
149D
100
AcDbEntity
  8
DEFPOINTS
  6
ByBlock
 62
     0
100
AcDbPoint
 10
712.2749650000001
 20
292.322039
 30
0.0
  0
POINT
  5
14A7
330
149D
100
AcDbEntity
  8
DEFPOINTS
  6
ByBlock
 62
     0
100
AcDbPoint
 10
712.2749650000001
 20
143.406039
 30
0.0
  0
ENDBLK
  5
14A8
330
149D
100
AcDbEntity
  8
0
100
AcDbBlockEnd
  0
BLOCK
  5
14AA
330
14A9
100
AcDbEntity
  8
0
100
AcDbBlockBegin
  2
*D13
 70
     1
 10
0.0
 20
0.0
 30
0.0
  3
*D13
  1

  0
LINE
  5
14AB
330
14A9
100
AcDbEntity
  8
0
  6
ByBlock
100
AcDbLine
 10
717.274965
 20
292.322039
 30
0.0
 11
820.285965
 21
292.322039
 31
0.0
  0
LINE
  5
14AC
330
14A9
100
AcDbEntity
  8
0
  6
ByBlock
100
AcDbLine
 10
620.863965
 20
372.322039
 30
0.0
 11
820.285965
 21
372.322039
 31
0.0
  0
LINE
  5
14AD
330
14A9
100
AcDbEntity
  8
0
  6
ByBlock
100
AcDbLine
 10
815.2859649999999
 20
304.822039
 30
0.0
 11
815.2859649999999
 21
359.822039
 31
0.0
  0
SOLID
  5
14AE
330
14A9
100
AcDbEntity
  8
0
  6
ByBlock
100
AcDbTrace
 10
813.202631
 20
304.822039
 30
0.0
 11
817.369298
 21
304.822039
 31
0.0
 12
815.2859649999999
 22
292.322039
 32
0.0
 13
815.2859649999999
 23
292.322039
 33
0.0
  0
SOLID
  5
14AF
330
14A9
100
AcDbEntity
  8
0
  6
ByBlock
100
AcDbTrace
 10
813.202631
 20
359.822039
 30
0.0
 11
817.369298
 21
359.822039
 31
0.0
 12
815.2859649999999
 22
372.322039
 32
0.0
 13
815.2859649999999
 23
372.322039
 33
0.0
  0
MTEXT
  5
14B0
330
14A9
100
AcDbEntity
  8
0
  6
ByBlock
 62
     2
100
AcDbMText
 10
803.535965
 20
340.102039
 30
0.0
 40
17.5
 41
0.0
 71
     5
 72
     1
  1
80
 11
0.0
 21
1.0
 31
0.0
 73
     1
 44
1.0
1001
ACAD
1000
MTEXTBEGIN
1070
    73
1070
     1
1070
    44
1040
1.0
1070
    74
1070
     0
1000
MTEXTEND
  0
POINT
  5
14B1
330
14A9
100
AcDbEntity
  8
DEFPOINTS
  6
ByBlock
 62
     0
100
AcDbPoint
 10
712.2749650000001
 20
292.322039
 30
0.0
  0
POINT
  5
14B2
330
14A9
100
AcDbEntity
  8
DEFPOINTS
  6
ByBlock
 62
     0
100
AcDbPoint
 10
615.863965
 20
372.322039
 30
0.0
  0
POINT
  5
14B3
330
14A9
100
AcDbEntity
  8
DEFPOINTS
  6
ByBlock
 62
     0
100
AcDbPoint
 10
815.2859649999999
 20
372.322039
 30
0.0
  0
ENDBLK
  5
14B4
330
14A9
100
AcDbEntity
  8
0
100
AcDbBlockEnd
  0
BLOCK
  5
14D6
330
14B5
100
AcDbEntity
  8
0
100
AcDbBlockBegin
  2
*D14
 70
     1
 10
0.0
 20
0.0
 30
0.0
  3
*D14
  1

  0
LINE
  5
14D7
330
14B5
100
AcDbEntity
  8
0
  6
ByBlock
100
AcDbLine
 10
767.25625
 20
290.881126
 30
0.0
 11
780.9983070000001
 21
290.521199
 31
0.0
  0
LINE
  5
14D8
330
14B5
100
AcDbEntity
  8
0
  6
ByBlock
100
AcDbLine
 10
727.866965
 20
292.322039
 30
0.0
 11
781.0218859999999
 21
292.322039
 31
0.0
  0
ARC
  5
14D9
330
14B5
100
AcDbEntity
  8
0
  6
ByBlock
100
AcDbCircle
 10
712.241965
 20
292.322039
 30
0.0
 40
63.779921
100
AcDbArc
 50
336.005182
 51
347.252428
  0
ARC
  5
14DA
330
14B5
100
AcDbEntity
  8
0
  6
ByBlock
100
AcDbCircle
 10
712.241965
 20
292.322039
 30
0.0
 40
63.779921
100
AcDbArc
 50
11.247246
 51
22.494492
  0
ARC
  5
14DB
330
14B5
100
AcDbEntity
  8
0
  6
ByBlock
100
AcDbCircle
 10
712.241965
 20
292.322039
 30
0.0
 40
63.779921
100
AcDbArc
 50
358.499674
 51
0.0
  0
SOLID
  5
14DC
330
14B5
100
AcDbEntity
  8
0
  6
ByBlock
100
AcDbTrace
 10
772.382567
 20
278.506977
 30
0.0
 11
776.5170679999999
 21
277.990243
 31
0.0
 12
776.0000209999999
 22
290.652112
 32
0.0
 13
776.0000209999999
 23
290.652112
 33
0.0
  0
SOLID
  5
14DD
330
14B5
100
AcDbEntity
  8
0
  6
ByBlock
100
AcDbTrace
 10
776.8702769999999
 20
304.96603
 30
0.0
 11
772.723664
 21
304.557725
 31
0.0
 12
776.021886
 22
292.322039
 32
0.0
 13
776.021886
 23
292.322039
 33
0.0
  0
MTEXT
  5
14DE
330
14B5
100
AcDbEntity
  8
0
  6
ByBlock
 62
     2
100
AcDbMText
 10
760.850422
 20
251.029228
 30
0.0
 40
17.5
 41
0.0
 71
     5
 72
     1
  1
1.5°
 11
0.2655561117777693
 21
0.9640954058066416
 31
0.0
 73
     1
 44
1.0
1001
ACAD
1000
MTEXTBEGIN
1070
    73
1070
     1
1070
    44
1040
1.0
1070
    74
1070
     0
1000
MTEXTEND
  0
POINT
  5
14DF
330
14B5
100
AcDbEntity
  8
DEFPOINTS
  6
ByBlock
 62
     0
100
AcDbPoint
 10
776.019456
 20
291.76534
 30
0.0
  0
POINT
  5
14E0
330
14B5
100
AcDbEntity
  8
DEFPOINTS
  6
ByBlock
 62
     0
100
AcDbPoint
 10
722.866965
 20
292.322039
 30
0.0
  0
POINT
  5
14E1
330
14B5
100
AcDbEntity
  8
DEFPOINTS
  6
ByBlock
 62
     0
100
AcDbPoint
 10
762.257965
 20
291.012039
 30
0.0
  0
POINT
  5
14E2
330
14B5
100
AcDbEntity
  8
DEFPOINTS
  6
ByBlock
 62
     0
100
AcDbPoint
 10
712.241965
 20
292.322039
 30
0.0
  0
POINT
  5
14E3
330
14B5
100
AcDbEntity
  8
DEFPOINTS
  6
ByBlock
 62
     0
100
AcDbPoint
 10
712.241965
 20
292.322039
 30
0.0
  0
ENDBLK
  5
14E4
330
14B5
100
AcDbEntity
  8
0
100
AcDbBlockEnd
  0
BLOCK
  5
1624
330
1622
100
AcDbEntity
  8
0
100
AcDbBlockBegin
  2
GENAXEH
 70
     0
 10
0.0
 20
0.0
 30
0.0
  3
GENAXEH
  1

  0
LINE
  5
1623
330
1622
100
AcDbEntity
  8
0
100
AcDbLine
 10
-1.0
 20
0.0
 30
0.0
 11
1.0
 21
0.0
 31
0.0
  0
ENDBLK
  5
1625
330
1622
100
AcDbEntity
  8
0
100
AcDbBlockEnd
  0
ENDSEC
  0
SECTION
  2
ENTITIES
  0
LINE
  5
1001
330
137A
100
AcDbEntity
  8
0
100
AcDbLine
 10
396.274965
 20
309.322039
 30
0.0
 11
396.274965
 21
259.322039
 31
0.0
  0
LINE
  5
1002
330
137A
100
AcDbEntity
  8
0
100
AcDbLine
 10
402.2749649999999
 20
259.322039
 30
0.0
 11
402.2749649999999
 21
250.322039
 31
0.0
  0
ARC
  5
1003
330
137A
100
AcDbEntity
  8
0
100
AcDbCircle
 10
408.274965
 20
250.322039
 30
0.0
 40
6.0
100
AcDbArc
 50
180.0
 51
315.0
  0
LINE
  5
1004
330
137A
100
AcDbEntity
  8
0
100
AcDbLine
 10
412.516965
 20
246.079039
 30
0.0
 11
422.830965
 21
256.393039
 31
0.0
  0
LINE
  5
1005
330
137A
100
AcDbEntity
  8
0
100
AcDbLine
 10
414.2749649999999
 20
327.322039
 30
0.0
 11
483.7749650000001
 21
327.322039
 31
0.0
  0
ARC
  5
1006
330
137A
100
AcDbEntity
  8
0
100
AcDbCircle
 10
414.2749649999999
 20
309.322039
 30
0.0
 40
18.0
100
AcDbArc
 50
90.0
 51
180.0
  0
LINE
  5
1007
330
137A
100
AcDbEntity
  8
0
100
AcDbLine
 10
396.274965
 20
259.322039
 30
0.0
 11
486.274965
 21
259.322039
 31
0.0
  0
ARC
  5
1008
330
137A
100
AcDbEntity
  8
0
100
AcDbCircle
 10
429.9019649999999
 20
249.322039
 30
0.0
 40
10.0
100
AcDbArc
 50
90.0
 51
135.0
  0
CIRCLE
  5
1009
330
137A
100
AcDbEntity
  8
0
100
AcDbCircle
 10
414.2749649999999
 20
309.322039
 30
0.0
 40
10.0
  0
LINE
  5
100A
330
137A
100
AcDbEntity
  8
0
100
AcDbLine
 10
396.274965
 20
274.322039
 30
0.0
 11
449.274965
 21
327.322039
 31
0.0
  0
LINE
  5
100C
330
137A
100
AcDbEntity
  8
0
100
AcDbLine
 10
486.274965
 20
343.322039
 30
0.0
 11
490.274965
 21
343.322039
 31
0.0
  0
ARC
  5
100D
330
137A
100
AcDbEntity
  8
0
100
AcDbCircle
 10
483.7749650000001
 20
329.822039
 30
0.0
 40
2.5
100
AcDbArc
 50
270.0
 51
0.0
  0
LINE
  5
100E
330
137A
100
AcDbEntity
  8
0
100
AcDbLine
 10
528.274965
 20
248.822039
 30
0.0
 11
528.274965
 21
331.822039
 31
0.0
  0
LINE
  5
100F
330
137A
100
AcDbEntity
  8
0
100
AcDbLine
 10
525.2749650000001
 20
248.822039
 30
0.0
 11
528.274965
 21
248.822039
 31
0.0
  0
LINE
  5
1010
330
137A
100
AcDbEntity
  8
0
100
AcDbLine
 10
525.2749650000001
 20
331.822039
 30
0.0
 11
528.274965
 21
331.822039
 31
0.0
  0
LINE
  5
1011
330
137A
100
AcDbEntity
  8
0
100
AcDbLine
 10
494.274965
 20
327.572039
 30
0.0
 11
502.401965
 21
327.572039
 31
0.0
  0
LINE
  5
1012
330
137A
100
AcDbEntity
  8
0
100
AcDbLine
 10
494.274965
 20
253.072039
 30
0.0
 11
502.401965
 21
253.072039
 31
0.0
  0
LINE
  5
1013
330
137A
100
AcDbEntity
  8
0
100
AcDbLine
 10
506.274965
 20
328.572039
 30
0.0
 11
515.3309649999999
 21
328.572039
 31
0.0
  0
LINE
  5
1014
330
137A
100
AcDbEntity
  8
0
100
AcDbLine
 10
506.274965
 20
252.072039
 30
0.0
 11
515.3309649999999
 21
252.072039
 31
0.0
  0
LINE
  5
1015
330
137A
100
AcDbEntity
  8
0
100
AcDbLine
 10
486.274965
 20
343.322039
 30
0.0
 11
486.274965
 21
248.822039
 31
0.0
  0
LINE
  5
1016
330
137A
100
AcDbEntity
  8
0
100
AcDbLine
 10
486.274965
 20
248.822039
 30
0.0
 11
490.274965
 21
248.822039
 31
0.0
  0
LINE
  5
1017
330
137A
100
AcDbEntity
  8
0
100
AcDbLine
 10
490.274965
 20
248.822039
 30
0.0
 11
490.274965
 21
249.072039
 31
0.0
  0
ARC
  5
1018
330
137A
100
AcDbEntity
  8
0
100
AcDbCircle
 10
494.274965
 20
331.572039
 30
0.0
 40
4.0
100
AcDbArc
 50
180.0
 51
270.0
  0
ARC
  5
1019
330
137A
100
AcDbEntity
  8
0
100
AcDbCircle
 10
494.274965
 20
249.072039
 30
0.0
 40
4.0
100
AcDbArc
 50
90.0
 51
180.0
  0
ARC
  5
101A
330
137A
100
AcDbEntity
  8
0
100
AcDbCircle
 10
506.274965
 20
256.072039
 30
0.0
 40
4.0
100
AcDbArc
 50
241.045
 51
270.0
  0
ARC
  5
101B
330
137A
100
AcDbEntity
  8
0
100
AcDbCircle
 10
506.274965
 20
324.572039
 30
0.0
 40
4.0
100
AcDbArc
 50
90.0
 51
118.955
  0
ARC
  5
101C
330
137A
100
AcDbEntity
  8
0
100
AcDbCircle
 10
502.401965
 20
331.572039
 30
0.0
 40
4.0
100
AcDbArc
 50
270.0
 51
298.955
  0
ARC
  5
101D
330
137A
100
AcDbEntity
  8
0
100
AcDbCircle
 10
502.401965
 20
249.072039
 30
0.0
 40
4.0
100
AcDbArc
 50
61.04500000000001
 51
90.0
  0
ARC
  5
101E
330
137A
100
AcDbEntity
  8
0
100
AcDbCircle
 10
520.330965
 20
332.572039
 30
0.0
 40
5.0
100
AcDbArc
 50
131.411
 51
48.589
  0
ARC
  5
101F
330
137A
100
AcDbEntity
  8
0
100
AcDbCircle
 10
520.330965
 20
248.072039
 30
0.0
 40
5.0
100
AcDbArc
 50
311.41
 51
228.59
  0
ARC
  5
1020
330
137A
100
AcDbEntity
  8
0
100
AcDbCircle
 10
528.274965
 20
315.822039
 30
0.0
 40
62.5
100
AcDbArc
 50
270.0
 51
0.0
  0
LINE
  5
1021
330
137A
100
AcDbEntity
  8
0
100
AcDbLine
 10
590.774965
 20
315.822039
 30
0.0
 11
590.774965
 21
318.822039
 31
0.0
  0
LINE
  5
1022
330
137A
100
AcDbEntity
  8
0
100
AcDbLine
 10
529.2749650000001
 20
246.322039
 30
0.0
 11
529.2749650000001
 21
253.330039
 31
0.0
  0
ARC
  5
1023
330
137A
100
AcDbEntity
  8
0
100
AcDbCircle
 10
548.274965
 20
256.322039
 30
0.0
 40
10.0
100
AcDbArc
 50
270.0
 51
321.821
  0
LINE
  5
1024
330
137A
100
AcDbEntity
  8
0
100
AcDbLine
 10
556.1349650000001
 20
250.141039
 30
0.0
 11
577.4049650000001
 21
277.189039
 31
0.0
  0
LINE
  5
1025
330
137A
100
AcDbEntity
  8
0
100
AcDbLine
 10
548.274965
 20
246.322039
 30
0.0
 11
529.2749650000001
 21
246.322039
 31
0.0
  0
LINE
  5
1026
330
137A
100
AcDbEntity
  8
0
100
AcDbLine
 10
490.274965
 20
343.322039
 30
0.0
 11
490.274965
 21
248.822039
 31
0.0
  0
LINE
  5
1029
330
137A
100
AcDbEntity
  8
0
100
AcDbLine
 10
444.274965
 20
328.322039
 30
0.0
 11
481.274965
 21
328.322039
 31
0.0
  0
LINE
  5
102A
330
137A
100
AcDbEntity
  8
0
100
AcDbLine
 10
444.274965
 20
328.322039
 30
0.0
 11
444.274965
 21
327.322039
 31
0.0
  0
LINE
  5
102B
330
137A
100
AcDbEntity
  8
0
100
AcDbLine
 10
459.274965
 20
328.322039
 30
0.0
 11
459.274965
 21
327.322039
 31
0.0
  0
LINE
  5
102C
330
137A
100
AcDbEntity
  8
0
100
AcDbLine
 10
481.274965
 20
328.322039
 30
0.0
 11
481.274965
 21
327.322039
 31
0.0
  0
ARC
  5
102D
330
137A
100
AcDbEntity
  8
0
100
AcDbCircle
 10
590.274965
 20
318.822039
 30
0.0
 40
0.5
100
AcDbArc
 50
0.0
 51
90.0
  0
LINE
  5
102E
330
137A
100
AcDbEntity
  8
0
100
AcDbLine
 10
515.3309649999999
 20
332.572039
 30
0.0
 11
515.3309649999999
 21
248.072039
 31
0.0
  0
LINE
  5
102F
330
137A
100
AcDbEntity
  8
0
100
AcDbLine
 10
525.2749650000001
 20
331.822039
 30
0.0
 11
525.2749650000001
 21
248.822039
 31
0.0
  0
LINE
  5
1030
330
137A
100
AcDbEntity
  8
0
100
AcDbLine
 10
486.274965
 20
336.112039
 30
0.0
 11
490.274965
 21
336.112039
 31
0.0
  0
LINE
  5
1031
330
137A
100
AcDbEntity
  8
4
100
AcDbLine
 10
505.305965
 20
325.453039
 30
0.0
 11
505.305965
 21
255.191039
 31
0.0
  0
LINE
  5
1032
330
137A
100
AcDbEntity
  8
4
100
AcDbLine
 10
503.369965
 20
324.691039
 30
0.0
 11
503.369965
 21
255.953039
 31
0.0
  0
LINE
  5
1033
330
137A
100
AcDbEntity
  8
0
100
AcDbLine
 10
486.274965
 20
253.702039
 30
0.0
 11
490.274965
 21
253.702039
 31
0.0
  0
LINE
  5
1034
330
137A
100
AcDbEntity
  8
0
100
AcDbLine
 10
426.274965
 20
304.322039
 30
0.0
 11
426.274965
 21
259.322039
 31
0.0
  0
LINE
  5
1035
330
137A
100
AcDbEntity
  8
0
100
AcDbLine
 10
439.274965
 20
317.322039
 30
0.0
 11
486.274965
 21
317.322039
 31
0.0
  0
LINE
  5
1036
330
137A
100
AcDbEntity
  8
0
100
AcDbLine
 10
289.616965
 20
377.322039
 30
0.0
 11
340.096965
 21
377.322039
 31
0.0
  0
LINE
  5
1037
330
137A
100
AcDbEntity
  8
MAßLINIEN
 62
     4
 48
0.762
100
AcDbLine
 10
594.564965
 20
295.404039
 30
0.0
 11
762.256965
 21
291.013039
 31
0.0
  0
LINE
  5
1038
330
137A
100
AcDbEntity
  8
0
100
AcDbLine
 10
710.887965
 20
239.367039
 30
0.0
 11
713.669965
 21
345.613039
 31
0.0
  0
LINE
  5
1039
330
137A
100
AcDbEntity
  8
0
100
AcDbLine
 10
624.786965
 20
349.381039
 30
0.0
 11
707.709965
 21
347.210039
 31
0.0
  0
LINE
  5
103A
330
137A
100
AcDbEntity
  8
0
100
AcDbLine
 10
635.115965
 20
239.573039
 30
0.0
 11
704.842965
 21
237.748039
 31
0.0
  0
LINE
  5
103B
330
137A
100
AcDbEntity
  8
0
100
AcDbLine
 10
624.611965
 20
344.634039
 30
0.0
 11
688.591965
 21
342.959039
 31
0.0
  0
LINE
  5
103C
330
137A
100
AcDbEntity
  8
0
100
AcDbLine
 10
635.2399649999999
 20
244.322039
 30
0.0
 11
685.973965
 21
242.993039
 31
0.0
  0
LINE
  5
103D
330
137A
100
AcDbEntity
  8
0
100
AcDbLine
 10
316.749965
 20
244.322039
 30
0.0
 11
635.2399649999999
 21
244.322039
 31
0.0
  0
LINE
  5
103E
330
137A
100
AcDbEntity
  8
0
100
AcDbLine
 10
294.773965
 20
377.322039
 30
0.0
 11
296.752965
 21
263.973039
 31
0.0
  0
LINE
  5
103F
330
137A
100
AcDbEntity
  8
0
100
AcDbLine
 10
690.9989649999999
 20
243.862039
 30
0.0
 11
693.563965
 21
341.828039
 31
0.0
  0
LINE
  5
1040
330
137A
100
AcDbEntity
  8
0
100
AcDbLine
 10
685.973965
 20
242.993039
 30
0.0
 11
688.591965
 21
342.959039
 31
0.0
  0
LINE
  5
1041
330
137A
100
AcDbEntity
  8
0
100
AcDbLine
 10
704.842965
 20
237.748039
 30
0.0
 11
710.887965
 21
239.367039
 31
0.0
  0
LINE
  5
1042
330
137A
100
AcDbEntity
  8
0
100
AcDbLine
 10
707.709965
 20
347.210039
 30
0.0
 11
713.669965
 21
345.613039
 31
0.0
  0
LINE
  5
1043
330
137A
100
AcDbEntity
  8
0
100
AcDbLine
 10
693.563965
 20
341.828039
 30
0.0
 11
713.5569649999999
 21
341.305039
 31
0.0
  0
LINE
  5
1044
330
137A
100
AcDbEntity
  8
0
100
AcDbLine
 10
690.9989649999999
 20
243.862039
 30
0.0
 11
710.9919650000001
 21
243.339039
 31
0.0
  0
LINE
  5
1045
330
137A
100
AcDbEntity
  8
0
100
AcDbLine
 10
685.973965
 20
242.993039
 30
0.0
 11
690.9989649999999
 21
243.862039
 31
0.0
  0
LINE
  5
1046
330
137A
100
AcDbEntity
  8
0
100
AcDbLine
 10
688.591965
 20
342.959039
 30
0.0
 11
693.563965
 21
341.828039
 31
0.0
  0
LINE
  5
1047
330
137A
100
AcDbEntity
  8
0
100
AcDbLine
 10
509.686965
 20
372.322039
 30
0.0
 11
612.506965
 21
372.322039
 31
0.0
  0
LINE
  5
1048
330
137A
100
AcDbEntity
  8
0
100
AcDbLine
 10
520.496965
 20
367.322039
 30
0.0
 11
608.311965
 21
367.322039
 31
0.0
  0
LINE
  5
1049
330
137A
100
AcDbEntity
  8
0
100
AcDbLine
 10
509.277965
 20
348.867039
 30
0.0
 11
509.774965
 21
377.322039
 31
0.0
  0
LINE
  5
104A
330
137A
100
AcDbEntity
  8
0
100
AcDbLine
 10
490.274965
 20
346.991039
 30
0.0
 11
507.705965
 21
347.295039
 31
0.0
  0
LINE
  5
104B
330
137A
100
AcDbEntity
  8
0
100
AcDbLine
 10
490.274965
 20
346.990039
 30
0.0
 11
490.274965
 21
343.322039
 31
0.0
  0
ARC
  5
104C
330
137A
100
AcDbEntity
  8
0
100
AcDbCircle
 10
507.677965
 20
348.895039
 30
0.0
 40
1.6
100
AcDbArc
 50
270.9990000000001
 51
358.999
  0
LINE
  5
104D
330
137A
100
AcDbEntity
  8
0
100
AcDbLine
 10
490.274965
 20
336.322039
 30
0.0
 11
528.274965
 21
336.322039
 31
0.0
  0
LINE
  5
104E
330
137A
100
AcDbEntity
  8
0
100
AcDbLine
 10
514.217965
 20
345.392039
 30
0.0
 11
514.497965
 21
361.4270390000001
 31
0.0
  0
ARC
  5
104F
330
137A
100
AcDbEntity
  8
0
100
AcDbCircle
 10
520.496965
 20
361.322039
 30
0.0
 40
6.0
100
AcDbArc
 50
90.0
 51
179.0
  0
LINE
  5
1050
330
137A
100
AcDbEntity
  8
0
100
AcDbLine
 10
518.216965
 20
341.322039
 30
0.0
 11
528.274965
 21
341.322039
 31
0.0
  0
LINE
  5
1051
330
137A
100
AcDbEntity
  8
0
100
AcDbLine
 10
528.274965
 20
331.822039
 30
0.0
 11
528.274965
 21
341.322039
 31
0.0
  0
ARC
  5
1052
330
137A
100
AcDbEntity
  8
0
100
AcDbCircle
 10
518.216965
 20
345.322039
 30
0.0
 40
4.0
100
AcDbArc
 50
179.0
 51
270.0
  0
LINE
  5
1054
330
137A
100
AcDbEntity
  8
0
100
AcDbLine
 10
192.041965
 20
372.322039
 30
0.0
 11
294.861965
 21
372.322039
 31
0.0
  0
ARC
  5
1055
330
137A
100
AcDbEntity
  8
0
100
AcDbCircle
 10
274.535965
 20
354.322039
 30
0.0
 40
10.0
100
AcDbArc
 50
190.0
 51
0.0
  0
LINE
  5
1056
330
137A
100
AcDbEntity
  8
0
100
AcDbLine
 10
187.273965
 20
364.322039
 30
0.0
 11
261.802965
 21
364.322039
 31
0.0
  0
LINE
  5
1057
330
137A
100
AcDbEntity
  8
0
100
AcDbLine
 10
187.273965
 20
364.322039
 30
0.0
 11
188.1019649999999
 21
369.016039
 31
0.0
  0
ARC
  5
1058
330
137A
100
AcDbEntity
  8
0
100
AcDbCircle
 10
192.041965
 20
368.322039
 30
0.0
 40
4.0
100
AcDbArc
 50
90.0
 51
170.0
  0
LINE
  5
1059
330
137A
100
AcDbEntity
  8
0
100
AcDbLine
 10
263.010965
 20
362.094039
 30
0.0
 11
264.687965
 21
352.585039
 31
0.0
  0
LINE
  5
105A
330
137A
100
AcDbEntity
  8
0
100
AcDbLine
 10
284.383965
 20
352.585039
 30
0.0
 11
286.374965
 21
363.876039
 31
0.0
  0
LINE
  5
105B
330
137A
100
AcDbEntity
  8
0
100
AcDbLine
 10
290.099965
 20
358.629039
 30
0.0
 11
291.748965
 21
264.137039
 31
0.0
  0
LINE
  5
105C
330
137A
100
AcDbEntity
  8
0
100
AcDbLine
 10
226.987965
 20
366.522039
 30
0.0
 11
284.309965
 21
364.520039
 31
0.0
  0
ARC
  5
105D
330
137A
100
AcDbEntity
  8
0
100
AcDbCircle
 10
226.848965
 20
362.525039
 30
0.0
 40
4.0
100
AcDbArc
 50
88.0
 51
153.302
  0
ARC
  5
105E
330
137A
100
AcDbEntity
  8
0
100
AcDbCircle
 10
284.100965
 20
358.524039
 30
0.0
 40
6.0
100
AcDbArc
 50
1.0
 51
88.0
  0
ARC
  5
105F
330
137A
100
AcDbEntity
  8
0
100
AcDbCircle
 10
259.071965
 20
361.399039
 30
0.0
 40
4.0
100
AcDbArc
 50
10.0
 51
88.0
  0
LINE
  5
1060
330
137A
100
AcDbEntity
  8
0
100
AcDbLine
 10
316.745965
 20
239.573039
 30
0.0
 11
376.537965
 21
239.573039
 31
0.0
  0
LINE
  5
1061
330
137A
100
AcDbEntity
  8
0
100
AcDbLine
 10
490.274965
 20
244.322039
 30
0.0
 11
490.274965
 21
242.322039
 31
0.0
  0
LINE
  5
1062
330
137A
100
AcDbEntity
  8
0
100
AcDbLine
 10
490.274965
 20
242.322039
 30
0.0
 11
402.2749649999999
 21
242.322039
 31
0.0
  0
LINE
  5
1063
330
137A
100
AcDbEntity
  8
0
100
AcDbLine
 10
494.173965
 20
239.573039
 30
0.0
 11
635.115965
 21
239.573039
 31
0.0
  0
LINE
  5
1064
330
137A
100
AcDbEntity
  8
0
100
AcDbLine
 10
490.274965
 20
237.322039
 30
0.0
 11
402.2749649999999
 21
237.322039
 31
0.0
  0
LINE
  5
1065
330
137A
100
AcDbEntity
  8
0
100
AcDbLine
 10
379.412965
 20
244.322039
 30
0.0
 11
402.273965
 21
242.322039
 31
0.0
  0
LINE
  5
1066
330
137A
100
AcDbEntity
  8
0
100
AcDbLine
 10
376.537965
 20
239.573039
 30
0.0
 11
402.273965
 21
237.322039
 31
0.0
  0
LINE
  5
1067
330
137A
100
AcDbEntity
  8
3A
100
AcDbLine
 10
376.537965
 20
239.573039
 30
0.0
 11
490.274965
 21
239.573039
 31
0.0
  0
LINE
  5
1068
330
137A
100
AcDbEntity
  8
0
100
AcDbLine
 10
490.274965
 20
237.322039
 30
0.0
 11
494.174965
 21
239.573039
 31
0.0
  0
ARC
  5
1069
330
137A
100
AcDbEntity
  8
0
100
AcDbCircle
 10
316.745965
 20
264.573039
 30
0.0
 40
25.0
100
AcDbArc
 50
181.0
 51
270.0
  0
ARC
  5
106A
330
137A
100
AcDbEntity
  8
0
100
AcDbCircle
 10
316.749965
 20
264.322039
 30
0.0
 40
20.0
100
AcDbArc
 50
181.0
 51
270.0
  0
LINE
  5
1071
330
137A
100
AcDbEntity
  8
0
100
AcDbLine
 10
525.0129649999999
 20
372.322039
 30
0.0
 11
525.0129649999999
 21
377.322039
 31
0.0
  0
LINE
  5
1072
330
137A
100
AcDbEntity
  8
4
100
AcDbLine
 10
526.012965
 20
372.322039
 30
0.0
 11
526.012965
 21
377.322039
 31
0.0
  0
LINE
  5
1073
330
137A
100
AcDbEntity
  8
4
100
AcDbLine
 10
534.012965
 20
372.322039
 30
0.0
 11
534.012965
 21
377.322039
 31
0.0
  0
LINE
  5
1074
330
137A
100
AcDbEntity
  8
0
100
AcDbLine
 10
535.012965
 20
372.322039
 30
0.0
 11
535.012965
 21
377.322039
 31
0.0
  0
LINE
  5
1075
330
137A
100
AcDbEntity
  8
0
100
AcDbLine
 10
354.154965
 20
377.322039
 30
0.0
 11
352.793965
 21
372.322039
 31
0.0
  0
LINE
  5
1076
330
137A
100
AcDbEntity
  8
0
100
AcDbLine
 10
357.417965
 20
377.322039
 30
0.0
 11
356.053965
 21
372.322039
 31
0.0
  0
LINE
  5
1077
330
137A
100
AcDbEntity
  8
0
100
AcDbLine
 10
341.331965
 20
372.322039
 30
0.0
 11
356.053965
 21
372.322039
 31
0.0
  0
LINE
  5
1078
330
137A
100
AcDbEntity
  8
0
100
AcDbLine
 10
464.451965
 20
377.322039
 30
0.0
 11
463.216965
 21
372.322039
 31
0.0
  0
LINE
  5
1079
330
137A
100
AcDbEntity
  8
0
100
AcDbLine
 10
450.393965
 20
377.322039
 30
0.0
 11
451.754965
 21
372.322039
 31
0.0
  0
LINE
  5
107A
330
137A
100
AcDbEntity
  8
0
100
AcDbLine
 10
447.1309650000001
 20
377.322039
 30
0.0
 11
448.494965
 21
372.322039
 31
0.0
  0
LINE
  5
107B
330
137A
100
AcDbEntity
  8
0
100
AcDbLine
 10
463.216965
 20
372.322039
 30
0.0
 11
448.494965
 21
372.322039
 31
0.0
  0
LINE
  5
107C
330
137A
100
AcDbEntity
  8
0
100
AcDbLine
 10
464.451965
 20
377.322039
 30
0.0
 11
514.9319649999999
 21
377.322039
 31
0.0
  0
LINE
  5
107D
330
137A
100
AcDbEntity
  8
0
100
AcDbLine
 10
340.096965
 20
377.322039
 30
0.0
 11
341.331965
 21
372.322039
 31
0.0
  0
LINE
  5
107E
330
137A
100
AcDbEntity
  8
0
100
AcDbLine
 10
354.153965
 20
377.322039
 30
0.0
 11
450.394965
 21
377.322039
 31
0.0
  0
LINE
  5
107F
330
137A
100
AcDbEntity
  8
0
100
AcDbLine
 10
331.394965
 20
347.322039
 30
0.0
 11
364.828965
 21
347.322039
 31
0.0
  0
LINE
  5
1080
330
137A
100
AcDbEntity
  8
0
100
AcDbLine
 10
331.394965
 20
337.322039
 30
0.0
 11
364.828965
 21
337.322039
 31
0.0
  0
LINE
  5
1081
330
137A
100
AcDbEntity
  8
0
100
AcDbLine
 10
331.394965
 20
347.322039
 30
0.0
 11
331.394965
 21
337.322039
 31
0.0
  0
LINE
  5
1082
330
137A
100
AcDbEntity
  8
0
100
AcDbLine
 10
364.828965
 20
347.322039
 30
0.0
 11
364.828965
 21
337.322039
 31
0.0
  0
ARC
  5
1083
330
137A
100
AcDbEntity
  8
0
100
AcDbCircle
 10
348.111965
 20
416.185039
 30
0.0
 40
70.86399999999999
100
AcDbArc
 50
256.355
 51
283.645
  0
ARC
  5
1084
330
137A
100
AcDbEntity
  8
0
100
AcDbCircle
 10
348.111965
 20
268.458039
 30
0.0
 40
70.86399999999999
100
AcDbArc
 50
76.355
 51
103.645
  0
LINE
  5
1085
330
137A
100
AcDbEntity
  8
0
100
AcDbLine
 10
616.446965
 20
369.016039
 30
0.0
 11
619.034965
 21
354.337039
 31
0.0
  0
LINE
  5
1086
330
137A
100
AcDbEntity
  8
0
100
AcDbLine
 10
612.250965
 20
364.0160390000001
 30
0.0
 11
624.505965
 21
294.518039
 31
0.0
  0
ARC
  5
1087
330
137A
100
AcDbEntity
  8
0
100
AcDbCircle
 10
624.943965
 20
355.379039
 30
0.0
 40
6.0
100
AcDbArc
 50
190.0
 51
268.5
  0
ARC
  5
1088
330
137A
100
AcDbEntity
  8
0
100
AcDbCircle
 10
608.311965
 20
363.322039
 30
0.0
 40
4.0
100
AcDbArc
 50
10.0
 51
90.0
  0
ARC
  5
1089
330
137A
100
AcDbEntity
  8
0
100
AcDbCircle
 10
612.506965
 20
368.322039
 30
0.0
 40
4.0
100
AcDbArc
 50
10.0
 51
90.00100000000001
  0
ARC
  5
108A
330
137A
100
AcDbEntity
  8
0
100
AcDbCircle
 10
624.899965
 20
355.631039
 30
0.0
 40
11.0
100
AcDbArc
 50
190.0
 51
268.5
  0
LINE
  5
108B
330
137A
100
AcDbEntity
  8
0
100
AcDbLine
 10
712.2749650000001
 20
292.322039
 30
0.0
 11
722.866965
 21
292.322039
 31
0.0
  0
LINE
  5
108C
330
137A
100
AcDbEntity
  8
0
100
AcDbLine
 10
528.274965
 20
319.322039
 30
0.0
 11
590.274965
 21
319.322039
 31
0.0
  0
LINE
  5
108F
330
137A
100
AcDbEntity
  8
0
100
AcDbLine
 10
287.756965
 20
374.388039
 30
0.0
 11
288.040965
 21
376.000039
 31
0.0
  0
ARC
  5
1090
330
137A
100
AcDbEntity
  8
0
100
AcDbCircle
 10
289.616965
 20
375.722039
 30
0.0
 40
1.6
100
AcDbArc
 50
90.0
 51
170.0
  0
ARC
  5
1091
330
137A
100
AcDbEntity
  8
0
100
AcDbCircle
 10
285.294965
 20
374.822039
 30
0.0
 40
2.5
100
AcDbArc
 50
270.0
 51
350.0
  0
LINE
  5
1092
330
137A
100
AcDbEntity
  8
0
100
AcDbLine
 10
516.507965
 20
376.000039
 30
0.0
 11
516.7919649999999
 21
374.388039
 31
0.0
  0
ARC
  5
1093
330
137A
100
AcDbEntity
  8
0
100
AcDbCircle
 10
519.2539649999999
 20
374.822039
 30
0.0
 40
2.5
100
AcDbArc
 50
190.0
 51
269.999
  0
ARC
  5
1094
330
137A
100
AcDbEntity
  8
0
100
AcDbCircle
 10
514.9319649999999
 20
375.722039
 30
0.0
 40
1.6
100
AcDbArc
 50
10.0
 51
90.00100000000001
  0
LINE
  5
10A9
330
137A
100
AcDbEntity
  8
0
100
AcDbLine
 10
556.665965
 20
389.321039
 30
0.0
 11
542.884965
 21
389.322039
 31
0.0
  0
LINE
  5
10AA
330
137A
100
AcDbEntity
  8
MAßLINIEN
 62
     4
100
AcDbLine
 10
401.931113
 20
407.8666979999999
 30
0.0
 11
402.2749649999999
 21
139.842039
 31
0.0
  0
LINE
  5
10AB
330
137A
100
AcDbEntity
  8
0
100
AcDbLine
 10
554.7739650000001
 20
389.322039
 30
0.0
 11
574.7749650000001
 21
389.322039
 31
0.0
  0
LINE
  5
10AC
330
137A
100
AcDbEntity
  8
0
100
AcDbLine
 10
402.2749649999999
 20
389.322039
 30
0.0
 11
544.774965
 21
389.322039
 31
0.0
  0
LINE
  5
10AD
330
137A
100
AcDbEntity
  8
0
100
AcDbLine
 10
577.274965
 20
386.822039
 30
0.0
 11
577.274965
 21
379.822039
 31
0.0
  0
LINE
  5
10AE
330
137A
100
AcDbEntity
  8
0
100
AcDbLine
 10
402.2749649999999
 20
377.322039
 30
0.0
 11
574.7749650000001
 21
377.322039
 31
0.0
  0
ARC
  5
10AF
330
137A
100
AcDbEntity
  8
0
100
AcDbCircle
 10
574.7749650000001
 20
386.822039
 30
0.0
 40
2.5
100
AcDbArc
 50
0.0
 51
90.0
  0
ARC
  5
10B0
330
137A
100
AcDbEntity
  8
0
100
AcDbCircle
 10
574.7749650000001
 20
379.822039
 30
0.0
 40
2.5
100
AcDbArc
 50
270.0
 51
0.0
  0
LINE
  5
10B1
330
137A
100
AcDbEntity
  8
0
100
AcDbLine
 10
523.774965
 20
389.590039
 30
0.0
 11
523.774965
 21
389.322039
 31
0.0
  0
LINE
  5
10B2
330
137A
100
AcDbEntity
  8
0
100
AcDbLine
 10
402.2749649999999
 20
385.322039
 30
0.0
 11
404.274965
 21
385.322039
 31
0.0
  0
ARC
  5
10B3
330
137A
100
AcDbEntity
  8
0
100
AcDbCircle
 10
519.774965
 20
389.322039
 30
0.0
 40
4.0
100
AcDbArc
 50
270.0
 51
0.0
  0
LINE
  5
10B4
330
137A
100
AcDbEntity
  8
0
100
AcDbLine
 10
402.2749649999999
 20
385.322039
 30
0.0
 11
577.274965
 21
385.322039
 31
0.0
  0
ARC
  5
10B5
330
137A
100
AcDbEntity
  8
0
100
AcDbCircle
 10
346.692965
 20
389.322039
 30
0.0
 40
4.0
100
AcDbArc
 50
196.602
 51
270.0
  0
ARC
  5
10B6
330
137A
100
AcDbEntity
  8
0
100
AcDbCircle
 10
341.325965
 20
387.722039
 30
0.0
 40
1.6
100
AcDbArc
 50
16.602
 51
89.999
  0
LINE
  5
10B7
330
137A
100
AcDbEntity
  8
0
100
AcDbLine
 10
402.2749649999999
 20
389.322039
 30
0.0
 11
229.773965
 21
389.322039
 31
0.0
  0
LINE
  5
10B8
330
137A
100
AcDbEntity
  8
0
100
AcDbLine
 10
227.273965
 20
386.822039
 30
0.0
 11
227.273965
 21
379.822039
 31
0.0
  0
LINE
  5
10B9
330
137A
100
AcDbEntity
  8
0
100
AcDbLine
 10
402.2749649999999
 20
377.322039
 30
0.0
 11
229.773965
 21
377.322039
 31
0.0
  0
ARC
  5
10BA
330
137A
100
AcDbEntity
  8
0
100
AcDbCircle
 10
229.773965
 20
386.822039
 30
0.0
 40
2.5
100
AcDbArc
 50
90.0
 51
180.0
  0
ARC
  5
10BB
330
137A
100
AcDbEntity
  8
0
100
AcDbCircle
 10
229.773965
 20
379.822039
 30
0.0
 40
2.5
100
AcDbArc
 50
180.0
 51
270.0
  0
ARC
  5
10BC
330
137A
100
AcDbEntity
  8
0
100
AcDbCircle
 10
284.774965
 20
389.322039
 30
0.0
 40
4.0
100
AcDbArc
 50
180.0
 51
270.0
  0
LINE
  5
10BD
330
137A
100
AcDbEntity
  8
0
100
AcDbLine
 10
402.2749649999999
 20
385.322039
 30
0.0
 11
227.273965
 21
385.322039
 31
0.0
  0
ARC
  5
10BE
330
137A
100
AcDbEntity
  8
0
100
AcDbCircle
 10
350.692965
 20
389.322039
 30
0.0
 40
4.0
100
AcDbArc
 50
270.0
 51
343.398
  0
ARC
  5
10BF
330
137A
100
AcDbEntity
  8
0
100
AcDbCircle
 10
356.058965
 20
387.722039
 30
0.0
 40
1.6
100
AcDbArc
 50
90.00100000000001
 51
163.398
  0
LINE
  5
10C0
330
137A
100
AcDbEntity
  8
0
100
AcDbLine
 10
284.774965
 20
385.322039
 30
0.0
 11
284.774965
 21
379.822039
 31
0.0
  0
ARC
  5
10C1
330
137A
100
AcDbEntity
  8
0
100
AcDbCircle
 10
282.274965
 20
379.822039
 30
0.0
 40
2.5
100
AcDbArc
 50
270.0
 51
0.0
  0
LINE
  5
10C2
330
137A
100
AcDbEntity
  8
0
100
AcDbLine
 10
519.774965
 20
385.322039
 30
0.0
 11
519.774965
 21
379.822039
 31
0.0
  0
ARC
  5
10C3
330
137A
100
AcDbEntity
  8
0
100
AcDbCircle
 10
522.274965
 20
379.822039
 30
0.0
 40
2.5
100
AcDbArc
 50
180.0
 51
270.0
  0
LINE
  5
10C5
330
137A
100
AcDbEntity
  8
0
100
AcDbLine
 10
525.013965
 20
400.8220389999999
 30
0.0
 11
526.013965
 21
401.822039
 31
0.0
  0
LINE
  5
10C6
330
137A
100
AcDbEntity
  8
0
100
AcDbLine
 10
535.011965
 20
400.821039
 30
0.0
 11
534.011965
 21
401.821039
 31
0.0
  0
LINE
  5
10C7
330
137A
100
AcDbEntity
  8
0
100
AcDbLine
 10
535.012965
 20
400.821039
 30
0.0
 11
525.015965
 21
400.821039
 31
0.0
  0
LINE
  5
10C8
330
137A
100
AcDbEntity
  8
0
100
AcDbLine
 10
534.012965
 20
401.821039
 30
0.0
 11
526.015965
 21
401.822039
 31
0.0
  0
ARC
  5
10C9
330
137A
100
AcDbEntity
  8
0
100
AcDbCircle
 10
530.011965
 20
383.147039
 30
0.0
 40
14.175
100
AcDbArc
 50
70.533
 51
109.461
  0
ARC
  5
10CA
330
137A
100
AcDbEntity
  8
0
100
AcDbCircle
 10
530.012965
 20
403.497039
 30
0.0
 40
14.175
100
AcDbArc
 50
250.525
 51
289.46
  0
LINE
  5
10CB
330
137A
100
AcDbEntity
  8
0
100
AcDbLine
 10
534.736965
 20
390.133039
 30
0.0
 11
534.737965
 21
396.509039
 31
0.0
  0
LINE
  5
10CC
330
137A
100
AcDbEntity
  8
0
100
AcDbLine
 10
525.286965
 20
390.1340390000001
 30
0.0
 11
525.2879649999999
 21
396.510039
 31
0.0
  0
LINE
  5
10CD
330
137A
100
AcDbEntity
  8
0
100
AcDbLine
 10
536.9039650000001
 20
389.321039
 30
0.0
 11
523.121965
 21
389.322039
 31
0.0
  0
LINE
  5
10CE
330
137A
100
AcDbEntity
  8
0
100
AcDbLine
 10
537.1009650000001
 20
397.321039
 30
0.0
 11
523.122965
 21
397.322039
 31
0.0
  0
LINE
  5
10CF
330
137A
100
AcDbEntity
  8
0
100
AcDbLine
 10
539.4609649999999
 20
390.132039
 30
0.0
 11
538.547965
 21
389.605039
 31
0.0
  0
ARC
  5
10D0
330
137A
100
AcDbEntity
  8
0
100
AcDbCircle
 10
537.0999649999999
 20
393.169039
 30
0.0
 40
3.846999999999999
100
AcDbArc
 50
232.13
 51
292.11
  0
LINE
  5
10D1
330
137A
100
AcDbEntity
  8
0
100
AcDbLine
 10
539.461965
 20
390.133039
 30
0.0
 11
539.462965
 21
396.509039
 31
0.0
  0
ARC
  5
10D2
330
137A
100
AcDbEntity
  8
0
100
AcDbCircle
 10
537.0999649999999
 20
393.473039
 30
0.0
 40
3.848
100
AcDbArc
 50
60.0
 51
127.859
  0
LINE
  5
10D3
330
137A
100
AcDbEntity
  8
0
100
AcDbLine
 10
539.4609649999999
 20
396.511039
 30
0.0
 11
538.550965
 21
397.037039
 31
0.0
  0
ARC
  5
10D4
330
137A
100
AcDbEntity
  8
0
100
AcDbCircle
 10
522.924965
 20
393.1700390000001
 30
0.0
 40
3.848
100
AcDbArc
 50
247.969
 51
307.857
  0
LINE
  5
10D5
330
137A
100
AcDbEntity
  8
0
100
AcDbLine
 10
521.481965
 20
389.603039
 30
0.0
 11
520.5639650000001
 21
390.133039
 31
0.0
  0
LINE
  5
10D6
330
137A
100
AcDbEntity
  8
0
100
AcDbLine
 10
520.561965
 20
390.135039
 30
0.0
 11
520.562965
 21
396.509039
 31
0.0
  0
LINE
  5
10D7
330
137A
100
AcDbEntity
  8
0
100
AcDbLine
 10
521.4799649999999
 20
397.040039
 30
0.0
 11
520.5639650000001
 21
396.511039
 31
0.0
  0
ARC
  5
10D8
330
137A
100
AcDbEntity
  8
0
100
AcDbCircle
 10
522.924965
 20
393.474039
 30
0.0
 40
3.848
100
AcDbArc
 50
52.138
 51
112.063
  0
LINE
  5
10D9
330
137A
100
AcDbEntity
  8
0
100
AcDbLine
 10
525.0129649999999
 20
397.322039
 30
0.0
 11
525.0129649999999
 21
400.8200389999999
 31
0.0
  0
LINE
  5
10DA
330
137A
100
AcDbEntity
  8
4
100
AcDbLine
 10
526.012965
 20
396.746039
 30
0.0
 11
526.012965
 21
401.819039
 31
0.0
  0
LINE
  5
10DB
330
137A
100
AcDbEntity
  8
4
100
AcDbLine
 10
534.011965
 20
397.321039
 30
0.0
 11
534.012965
 21
401.819039
 31
0.0
  0
LINE
  5
10DC
330
137A
100
AcDbEntity
  8
0
100
AcDbLine
 10
535.011965
 20
397.321039
 30
0.0
 11
535.012965
 21
400.819039
 31
0.0
  0
LINE
  5
10DD
330
137A
100
AcDbEntity
  8
0
100
AcDbLine
 10
519.757965
 20
390.092039
 30
0.0
 11
519.757965
 21
398.138039
 31
0.0
  0
LINE
  5
10DE
330
137A
100
AcDbEntity
  8
0
100
AcDbLine
 10
519.757965
 20
398.138039
 30
0.0
 11
524.0369649999999
 21
398.138039
 31
0.0
  0
LINE
  5
10DF
330
137A
100
AcDbEntity
  8
0
100
AcDbLine
 10
524.0369649999999
 20
398.138039
 30
0.0
 11
524.0369649999999
 21
402.4720389999999
 31
0.0
  0
LINE
  5
10E0
330
137A
100
AcDbEntity
  8
0
100
AcDbLine
 10
524.0369649999999
 20
402.4720389999999
 30
0.0
 11
530.012965
 21
402.4720389999999
 31
0.0
  0
LINE
  5
10E1
330
137A
100
AcDbEntity
  8
0
100
AcDbLine
 10
540.267965
 20
390.091039
 30
0.0
 11
540.2689650000001
 21
398.137039
 31
0.0
  0
LINE
  5
10E2
330
137A
100
AcDbEntity
  8
0
100
AcDbLine
 10
540.2689650000001
 20
398.137039
 30
0.0
 11
535.989965
 21
398.137039
 31
0.0
  0
LINE
  5
10E3
330
137A
100
AcDbEntity
  8
0
100
AcDbLine
 10
535.989965
 20
398.137039
 30
0.0
 11
535.989965
 21
402.471039
 31
0.0
  0
LINE
  5
10E4
330
137A
100
AcDbEntity
  8
0
100
AcDbLine
 10
535.989965
 20
402.471039
 30
0.0
 11
530.012965
 21
402.4720389999999
 31
0.0
  0
LINE
  5
10E5
330
137A
100
AcDbEntity
  8
0
100
AcDbLine
 10
279.535965
 20
400.821039
 30
0.0
 11
278.534965
 21
401.822039
 31
0.0
  0
LINE
  5
10E6
330
137A
100
AcDbEntity
  8
0
100
AcDbLine
 10
269.536965
 20
400.821039
 30
0.0
 11
270.536965
 21
401.822039
 31
0.0
  0
LINE
  5
10E7
330
137A
100
AcDbEntity
  8
0
100
AcDbLine
 10
269.536965
 20
400.8200389999999
 30
0.0
 11
279.533965
 21
400.821039
 31
0.0
  0
LINE
  5
10E8
330
137A
100
AcDbEntity
  8
0
100
AcDbLine
 10
270.536965
 20
401.821039
 30
0.0
 11
278.533965
 21
401.822039
 31
0.0
  0
ARC
  5
10E9
330
137A
100
AcDbEntity
  8
0
100
AcDbCircle
 10
274.536965
 20
383.147039
 30
0.0
 40
14.175
100
AcDbArc
 50
70.539
 51
109.467
  0
ARC
  5
10EA
330
137A
100
AcDbEntity
  8
0
100
AcDbCircle
 10
274.535965
 20
403.497039
 30
0.0
 40
14.175
100
AcDbArc
 50
250.54
 51
289.475
  0
LINE
  5
10EB
330
137A
100
AcDbEntity
  8
0
100
AcDbLine
 10
269.811965
 20
390.1340390000001
 30
0.0
 11
269.810965
 21
396.509039
 31
0.0
  0
LINE
  5
10EC
330
137A
100
AcDbEntity
  8
0
100
AcDbLine
 10
279.261965
 20
390.1340390000001
 30
0.0
 11
279.260965
 21
396.510039
 31
0.0
  0
LINE
  5
10ED
330
137A
100
AcDbEntity
  8
0
100
AcDbLine
 10
267.645965
 20
389.321039
 30
0.0
 11
281.426965
 21
389.322039
 31
0.0
  0
LINE
  5
10EE
330
137A
100
AcDbEntity
  8
0
100
AcDbLine
 10
267.448965
 20
397.321039
 30
0.0
 11
281.425965
 21
397.322039
 31
0.0
  0
LINE
  5
10EF
330
137A
100
AcDbEntity
  8
0
100
AcDbLine
 10
265.087965
 20
390.132039
 30
0.0
 11
266.000965
 21
389.605039
 31
0.0
  0
ARC
  5
10F0
330
137A
100
AcDbEntity
  8
0
100
AcDbCircle
 10
267.448965
 20
393.169039
 30
0.0
 40
3.846999999999999
100
AcDbArc
 50
247.89
 51
307.869
  0
LINE
  5
10F1
330
137A
100
AcDbEntity
  8
0
100
AcDbLine
 10
265.086965
 20
390.133039
 30
0.0
 11
265.085965
 21
396.509039
 31
0.0
  0
ARC
  5
10F2
330
137A
100
AcDbEntity
  8
0
100
AcDbCircle
 10
267.448965
 20
393.473039
 30
0.0
 40
3.848
100
AcDbArc
 50
52.14100000000001
 51
120.0
  0
LINE
  5
10F3
330
137A
100
AcDbEntity
  8
0
100
AcDbLine
 10
265.087965
 20
396.511039
 30
0.0
 11
265.998965
 21
397.037039
 31
0.0
  0
ARC
  5
10F4
330
137A
100
AcDbEntity
  8
0
100
AcDbCircle
 10
281.623965
 20
393.1700390000001
 30
0.0
 40
3.848
100
AcDbArc
 50
232.143
 51
292.031
  0
LINE
  5
10F5
330
137A
100
AcDbEntity
  8
0
100
AcDbLine
 10
283.067965
 20
389.603039
 30
0.0
 11
283.985965
 21
390.133039
 31
0.0
  0
LINE
  5
10F6
330
137A
100
AcDbEntity
  8
0
100
AcDbLine
 10
283.986965
 20
390.135039
 30
0.0
 11
283.986965
 21
396.509039
 31
0.0
  0
LINE
  5
10F7
330
137A
100
AcDbEntity
  8
0
100
AcDbLine
 10
283.068965
 20
397.040039
 30
0.0
 11
283.984965
 21
396.511039
 31
0.0
  0
ARC
  5
10F8
330
137A
100
AcDbEntity
  8
0
100
AcDbCircle
 10
281.623965
 20
393.474039
 30
0.0
 40
3.848
100
AcDbArc
 50
67.937
 51
127.862
  0
LINE
  5
10F9
330
137A
100
AcDbEntity
  8
0
100
AcDbLine
 10
279.535965
 20
397.322039
 30
0.0
 11
279.535965
 21
400.8200389999999
 31
0.0
  0
LINE
  5
10FA
330
137A
100
AcDbEntity
  8
4
100
AcDbLine
 10
278.535965
 20
396.746039
 30
0.0
 11
278.535965
 21
401.819039
 31
0.0
  0
LINE
  5
10FB
330
137A
100
AcDbEntity
  8
4
100
AcDbLine
 10
270.536965
 20
397.321039
 30
0.0
 11
270.536965
 21
401.819039
 31
0.0
  0
LINE
  5
10FC
330
137A
100
AcDbEntity
  8
0
100
AcDbLine
 10
269.536965
 20
397.321039
 30
0.0
 11
269.536965
 21
400.819039
 31
0.0
  0
LINE
  5
10FD
330
137A
100
AcDbEntity
  8
0
100
AcDbLine
 10
284.791965
 20
390.092039
 30
0.0
 11
284.791965
 21
398.138039
 31
0.0
  0
LINE
  5
10FE
330
137A
100
AcDbEntity
  8
0
100
AcDbLine
 10
284.791965
 20
398.138039
 30
0.0
 11
280.512965
 21
398.138039
 31
0.0
  0
LINE
  5
10FF
330
137A
100
AcDbEntity
  8
0
100
AcDbLine
 10
280.512965
 20
398.138039
 30
0.0
 11
280.512965
 21
402.4720389999999
 31
0.0
  0
LINE
  5
1100
330
137A
100
AcDbEntity
  8
0
100
AcDbLine
 10
280.512965
 20
402.4720389999999
 30
0.0
 11
274.535965
 21
402.4720389999999
 31
0.0
  0
LINE
  5
1101
330
137A
100
AcDbEntity
  8
0
100
AcDbLine
 10
264.280965
 20
390.091039
 30
0.0
 11
264.279965
 21
398.137039
 31
0.0
  0
LINE
  5
1102
330
137A
100
AcDbEntity
  8
0
100
AcDbLine
 10
264.279965
 20
398.137039
 30
0.0
 11
268.558965
 21
398.137039
 31
0.0
  0
LINE
  5
1103
330
137A
100
AcDbEntity
  8
0
100
AcDbLine
 10
268.558965
 20
398.137039
 30
0.0
 11
268.558965
 21
402.471039
 31
0.0
  0
LINE
  5
1104
330
137A
100
AcDbEntity
  8
0
100
AcDbLine
 10
268.558965
 20
402.471039
 30
0.0
 11
274.535965
 21
402.4720389999999
 31
0.0
  0
LINE
  5
1105
330
137A
100
AcDbEntity
  8
0
100
AcDbLine
 10
428.926965
 20
389.321039
 30
0.0
 11
415.1459649999999
 21
389.322039
 31
0.0
  0
LINE
  5
1106
330
137A
100
AcDbEntity
  8
0
100
AcDbLine
 10
396.035965
 20
389.590039
 30
0.0
 11
396.035965
 21
389.322039
 31
0.0
  0
LINE
  5
1108
330
137A
100
AcDbEntity
  8
0
100
AcDbLine
 10
397.274965
 20
400.8220389999999
 30
0.0
 11
398.274965
 21
401.822039
 31
0.0
  0
LINE
  5
1109
330
137A
100
AcDbEntity
  8
0
100
AcDbLine
 10
407.272965
 20
400.821039
 30
0.0
 11
406.2729649999999
 21
401.822039
 31
0.0
  0
LINE
  5
110A
330
137A
100
AcDbEntity
  8
0
100
AcDbLine
 10
407.2739649999999
 20
400.821039
 30
0.0
 11
397.276965
 21
400.821039
 31
0.0
  0
LINE
  5
110B
330
137A
100
AcDbEntity
  8
0
100
AcDbLine
 10
406.273965
 20
401.821039
 30
0.0
 11
398.276965
 21
401.822039
 31
0.0
  0
ARC
  5
110C
330
137A
100
AcDbEntity
  8
0
100
AcDbCircle
 10
402.272965
 20
383.147039
 30
0.0
 40
14.175
100
AcDbArc
 50
70.533
 51
109.461
  0
ARC
  5
110D
330
137A
100
AcDbEntity
  8
0
100
AcDbCircle
 10
402.2749649999999
 20
403.497039
 30
0.0
 40
14.175
100
AcDbArc
 50
250.525
 51
289.46
  0
LINE
  5
110E
330
137A
100
AcDbEntity
  8
0
100
AcDbLine
 10
406.998965
 20
390.133039
 30
0.0
 11
406.998965
 21
396.509039
 31
0.0
  0
LINE
  5
110F
330
137A
100
AcDbEntity
  8
0
100
AcDbLine
 10
397.548965
 20
390.1340390000001
 30
0.0
 11
397.548965
 21
396.510039
 31
0.0
  0
LINE
  5
1110
330
137A
100
AcDbEntity
  8
0
100
AcDbLine
 10
409.1649649999999
 20
389.321039
 30
0.0
 11
395.383965
 21
389.322039
 31
0.0
  0
LINE
  5
1111
330
137A
100
AcDbEntity
  8
0
100
AcDbLine
 10
409.3619649999999
 20
397.321039
 30
0.0
 11
395.383965
 21
397.322039
 31
0.0
  0
LINE
  5
1112
330
137A
100
AcDbEntity
  8
0
100
AcDbLine
 10
411.721965
 20
390.132039
 30
0.0
 11
410.8099649999999
 21
389.605039
 31
0.0
  0
ARC
  5
1113
330
137A
100
AcDbEntity
  8
0
100
AcDbCircle
 10
409.3609649999999
 20
393.169039
 30
0.0
 40
3.846999999999999
100
AcDbArc
 50
232.13
 51
292.11
  0
LINE
  5
1114
330
137A
100
AcDbEntity
  8
0
100
AcDbLine
 10
411.723965
 20
390.133039
 30
0.0
 11
411.723965
 21
396.509039
 31
0.0
  0
ARC
  5
1115
330
137A
100
AcDbEntity
  8
0
100
AcDbCircle
 10
409.3609649999999
 20
393.473039
 30
0.0
 40
3.848
100
AcDbArc
 50
60.0
 51
127.859
  0
LINE
  5
1116
330
137A
100
AcDbEntity
  8
0
100
AcDbLine
 10
411.7229649999999
 20
396.511039
 30
0.0
 11
410.8119649999999
 21
397.037039
 31
0.0
  0
ARC
  5
1117
330
137A
100
AcDbEntity
  8
0
100
AcDbCircle
 10
395.185965
 20
393.1700390000001
 30
0.0
 40
3.848
100
AcDbArc
 50
247.969
 51
307.857
  0
LINE
  5
1118
330
137A
100
AcDbEntity
  8
0
100
AcDbLine
 10
393.742965
 20
389.603039
 30
0.0
 11
392.824965
 21
390.133039
 31
0.0
  0
LINE
  5
1119
330
137A
100
AcDbEntity
  8
0
100
AcDbLine
 10
392.822965
 20
390.135039
 30
0.0
 11
392.823965
 21
396.509039
 31
0.0
  0
LINE
  5
111A
330
137A
100
AcDbEntity
  8
0
100
AcDbLine
 10
393.740965
 20
397.040039
 30
0.0
 11
392.824965
 21
396.511039
 31
0.0
  0
ARC
  5
111B
330
137A
100
AcDbEntity
  8
0
100
AcDbCircle
 10
395.185965
 20
393.474039
 30
0.0
 40
3.848
100
AcDbArc
 50
52.138
 51
112.063
  0
LINE
  5
111C
330
137A
100
AcDbEntity
  8
0
100
AcDbLine
 10
397.273965
 20
397.322039
 30
0.0
 11
397.273965
 21
400.8200389999999
 31
0.0
  0
LINE
  5
111D
330
137A
100
AcDbEntity
  8
4
100
AcDbLine
 10
398.273965
 20
396.746039
 30
0.0
 11
398.273965
 21
401.819039
 31
0.0
  0
LINE
  5
111E
330
137A
100
AcDbEntity
  8
4
100
AcDbLine
 10
406.273965
 20
397.321039
 30
0.0
 11
406.273965
 21
401.819039
 31
0.0
  0
LINE
  5
111F
330
137A
100
AcDbEntity
  8
0
100
AcDbLine
 10
407.2739649999999
 20
397.321039
 30
0.0
 11
407.2739649999999
 21
400.819039
 31
0.0
  0
LINE
  5
1120
330
137A
100
AcDbEntity
  8
0
100
AcDbLine
 10
392.018965
 20
390.092039
 30
0.0
 11
392.018965
 21
398.138039
 31
0.0
  0
LINE
  5
1121
330
137A
100
AcDbEntity
  8
0
100
AcDbLine
 10
392.018965
 20
398.138039
 30
0.0
 11
396.297965
 21
398.138039
 31
0.0
  0
LINE
  5
1122
330
137A
100
AcDbEntity
  8
0
100
AcDbLine
 10
396.297965
 20
398.138039
 30
0.0
 11
396.297965
 21
402.4720389999999
 31
0.0
  0
LINE
  5
1123
330
137A
100
AcDbEntity
  8
0
100
AcDbLine
 10
396.297965
 20
402.4720389999999
 30
0.0
 11
402.2749649999999
 21
402.4720389999999
 31
0.0
  0
LINE
  5
1124
330
137A
100
AcDbEntity
  8
0
100
AcDbLine
 10
412.528965
 20
390.091039
 30
0.0
 11
412.529965
 21
398.137039
 31
0.0
  0
LINE
  5
1125
330
137A
100
AcDbEntity
  8
0
100
AcDbLine
 10
412.529965
 20
398.137039
 30
0.0
 11
408.250965
 21
398.137039
 31
0.0
  0
LINE
  5
1126
330
137A
100
AcDbEntity
  8
0
100
AcDbLine
 10
408.250965
 20
398.137039
 30
0.0
 11
408.250965
 21
402.471039
 31
0.0
  0
LINE
  5
1127
330
137A
100
AcDbEntity
  8
0
100
AcDbLine
 10
408.250965
 20
402.471039
 30
0.0
 11
402.2749649999999
 21
402.4720389999999
 31
0.0
  0
ARC
  5
1128
330
137A
100
AcDbEntity
  8
0
100
AcDbCircle
 10
457.855965
 20
389.322039
 30
0.0
 40
4.0
100
AcDbArc
 50
270.0
 51
343.398
  0
ARC
  5
1129
330
137A
100
AcDbEntity
  8
0
100
AcDbCircle
 10
463.222965
 20
387.722039
 30
0.0
 40
1.6
100
AcDbArc
 50
90.00100000000001
 51
163.398
  0
ARC
  5
112A
330
137A
100
AcDbEntity
  8
0
100
AcDbCircle
 10
453.855965
 20
389.322039
 30
0.0
 40
4.0
100
AcDbArc
 50
196.602
 51
270.0
  0
ARC
  5
112B
330
137A
100
AcDbEntity
  8
0
100
AcDbCircle
 10
448.489965
 20
387.722039
 30
0.0
 40
1.6
100
AcDbArc
 50
16.602
 51
89.999
  0
POLYLINE
  5
1139
330
137A
100
AcDbEntity
  8
SCHRAFFUR_RAND
100
AcDb2dPolyline
 66
     1
 10
0.0
 20
0.0
 30
0.0
 70
     1
  0
VERTEX
  5
113A
330
1139
100
AcDbEntity
  8
SCHRAFFUR_RAND
100
AcDbVertex
100
AcDb2dVertex
 10
515.256965
 20
248.232039
 30
0.0
  0
VERTEX
  5
113B
330
1139
100
AcDbEntity
  8
SCHRAFFUR_RAND
100
AcDbVertex
100
AcDb2dVertex
 10
515.3309649999999
 20
248.072039
 30
0.0
  0
VERTEX
  5
113C
330
1139
100
AcDbEntity
  8
SCHRAFFUR_RAND
100
AcDbVertex
100
AcDb2dVertex
 10
515.670965
 20
246.056039
 30
0.0
  0
VERTEX
  5
113D
330
1139
100
AcDbEntity
  8
SCHRAFFUR_RAND
100
AcDbVertex
100
AcDb2dVertex
 10
517.023965
 20
244.322039
 30
0.0
  0
VERTEX
  5
113E
330
1139
100
AcDbEntity
  8
SCHRAFFUR_RAND
100
AcDbVertex
100
AcDb2dVertex
 10
523.6379649999999
 20
244.322039
 30
0.0
  0
VERTEX
  5
113F
330
1139
100
AcDbEntity
  8
SCHRAFFUR_RAND
100
AcDbVertex
100
AcDb2dVertex
 10
524.9909650000001
 20
246.056039
 30
0.0
  0
VERTEX
  5
1140
330
1139
100
AcDbEntity
  8
SCHRAFFUR_RAND
100
AcDbVertex
100
AcDb2dVertex
 10
525.405965
 20
248.232039
 30
0.0
  0
VERTEX
  5
1141
330
1139
100
AcDbEntity
  8
SCHRAFFUR_RAND
100
AcDbVertex
100
AcDb2dVertex
 10
525.2749650000001
 20
248.822039
 30
0.0
  0
VERTEX
  5
1142
330
1139
100
AcDbEntity
  8
SCHRAFFUR_RAND
100
AcDbVertex
100
AcDb2dVertex
 10
524.854965
 20
250.377039
 30
0.0
  0
VERTEX
  5
1143
330
1139
100
AcDbEntity
  8
SCHRAFFUR_RAND
100
AcDbVertex
100
AcDb2dVertex
 10
523.442965
 20
252.084039
 30
0.0
  0
VERTEX
  5
1144
330
1139
100
AcDbEntity
  8
SCHRAFFUR_RAND
100
AcDbVertex
100
AcDb2dVertex
 10
521.438965
 20
253.027039
 30
0.0
  0
VERTEX
  5
1145
330
1139
100
AcDbEntity
  8
SCHRAFFUR_RAND
100
AcDbVertex
100
AcDb2dVertex
 10
519.223965
 20
253.027039
 30
0.0
  0
VERTEX
  5
1146
330
1139
100
AcDbEntity
  8
SCHRAFFUR_RAND
100
AcDbVertex
100
AcDb2dVertex
 10
517.219965
 20
252.084039
 30
0.0
  0
VERTEX
  5
1147
330
1139
100
AcDbEntity
  8
SCHRAFFUR_RAND
100
AcDbVertex
100
AcDb2dVertex
 10
515.8079650000001
 20
250.377039
 30
0.0
  0
VERTEX
  5
1148
330
1139
100
AcDbEntity
  8
SCHRAFFUR_RAND
100
AcDbVertex
100
AcDb2dVertex
 10
515.256965
 20
248.232039
 30
0.0
  0
SEQEND
  5
1149
330
1139
100
AcDbEntity
  8
SCHRAFFUR_RAND
  0
INSERT
  5
1151
330
137A
100
AcDbEntity
  8
8
100
AcDbBlockReference
  2
*X0
 10
-31.485035
 20
-682.342961
 30
0.0
1001
ACAD
1000
HATCH
1002
{
1070
    19
1000
ANSI37,_I
1040
3.174999999999999
1040
3.926999999999999
1002
}
  0
POLYLINE
  5
1152
330
137A
100
AcDbEntity
  8
SCHRAFFUR_RAND
100
AcDb2dPolyline
 66
     1
 10
0.0
 20
0.0
 30
0.0
 70
     1
  0
VERTEX
  5
1153
330
1152
100
AcDbEntity
  8
SCHRAFFUR_RAND
100
AcDbVertex
100
AcDb2dVertex
 10
523.6389649999999
 20
336.322039
 30
0.0
  0
VERTEX
  5
1154
330
1152
100
AcDbEntity
  8
SCHRAFFUR_RAND
100
AcDbVertex
100
AcDb2dVertex
 10
517.023965
 20
336.322039
 30
0.0
  0
VERTEX
  5
1155
330
1152
100
AcDbEntity
  8
SCHRAFFUR_RAND
100
AcDbVertex
100
AcDb2dVertex
 10
515.670965
 20
334.587039
 30
0.0
  0
VERTEX
  5
1156
330
1152
100
AcDbEntity
  8
SCHRAFFUR_RAND
100
AcDbVertex
100
AcDb2dVertex
 10
515.3309649999999
 20
332.572039
 30
0.0
  0
VERTEX
  5
1157
330
1152
100
AcDbEntity
  8
SCHRAFFUR_RAND
100
AcDbVertex
100
AcDb2dVertex
 10
515.256965
 20
332.412039
 30
0.0
  0
VERTEX
  5
1158
330
1152
100
AcDbEntity
  8
SCHRAFFUR_RAND
100
AcDbVertex
100
AcDb2dVertex
 10
515.8079650000001
 20
330.266039
 30
0.0
  0
VERTEX
  5
1159
330
1152
100
AcDbEntity
  8
SCHRAFFUR_RAND
100
AcDbVertex
100
AcDb2dVertex
 10
517.219965
 20
328.560039
 30
0.0
  0
VERTEX
  5
115A
330
1152
100
AcDbEntity
  8
SCHRAFFUR_RAND
100
AcDbVertex
100
AcDb2dVertex
 10
519.223965
 20
327.617039
 30
0.0
  0
VERTEX
  5
115B
330
1152
100
AcDbEntity
  8
SCHRAFFUR_RAND
100
AcDbVertex
100
AcDb2dVertex
 10
521.438965
 20
327.617039
 30
0.0
  0
VERTEX
  5
115C
330
1152
100
AcDbEntity
  8
SCHRAFFUR_RAND
100
AcDbVertex
100
AcDb2dVertex
 10
523.442965
 20
328.560039
 30
0.0
  0
VERTEX
  5
115D
330
1152
100
AcDbEntity
  8
SCHRAFFUR_RAND
100
AcDbVertex
100
AcDb2dVertex
 10
524.854965
 20
330.266039
 30
0.0
  0
VERTEX
  5
115E
330
1152
100
AcDbEntity
  8
SCHRAFFUR_RAND
100
AcDbVertex
100
AcDb2dVertex
 10
525.2749650000001
 20
331.822039
 30
0.0
  0
VERTEX
  5
115F
330
1152
100
AcDbEntity
  8
SCHRAFFUR_RAND
100
AcDbVertex
100
AcDb2dVertex
 10
525.405965
 20
332.412039
 30
0.0
  0
VERTEX
  5
1160
330
1152
100
AcDbEntity
  8
SCHRAFFUR_RAND
100
AcDbVertex
100
AcDb2dVertex
 10
524.9909650000001
 20
334.587039
 30
0.0
  0
VERTEX
  5
1161
330
1152
100
AcDbEntity
  8
SCHRAFFUR_RAND
100
AcDbVertex
100
AcDb2dVertex
 10
523.6389649999999
 20
336.322039
 30
0.0
  0
SEQEND
  5
1162
330
1152
100
AcDbEntity
  8
SCHRAFFUR_RAND
  0
INSERT
  5
116A
330
137A
100
AcDbEntity
  8
8
100
AcDbBlockReference
  2
*X1
 10
-31.485035
 20
-682.342961
 30
0.0
1001
ACAD
1000
HATCH
1002
{
1070
    19
1000
ANSI37,_I
1040
3.174999999999999
1040
3.926999999999999
1002
}
  0
DIMENSION
  5
1175
330
137A
100
AcDbEntity
  8
5
100
AcDbDimension
  2
*D6
 10
665.4519650000001
 20
259.322039
 30
0.0
 11
665.4519650000001
 21
275.711039
 31
0.0
 70
   160
  1
60
 71
     5
 42
-1.0
  3
GEN-ISO
100
AcDbAlignedDimension
 13
590.675965
 23
319.322039
 33
0.0
 14
486.274965
 24
259.322039
 34
0.0
 50
270.0
100
AcDbRotatedDimension
  0
DIMENSION
  5
1180
330
137A
100
AcDbEntity
  8
5
100
AcDbDimension
  2
*D9
 10
617.274965
 20
524.2200389999999
 30
0.0
 11
396.105965
 21
524.2200389999999
 31
0.0
 70
   160
  1
%%c 430
 71
     5
 42
-1.0
  3
GEN-ISO
100
AcDbAlignedDimension
 13
187.274965
 23
364.322039
 33
0.0
 14
617.274965
 24
364.322039
 34
0.0
100
AcDbRotatedDimension
  0
DIMENSION
  5
118A
330
137A
100
AcDbEntity
  8
5
100
AcDbDimension
  2
*D11
 10
141.962965
 20
372.322039
 30
0.0
 11
141.962965
 21
302.953039
 31
0.0
 70
   160
  1
135
 71
     5
 42
-1.0
  3
GEN-ISO
100
AcDbAlignedDimension
 13
402.2749649999999
 23
237.322039
 33
0.0
 14
192.041965
 24
372.322039
 34
0.0
 50
90.0
100
AcDbRotatedDimension
  0
DIMENSION
  5
1194
330
137A
100
AcDbEntity
  8
5
100
AcDbDimension
  2
*D13
 10
815.2859649999999
 20
372.322039
 30
0.0
 11
815.2859649999999
 21
340.102039
 31
0.0
 70
   160
  1
80
 71
     5
 42
-1.0
  3
GEN-ISO
100
AcDbAlignedDimension
 13
712.2749650000001
 23
292.322039
 33
0.0
 14
615.863965
 24
372.322039
 34
0.0
 50
90.0
100
AcDbRotatedDimension
  0
DIMENSION
  5
119F
330
137A
100
AcDbEntity
  8
5
100
AcDbDimension
  2
*D14
 10
712.241965
 20
292.322039
 30
0.0
 11
760.850422
 21
251.029228
 31
0.0
 70
   162
  1
1.5%%d
 71
     5
 42
-1.0
 53
74.59999999999999
  3
GEN-ISO
100
AcDb2LineAngularDimension
 13
762.257965
 23
291.012039
 33
0.0
 14
712.241965
 24
292.322039
 34
0.0
 15
722.866965
 25
292.322039
 35
0.0
 16
776.019456
 26
291.76534
 36
0.0
  0
DIMENSION
  5
11A9
330
137A
100
AcDbEntity
  8
5
100
AcDbDimension
  2
*D12
 10
712.2749650000001
 20
143.406039
 30
0.0
 11
564.971965
 21
143.406039
 31
0.0
 70
   160
  1
310
 71
     5
 42
-1.0
  3
GEN-ISO
100
AcDbAlignedDimension
 13
402.2749649999999
 23
190.322039
 33
0.0
 14
712.2749650000001
 24
292.322039
 34
0.0
100
AcDbRotatedDimension
  0
POLYLINE
  5
11AA
330
137A
100
AcDbEntity
  8
SCHRAFFUR_RAND
100
AcDb2dPolyline
 66
     1
 10
0.0
 20
0.0
 30
0.0
 70
     1
  0
VERTEX
  5
11AB
330
11AA
100
AcDbEntity
  8
SCHRAFFUR_RAND
100
AcDbVertex
100
AcDb2dVertex
 10
379.412965
 20
244.322039
 30
0.0
  0
VERTEX
  5
11AC
330
11AA
100
AcDbEntity
  8
SCHRAFFUR_RAND
100
AcDbVertex
100
AcDb2dVertex
 10
316.749965
 20
244.322039
 30
0.0
  0
VERTEX
  5
11AD
330
11AA
100
AcDbEntity
  8
SCHRAFFUR_RAND
100
AcDbVertex
100
AcDb2dVertex
 10
311.596965
 20
244.862039
 30
0.0
  0
VERTEX
  5
11AE
330
11AA
100
AcDbEntity
  8
SCHRAFFUR_RAND
100
AcDbVertex
100
AcDb2dVertex
 10
306.785965
 20
246.830039
 30
0.0
  0
VERTEX
  5
11AF
330
11AA
100
AcDbEntity
  8
SCHRAFFUR_RAND
100
AcDbVertex
100
AcDb2dVertex
 10
302.639965
 20
249.964039
 30
0.0
  0
VERTEX
  5
11B0
330
11AA
100
AcDbEntity
  8
SCHRAFFUR_RAND
100
AcDbVertex
100
AcDb2dVertex
 10
299.434965
 20
254.054039
 30
0.0
  0
VERTEX
  5
11B1
330
11AA
100
AcDbEntity
  8
SCHRAFFUR_RAND
100
AcDbVertex
100
AcDb2dVertex
 10
297.382965
 20
258.829039
 30
0.0
  0
VERTEX
  5
11B2
330
11AA
100
AcDbEntity
  8
SCHRAFFUR_RAND
100
AcDbVertex
100
AcDb2dVertex
 10
296.752965
 20
263.973039
 30
0.0
  0
VERTEX
  5
11B3
330
11AA
100
AcDbEntity
  8
SCHRAFFUR_RAND
100
AcDbVertex
100
AcDb2dVertex
 10
294.861965
 20
372.322039
 30
0.0
  0
VERTEX
  5
11B4
330
11AA
100
AcDbEntity
  8
SCHRAFFUR_RAND
100
AcDbVertex
100
AcDb2dVertex
 10
286.475965
 20
372.471039
 30
0.0
  0
VERTEX
  5
11B5
330
11AA
100
AcDbEntity
  8
SCHRAFFUR_RAND
100
AcDbVertex
100
AcDb2dVertex
 10
285.294965
 20
372.322039
 30
0.0
  0
VERTEX
  5
11B6
330
11AA
100
AcDbEntity
  8
SCHRAFFUR_RAND
100
AcDbVertex
100
AcDb2dVertex
 10
192.041965
 20
372.322039
 30
0.0
  0
VERTEX
  5
11B7
330
11AA
100
AcDbEntity
  8
SCHRAFFUR_RAND
100
AcDbVertex
100
AcDb2dVertex
 10
190.187965
 20
372.013039
 30
0.0
  0
VERTEX
  5
11B8
330
11AA
100
AcDbEntity
  8
SCHRAFFUR_RAND
100
AcDbVertex
100
AcDb2dVertex
 10
188.727965
 20
370.788039
 30
0.0
  0
VERTEX
  5
11B9
330
11AA
100
AcDbEntity
  8
SCHRAFFUR_RAND
100
AcDbVertex
100
AcDb2dVertex
 10
188.1019649999999
 20
369.016039
 30
0.0
  0
VERTEX
  5
11BA
330
11AA
100
AcDbEntity
  8
SCHRAFFUR_RAND
100
AcDbVertex
100
AcDb2dVertex
 10
187.273965
 20
364.322039
 30
0.0
  0
VERTEX
  5
11BB
330
11AA
100
AcDbEntity
  8
SCHRAFFUR_RAND
100
AcDbVertex
100
AcDb2dVertex
 10
223.274965
 20
364.322039
 30
0.0
  0
VERTEX
  5
11BC
330
11AA
100
AcDbEntity
  8
SCHRAFFUR_RAND
100
AcDbVertex
100
AcDb2dVertex
 10
224.109965
 20
365.616039
 30
0.0
  0
VERTEX
  5
11BD
330
11AA
100
AcDbEntity
  8
SCHRAFFUR_RAND
100
AcDbVertex
100
AcDb2dVertex
 10
225.451965
 20
366.412039
 30
0.0
  0
VERTEX
  5
11BE
330
11AA
100
AcDbEntity
  8
SCHRAFFUR_RAND
100
AcDbVertex
100
AcDb2dVertex
 10
226.987965
 20
366.522039
 30
0.0
  0
VERTEX
  5
11BF
330
11AA
100
AcDbEntity
  8
SCHRAFFUR_RAND
100
AcDbVertex
100
AcDb2dVertex
 10
259.210965
 20
365.397039
 30
0.0
  0
VERTEX
  5
11C0
330
11AA
100
AcDbEntity
  8
SCHRAFFUR_RAND
100
AcDbVertex
100
AcDb2dVertex
 10
284.309965
 20
364.520039
 30
0.0
  0
VERTEX
  5
11C1
330
11AA
100
AcDbEntity
  8
SCHRAFFUR_RAND
100
AcDbVertex
100
AcDb2dVertex
 10
286.374965
 20
363.875039
 30
0.0
  0
VERTEX
  5
11C2
330
11AA
100
AcDbEntity
  8
SCHRAFFUR_RAND
100
AcDbVertex
100
AcDb2dVertex
 10
288.473965
 20
362.821039
 30
0.0
  0
VERTEX
  5
11C3
330
11AA
100
AcDbEntity
  8
SCHRAFFUR_RAND
100
AcDbVertex
100
AcDb2dVertex
 10
289.754965
 20
360.895039
 30
0.0
  0
VERTEX
  5
11C4
330
11AA
100
AcDbEntity
  8
SCHRAFFUR_RAND
100
AcDbVertex
100
AcDb2dVertex
 10
290.099965
 20
358.629039
 30
0.0
  0
VERTEX
  5
11C5
330
11AA
100
AcDbEntity
  8
SCHRAFFUR_RAND
100
AcDbVertex
100
AcDb2dVertex
 10
291.748965
 20
264.137039
 30
0.0
  0
VERTEX
  5
11C6
330
11AA
100
AcDbEntity
  8
SCHRAFFUR_RAND
100
AcDbVertex
100
AcDb2dVertex
 10
292.568965
 20
257.717039
 30
0.0
  0
VERTEX
  5
11C7
330
11AA
100
AcDbEntity
  8
SCHRAFFUR_RAND
100
AcDbVertex
100
AcDb2dVertex
 10
295.129965
 20
251.756039
 30
0.0
  0
VERTEX
  5
11C8
330
11AA
100
AcDbEntity
  8
SCHRAFFUR_RAND
100
AcDbVertex
100
AcDb2dVertex
 10
299.130965
 20
246.649039
 30
0.0
  0
VERTEX
  5
11C9
330
11AA
100
AcDbEntity
  8
SCHRAFFUR_RAND
100
AcDbVertex
100
AcDb2dVertex
 10
304.306965
 20
242.737039
 30
0.0
  0
VERTEX
  5
11CA
330
11AA
100
AcDbEntity
  8
SCHRAFFUR_RAND
100
AcDbVertex
100
AcDb2dVertex
 10
310.311965
 20
240.280039
 30
0.0
  0
VERTEX
  5
11CB
330
11AA
100
AcDbEntity
  8
SCHRAFFUR_RAND
100
AcDbVertex
100
AcDb2dVertex
 10
316.745965
 20
239.573039
 30
0.0
  0
VERTEX
  5
11CC
330
11AA
100
AcDbEntity
  8
SCHRAFFUR_RAND
100
AcDbVertex
100
AcDb2dVertex
 10
376.537965
 20
239.573039
 30
0.0
  0
VERTEX
  5
11CD
330
11AA
100
AcDbEntity
  8
SCHRAFFUR_RAND
100
AcDbVertex
100
AcDb2dVertex
 10
402.2749649999999
 20
237.322039
 30
0.0
  0
VERTEX
  5
11CE
330
11AA
100
AcDbEntity
  8
SCHRAFFUR_RAND
100
AcDbVertex
100
AcDb2dVertex
 10
490.274965
 20
237.322039
 30
0.0
  0
VERTEX
  5
11CF
330
11AA
100
AcDbEntity
  8
SCHRAFFUR_RAND
100
AcDbVertex
100
AcDb2dVertex
 10
494.173965
 20
239.573039
 30
0.0
  0
VERTEX
  5
11D0
330
11AA
100
AcDbEntity
  8
SCHRAFFUR_RAND
100
AcDbVertex
100
AcDb2dVertex
 10
635.115965
 20
239.573039
 30
0.0
  0
VERTEX
  5
11D1
330
11AA
100
AcDbEntity
  8
SCHRAFFUR_RAND
100
AcDbVertex
100
AcDb2dVertex
 10
704.843965
 20
237.747039
 30
0.0
  0
VERTEX
  5
11D2
330
11AA
100
AcDbEntity
  8
SCHRAFFUR_RAND
100
AcDbVertex
100
AcDb2dVertex
 10
710.887965
 20
239.367039
 30
0.0
  0
VERTEX
  5
11D3
330
11AA
100
AcDbEntity
  8
SCHRAFFUR_RAND
100
AcDbVertex
100
AcDb2dVertex
 10
710.9919650000001
 20
243.338039
 30
0.0
  0
VERTEX
  5
11D4
330
11AA
100
AcDbEntity
  8
SCHRAFFUR_RAND
100
AcDbVertex
100
AcDb2dVertex
 10
690.9989649999999
 20
243.862039
 30
0.0
  0
VERTEX
  5
11D5
330
11AA
100
AcDbEntity
  8
SCHRAFFUR_RAND
100
AcDbVertex
100
AcDb2dVertex
 10
685.973965
 20
242.993039
 30
0.0
  0
VERTEX
  5
11D6
330
11AA
100
AcDbEntity
  8
SCHRAFFUR_RAND
100
AcDbVertex
100
AcDb2dVertex
 10
635.2399649999999
 20
244.322039
 30
0.0
  0
VERTEX
  5
11D7
330
11AA
100
AcDbEntity
  8
SCHRAFFUR_RAND
100
AcDbVertex
100
AcDb2dVertex
 10
523.6379649999999
 20
244.322039
 30
0.0
  0
VERTEX
  5
11D8
330
11AA
100
AcDbEntity
  8
SCHRAFFUR_RAND
100
AcDbVertex
100
AcDb2dVertex
 10
517.023965
 20
244.322039
 30
0.0
  0
VERTEX
  5
11D9
330
11AA
100
AcDbEntity
  8
SCHRAFFUR_RAND
100
AcDbVertex
100
AcDb2dVertex
 10
490.274965
 20
244.322039
 30
0.0
  0
VERTEX
  5
11DA
330
11AA
100
AcDbEntity
  8
SCHRAFFUR_RAND
100
AcDbVertex
100
AcDb2dVertex
 10
490.274965
 20
242.322039
 30
0.0
  0
VERTEX
  5
11DB
330
11AA
100
AcDbEntity
  8
SCHRAFFUR_RAND
100
AcDbVertex
100
AcDb2dVertex
 10
402.2749649999999
 20
242.322039
 30
0.0
  0
VERTEX
  5
11DC
330
11AA
100
AcDbEntity
  8
SCHRAFFUR_RAND
100
AcDbVertex
100
AcDb2dVertex
 10
379.412965
 20
244.322039
 30
0.0
  0
SEQEND
  5
11DD
330
11AA
100
AcDbEntity
  8
SCHRAFFUR_RAND
  0
INSERT
  5
1219
330
137A
100
AcDbEntity
  8
8
100
AcDbBlockReference
  2
*X2
 10
-31.485035
 20
-682.342961
 30
0.0
1001
ACAD
1000
HATCH
1002
{
1070
    19
1000
ANSI31,_I
1040
7.937
1040
0.7850000000000001
1002
}
  0
DIMENSION
  5
1224
330
137A
100
AcDbEntity
  8
5
100
AcDbDimension
  2
*D10
 10
516.2749650000001
 20
457.5240389999999
 30
0.0
 11
398.118965
 21
457.5240389999999
 31
0.0
 70
   160
  1
%%c 228
 71
     5
 42
-1.0
  3
GEN-ISO
100
AcDbAlignedDimension
 13
288.273965
 23
377.322039
 33
0.0
 14
516.2749650000001
 24
377.322039
 34
0.0
100
AcDbRotatedDimension
  0
POLYLINE
  5
1225
330
137A
100
AcDbEntity
  8
SCHRAFFUR_RAND
100
AcDb2dPolyline
 66
     1
 10
0.0
 20
0.0
 30
0.0
 70
     1
  0
VERTEX
  5
1226
330
1225
100
AcDbEntity
  8
SCHRAFFUR_RAND
100
AcDbVertex
100
AcDb2dVertex
 10
509.686965
 20
372.322039
 30
0.0
  0
VERTEX
  5
1227
330
1225
100
AcDbEntity
  8
SCHRAFFUR_RAND
100
AcDbVertex
100
AcDb2dVertex
 10
509.277965
 20
348.867039
 30
0.0
  0
VERTEX
  5
1228
330
1225
100
AcDbEntity
  8
SCHRAFFUR_RAND
100
AcDbVertex
100
AcDb2dVertex
 10
509.127965
 20
348.046039
 30
0.0
  0
VERTEX
  5
1229
330
1225
100
AcDbEntity
  8
SCHRAFFUR_RAND
100
AcDbVertex
100
AcDb2dVertex
 10
508.525965
 20
347.445039
 30
0.0
  0
VERTEX
  5
122A
330
1225
100
AcDbEntity
  8
SCHRAFFUR_RAND
100
AcDbVertex
100
AcDb2dVertex
 10
507.705965
 20
347.295039
 30
0.0
  0
VERTEX
  5
122B
330
1225
100
AcDbEntity
  8
SCHRAFFUR_RAND
100
AcDbVertex
100
AcDb2dVertex
 10
490.274965
 20
346.990039
 30
0.0
  0
VERTEX
  5
122C
330
1225
100
AcDbEntity
  8
SCHRAFFUR_RAND
100
AcDbVertex
100
AcDb2dVertex
 10
490.274965
 20
343.322039
 30
0.0
  0
VERTEX
  5
122D
330
1225
100
AcDbEntity
  8
SCHRAFFUR_RAND
100
AcDbVertex
100
AcDb2dVertex
 10
490.274965
 20
336.322039
 30
0.0
  0
VERTEX
  5
122E
330
1225
100
AcDbEntity
  8
SCHRAFFUR_RAND
100
AcDbVertex
100
AcDb2dVertex
 10
517.023965
 20
336.322039
 30
0.0
  0
VERTEX
  5
122F
330
1225
100
AcDbEntity
  8
SCHRAFFUR_RAND
100
AcDbVertex
100
AcDb2dVertex
 10
523.6389649999999
 20
336.322039
 30
0.0
  0
VERTEX
  5
1230
330
1225
100
AcDbEntity
  8
SCHRAFFUR_RAND
100
AcDbVertex
100
AcDb2dVertex
 10
528.274965
 20
336.322039
 30
0.0
  0
VERTEX
  5
1231
330
1225
100
AcDbEntity
  8
SCHRAFFUR_RAND
100
AcDbVertex
100
AcDb2dVertex
 10
528.274965
 20
341.322039
 30
0.0
  0
VERTEX
  5
1232
330
1225
100
AcDbEntity
  8
SCHRAFFUR_RAND
100
AcDbVertex
100
AcDb2dVertex
 10
518.216965
 20
341.322039
 30
0.0
  0
VERTEX
  5
1233
330
1225
100
AcDbEntity
  8
SCHRAFFUR_RAND
100
AcDbVertex
100
AcDb2dVertex
 10
516.639965
 20
341.560039
 30
0.0
  0
VERTEX
  5
1234
330
1225
100
AcDbEntity
  8
SCHRAFFUR_RAND
100
AcDbVertex
100
AcDb2dVertex
 10
515.3079650000001
 20
342.463039
 30
0.0
  0
VERTEX
  5
1235
330
1225
100
AcDbEntity
  8
SCHRAFFUR_RAND
100
AcDbVertex
100
AcDb2dVertex
 10
514.427965
 20
343.810039
 30
0.0
  0
VERTEX
  5
1236
330
1225
100
AcDbEntity
  8
SCHRAFFUR_RAND
100
AcDbVertex
100
AcDb2dVertex
 10
514.217965
 20
345.392039
 30
0.0
  0
VERTEX
  5
1237
330
1225
100
AcDbEntity
  8
SCHRAFFUR_RAND
100
AcDbVertex
100
AcDb2dVertex
 10
514.497965
 20
361.426039
 30
0.0
  0
VERTEX
  5
1238
330
1225
100
AcDbEntity
  8
SCHRAFFUR_RAND
100
AcDbVertex
100
AcDb2dVertex
 10
514.910965
 20
363.722039
 30
0.0
  0
VERTEX
  5
1239
330
1225
100
AcDbEntity
  8
SCHRAFFUR_RAND
100
AcDbVertex
100
AcDb2dVertex
 10
516.235965
 20
365.658039
 30
0.0
  0
VERTEX
  5
123A
330
1225
100
AcDbEntity
  8
SCHRAFFUR_RAND
100
AcDbVertex
100
AcDb2dVertex
 10
516.9949650000001
 20
366.193039
 30
0.0
  0
VERTEX
  5
123B
330
1225
100
AcDbEntity
  8
SCHRAFFUR_RAND
100
AcDbVertex
100
AcDb2dVertex
 10
518.1949649999999
 20
366.948039
 30
0.0
  0
VERTEX
  5
123C
330
1225
100
AcDbEntity
  8
SCHRAFFUR_RAND
100
AcDbVertex
100
AcDb2dVertex
 10
520.496965
 20
367.322039
 30
0.0
  0
VERTEX
  5
123D
330
1225
100
AcDbEntity
  8
SCHRAFFUR_RAND
100
AcDbVertex
100
AcDb2dVertex
 10
545.8159649999999
 20
367.322039
 30
0.0
  0
VERTEX
  5
123E
330
1225
100
AcDbEntity
  8
SCHRAFFUR_RAND
100
AcDbVertex
100
AcDb2dVertex
 10
608.311965
 20
367.322039
 30
0.0
  0
VERTEX
  5
123F
330
1225
100
AcDbEntity
  8
SCHRAFFUR_RAND
100
AcDbVertex
100
AcDb2dVertex
 10
610.142965
 20
366.967039
 30
0.0
  0
VERTEX
  5
1240
330
1225
100
AcDbEntity
  8
SCHRAFFUR_RAND
100
AcDbVertex
100
AcDb2dVertex
 10
611.583965
 20
365.758039
 30
0.0
  0
VERTEX
  5
1241
330
1225
100
AcDbEntity
  8
SCHRAFFUR_RAND
100
AcDbVertex
100
AcDb2dVertex
 10
612.250965
 20
364.0160390000001
 30
0.0
  0
VERTEX
  5
1242
330
1225
100
AcDbEntity
  8
SCHRAFFUR_RAND
100
AcDbVertex
100
AcDb2dVertex
 10
614.0669649999999
 20
353.720039
 30
0.0
  0
VERTEX
  5
1243
330
1225
100
AcDbEntity
  8
SCHRAFFUR_RAND
100
AcDbVertex
100
AcDb2dVertex
 10
614.915965
 20
350.826039
 30
0.0
  0
VERTEX
  5
1244
330
1225
100
AcDbEntity
  8
SCHRAFFUR_RAND
100
AcDbVertex
100
AcDb2dVertex
 10
616.588965
 20
348.304039
 30
0.0
  0
VERTEX
  5
1245
330
1225
100
AcDbEntity
  8
SCHRAFFUR_RAND
100
AcDbVertex
100
AcDb2dVertex
 10
618.881965
 20
346.328039
 30
0.0
  0
VERTEX
  5
1246
330
1225
100
AcDbEntity
  8
SCHRAFFUR_RAND
100
AcDbVertex
100
AcDb2dVertex
 10
621.622965
 20
345.047039
 30
0.0
  0
VERTEX
  5
1247
330
1225
100
AcDbEntity
  8
SCHRAFFUR_RAND
100
AcDbVertex
100
AcDb2dVertex
 10
624.611965
 20
344.634039
 30
0.0
  0
VERTEX
  5
1248
330
1225
100
AcDbEntity
  8
SCHRAFFUR_RAND
100
AcDbVertex
100
AcDb2dVertex
 10
688.591965
 20
342.959039
 30
0.0
  0
VERTEX
  5
1249
330
1225
100
AcDbEntity
  8
SCHRAFFUR_RAND
100
AcDbVertex
100
AcDb2dVertex
 10
693.563965
 20
341.828039
 30
0.0
  0
VERTEX
  5
124A
330
1225
100
AcDbEntity
  8
SCHRAFFUR_RAND
100
AcDbVertex
100
AcDb2dVertex
 10
713.5569649999999
 20
341.305039
 30
0.0
  0
VERTEX
  5
124B
330
1225
100
AcDbEntity
  8
SCHRAFFUR_RAND
100
AcDbVertex
100
AcDb2dVertex
 10
713.669965
 20
345.613039
 30
0.0
  0
VERTEX
  5
124C
330
1225
100
AcDbEntity
  8
SCHRAFFUR_RAND
100
AcDbVertex
100
AcDb2dVertex
 10
707.709965
 20
347.210039
 30
0.0
  0
VERTEX
  5
124D
330
1225
100
AcDbEntity
  8
SCHRAFFUR_RAND
100
AcDbVertex
100
AcDb2dVertex
 10
624.786965
 20
349.381039
 30
0.0
  0
VERTEX
  5
124E
330
1225
100
AcDbEntity
  8
SCHRAFFUR_RAND
100
AcDbVertex
100
AcDb2dVertex
 10
622.752965
 20
349.708039
 30
0.0
  0
VERTEX
  5
124F
330
1225
100
AcDbEntity
  8
SCHRAFFUR_RAND
100
AcDbVertex
100
AcDb2dVertex
 10
620.974965
 20
350.774039
 30
0.0
  0
VERTEX
  5
1250
330
1225
100
AcDbEntity
  8
SCHRAFFUR_RAND
100
AcDbVertex
100
AcDb2dVertex
 10
619.658965
 20
352.374039
 30
0.0
  0
VERTEX
  5
1251
330
1225
100
AcDbEntity
  8
SCHRAFFUR_RAND
100
AcDbVertex
100
AcDb2dVertex
 10
619.034965
 20
354.337039
 30
0.0
  0
VERTEX
  5
1252
330
1225
100
AcDbEntity
  8
SCHRAFFUR_RAND
100
AcDbVertex
100
AcDb2dVertex
 10
616.446965
 20
369.016039
 30
0.0
  0
VERTEX
  5
1253
330
1225
100
AcDbEntity
  8
SCHRAFFUR_RAND
100
AcDbVertex
100
AcDb2dVertex
 10
615.7799650000001
 20
370.758039
 30
0.0
  0
VERTEX
  5
1254
330
1225
100
AcDbEntity
  8
SCHRAFFUR_RAND
100
AcDbVertex
100
AcDb2dVertex
 10
614.337965
 20
371.967039
 30
0.0
  0
VERTEX
  5
1255
330
1225
100
AcDbEntity
  8
SCHRAFFUR_RAND
100
AcDbVertex
100
AcDb2dVertex
 10
612.506965
 20
372.322039
 30
0.0
  0
VERTEX
  5
1256
330
1225
100
AcDbEntity
  8
SCHRAFFUR_RAND
100
AcDbVertex
100
AcDb2dVertex
 10
535.012965
 20
372.322039
 30
0.0
  0
VERTEX
  5
1257
330
1225
100
AcDbEntity
  8
SCHRAFFUR_RAND
100
AcDbVertex
100
AcDb2dVertex
 10
534.012965
 20
372.322039
 30
0.0
  0
VERTEX
  5
1258
330
1225
100
AcDbEntity
  8
SCHRAFFUR_RAND
100
AcDbVertex
100
AcDb2dVertex
 10
526.012965
 20
372.322039
 30
0.0
  0
VERTEX
  5
1259
330
1225
100
AcDbEntity
  8
SCHRAFFUR_RAND
100
AcDbVertex
100
AcDb2dVertex
 10
525.0129649999999
 20
372.322039
 30
0.0
  0
VERTEX
  5
125A
330
1225
100
AcDbEntity
  8
SCHRAFFUR_RAND
100
AcDbVertex
100
AcDb2dVertex
 10
519.2539649999999
 20
372.322039
 30
0.0
  0
VERTEX
  5
125B
330
1225
100
AcDbEntity
  8
SCHRAFFUR_RAND
100
AcDbVertex
100
AcDb2dVertex
 10
509.686965
 20
372.322039
 30
0.0
  0
SEQEND
  5
125C
330
1225
100
AcDbEntity
  8
SCHRAFFUR_RAND
  0
INSERT
  5
1279
330
137A
100
AcDbEntity
  8
8
100
AcDbBlockReference
  2
*X3
 10
-31.485035
 20
-682.342961
 30
0.0
1001
ACAD
1000
HATCH
1002
{
1070
    19
1000
ANSI31,_I
1040
7.937
1040
0.7850000000000001
1002
}
  0
POLYLINE
  5
127A
330
137A
100
AcDbEntity
  8
SCHRAFFUR_RAND
100
AcDb2dPolyline
 66
     1
 10
0.0
 20
0.0
 30
0.0
 70
     1
  0
VERTEX
  5
127B
330
127A
100
AcDbEntity
  8
SCHRAFFUR_RAND
100
AcDbVertex
100
AcDb2dVertex
 10
577.274965
 20
385.322039
 30
0.0
  0
VERTEX
  5
127C
330
127A
100
AcDbEntity
  8
SCHRAFFUR_RAND
100
AcDbVertex
100
AcDb2dVertex
 10
519.774965
 20
385.322039
 30
0.0
  0
VERTEX
  5
127D
330
127A
100
AcDbEntity
  8
SCHRAFFUR_RAND
100
AcDbVertex
100
AcDb2dVertex
 10
519.774965
 20
379.822039
 30
0.0
  0
VERTEX
  5
127E
330
127A
100
AcDbEntity
  8
SCHRAFFUR_RAND
100
AcDbVertex
100
AcDb2dVertex
 10
519.933965
 20
378.852039
 30
0.0
  0
VERTEX
  5
127F
330
127A
100
AcDbEntity
  8
SCHRAFFUR_RAND
100
AcDbVertex
100
AcDb2dVertex
 10
520.482965
 20
378.031039
 30
0.0
  0
VERTEX
  5
1280
330
127A
100
AcDbEntity
  8
SCHRAFFUR_RAND
100
AcDbVertex
100
AcDb2dVertex
 10
521.304965
 20
377.481039
 30
0.0
  0
VERTEX
  5
1281
330
127A
100
AcDbEntity
  8
SCHRAFFUR_RAND
100
AcDbVertex
100
AcDb2dVertex
 10
522.274965
 20
377.322039
 30
0.0
  0
VERTEX
  5
1282
330
127A
100
AcDbEntity
  8
SCHRAFFUR_RAND
100
AcDbVertex
100
AcDb2dVertex
 10
574.7749650000001
 20
377.322039
 30
0.0
  0
VERTEX
  5
1283
330
127A
100
AcDbEntity
  8
SCHRAFFUR_RAND
100
AcDbVertex
100
AcDb2dVertex
 10
575.743965
 20
377.481039
 30
0.0
  0
VERTEX
  5
1284
330
127A
100
AcDbEntity
  8
SCHRAFFUR_RAND
100
AcDbVertex
100
AcDb2dVertex
 10
576.5659649999999
 20
378.031039
 30
0.0
  0
VERTEX
  5
1285
330
127A
100
AcDbEntity
  8
SCHRAFFUR_RAND
100
AcDbVertex
100
AcDb2dVertex
 10
577.1149649999999
 20
378.852039
 30
0.0
  0
VERTEX
  5
1286
330
127A
100
AcDbEntity
  8
SCHRAFFUR_RAND
100
AcDbVertex
100
AcDb2dVertex
 10
577.274965
 20
379.822039
 30
0.0
  0
VERTEX
  5
1287
330
127A
100
AcDbEntity
  8
SCHRAFFUR_RAND
100
AcDbVertex
100
AcDb2dVertex
 10
577.274965
 20
385.322039
 30
0.0
  0
SEQEND
  5
1288
330
127A
100
AcDbEntity
  8
SCHRAFFUR_RAND
  0
INSERT
  5
1299
330
137A
100
AcDbEntity
  8
8
100
AcDbBlockReference
  2
*X4
 10
-31.485035
 20
-682.342961
 30
0.0
1001
ACAD
1000
HATCH
1002
{
1070
    19
1000
ANSI31,_I
1040
3.174999999999999
1040
0.7850000000000001
1002
}
  0
POLYLINE
  5
129A
330
137A
100
AcDbEntity
  8
SCHRAFFUR_RAND
100
AcDb2dPolyline
 66
     1
 10
0.0
 20
0.0
 30
0.0
 70
     1
  0
VERTEX
  5
129B
330
129A
100
AcDbEntity
  8
SCHRAFFUR_RAND
100
AcDbVertex
100
AcDb2dVertex
 10
282.274965
 20
377.322039
 30
0.0
  0
VERTEX
  5
129C
330
129A
100
AcDbEntity
  8
SCHRAFFUR_RAND
100
AcDbVertex
100
AcDb2dVertex
 10
283.244965
 20
377.478039
 30
0.0
  0
VERTEX
  5
129D
330
129A
100
AcDbEntity
  8
SCHRAFFUR_RAND
100
AcDbVertex
100
AcDb2dVertex
 10
284.067965
 20
378.0280390000001
 30
0.0
  0
VERTEX
  5
129E
330
129A
100
AcDbEntity
  8
SCHRAFFUR_RAND
100
AcDbVertex
100
AcDb2dVertex
 10
284.617965
 20
378.851039
 30
0.0
  0
VERTEX
  5
129F
330
129A
100
AcDbEntity
  8
SCHRAFFUR_RAND
100
AcDbVertex
100
AcDb2dVertex
 10
284.774965
 20
379.822039
 30
0.0
  0
VERTEX
  5
12A0
330
129A
100
AcDbEntity
  8
SCHRAFFUR_RAND
100
AcDbVertex
100
AcDb2dVertex
 10
284.774965
 20
385.322039
 30
0.0
  0
VERTEX
  5
12A1
330
129A
100
AcDbEntity
  8
SCHRAFFUR_RAND
100
AcDbVertex
100
AcDb2dVertex
 10
227.273965
 20
385.322039
 30
0.0
  0
VERTEX
  5
12A2
330
129A
100
AcDbEntity
  8
SCHRAFFUR_RAND
100
AcDbVertex
100
AcDb2dVertex
 10
227.273965
 20
379.822039
 30
0.0
  0
VERTEX
  5
12A3
330
129A
100
AcDbEntity
  8
SCHRAFFUR_RAND
100
AcDbVertex
100
AcDb2dVertex
 10
227.430965
 20
378.851039
 30
0.0
  0
VERTEX
  5
12A4
330
129A
100
AcDbEntity
  8
SCHRAFFUR_RAND
100
AcDbVertex
100
AcDb2dVertex
 10
227.980965
 20
378.0280390000001
 30
0.0
  0
VERTEX
  5
12A5
330
129A
100
AcDbEntity
  8
SCHRAFFUR_RAND
100
AcDbVertex
100
AcDb2dVertex
 10
228.803965
 20
377.478039
 30
0.0
  0
VERTEX
  5
12A6
330
129A
100
AcDbEntity
  8
SCHRAFFUR_RAND
100
AcDbVertex
100
AcDb2dVertex
 10
229.773965
 20
377.322039
 30
0.0
  0
VERTEX
  5
12A7
330
129A
100
AcDbEntity
  8
SCHRAFFUR_RAND
100
AcDbVertex
100
AcDb2dVertex
 10
282.274965
 20
377.322039
 30
0.0
  0
SEQEND
  5
12A8
330
129A
100
AcDbEntity
  8
SCHRAFFUR_RAND
  0
INSERT
  5
12B9
330
137A
100
AcDbEntity
  8
8
100
AcDbBlockReference
  2
*X5
 10
-31.485035
 20
-682.342961
 30
0.0
1001
ACAD
1000
HATCH
1002
{
1070
    19
1000
ANSI31,_I
1040
3.174999999999999
1040
0.7850000000000001
1002
}
  0
INSERT
  5
1424
330
137A
100
AcDbEntity
  8
0
100
AcDbBlockReference
  2
KATALOG_LEER
 10
251.839706
 20
11.304483
 30
0.0
 41
5.0
 42
5.0
 43
5.0
1001
GENIUS_GENOREF_13
1005
1425
  0
POINT
  5
1425
330
137A
100
AcDbEntity
  8
0
 60
     1
100
AcDbPoint
 10
0.0
 20
0.0
 30
0.0
1001
GENIUS_GENOBJ-N-TIT_13
1002
{
1000
OWNER
1000
GEN
1002
}
1001
GENIUS_GENOENT_13
1002
{
1000
MYREF
1005
1425
1002
}
1002
{
1000
GRP
1005
0
1002
}
1001
GENIUS_GENOLIS_13
1002
{
1000
ENT
1005
1424
1002
}
1001
GENIUS_GENTITLE_13
1002
{
1000
SCALE
1000
1:5
1002
}
1002
{
1000
BORDER
1000
KATALOG
1002
}
1002
{
1000
TITLE
1000
KATALOG_LEER
1002
}
1002
{
1000
UNCHG
1002
{
1000
GEN-TITLE-SCA
1000
GEN-TITLE-SIZ
1002
}
1002
}
1002
{
1000
HRA
1005
141D
1002
}
1002
{
1000
HTIT
1005
1424
1002
}
1002
{
1000
GENIUSID
1005
1425
1002
}
1001
GENIUS_GENODEF_13
1002
{
1000
HIER
1070
     1
1002
}
1002
{
1000
MANEDIT
1070
     1
1002
}
1002
{
1000
NOSEL
1070
     0
1002
}
1002
{
1000
BEHIND
1070
     0
1002
}
1002
{
1000
REACTOR
1002
}
  0
LINE
  5
1451
330
137A
100
AcDbEntity
  8
5
100
AcDbLine
 10
539.62742
 20
399.835689
 30
0.0
 11
607.348305
 21
446.3907809999999
 31
0.0
  0
LINE
  5
1452
330
137A
100
AcDbEntity
  8
5
100
AcDbLine
 10
682.3042469999998
 20
501.7706959999999
 30
0.0
 11
694.394626
 21
501.7706959999999
 31
0.0
  0
LINE
  5
1453
330
137A
100
AcDbEntity
  8
5
100
AcDbLine
 10
679.452744
 20
506.3245799999999
 30
0.0
 11
697.246129
 21
506.3245799999999
 31
0.0
  0
LINE
  5
1454
330
137A
100
AcDbEntity
  8
5
100
AcDbLine
 10
685.0416909999999
 20
497.3989669999999
 30
0.0
 11
691.657183
 21
497.3989669999999
 31
0.0
  0
LINE
  5
1455
330
137A
100
AcDbEntity
  8
5
100
AcDbLine
 10
688.349437
 20
506.3245799999999
 30
0.0
 11
688.349437
 21
514.8858849999998
 31
0.0
  0
LINE
  5
1457
330
137A
100
AcDbEntity
  8
5
100
AcDbLine
 10
625.178473
 20
458.6482269999999
 30
0.0
 11
678.928557
 21
495.5990139999999
 31
0.0
  0
ENDSEC
  0
SECTION
  2
OBJECTS
  0
DICTIONARY
  5
136E
330
0
100
AcDbDictionary
281
     1
  3
ACAD_COLOR
350
1563
  3
ACAD_GROUP
350
136F
  3
ACAD_LAYOUT
350
1566
  3
ACAD_MATERIAL
350
1562
  3
ACAD_MLINESTYLE
350
137D
  3
ACAD_PLOTSETTINGS
350
1567
  3
ACAD_PLOTSTYLENAME
350
1560
  3
ACAD_TABLESTYLE
350
1564
  3
ACDBHEADERROUNDTRIPXREC
350
1648
  3
AcDbVariableDictionary
350
163B
  3
AcmDictionary
350
15C5
  3
AMG
350
156B
  3
AMGSNAPSETTINGS
350
1632
  0
DICTIONARY
  5
1563
102
{ACAD_REACTORS
330
136E
102
}
330
136E
100
AcDbDictionary
281
     1
  0
DICTIONARY
  5
136F
102
{ACAD_REACTORS
330
136E
102
}
330
136E
100
AcDbDictionary
281
     1
  0
DICTIONARY
  5
1566
102
{ACAD_REACTORS
330
136E
102
}
330
136E
100
AcDbDictionary
281
     1
  3
Layout1
350
1569
  3
Model
350
1568
  0
DICTIONARY
  5
1562
102
{ACAD_REACTORS
330
136E
102
}
330
136E
100
AcDbDictionary
281
     1
  0
DICTIONARY
  5
137D
102
{ACAD_REACTORS
330
136E
102
}
330
136E
100
AcDbDictionary
281
     1
  3
STANDARD
350
137E
  0
DICTIONARY
  5
1567
102
{ACAD_REACTORS
330
136E
102
}
330
136E
100
AcDbDictionary
281
     1
  0
ACDBDICTIONARYWDFLT
  5
1560
102
{ACAD_REACTORS
330
136E
102
}
330
136E
100
AcDbDictionary
281
     1
  3
Normal
350
1561
100
AcDbDictionaryWithDefault
340
1561
  0
DICTIONARY
  5
1564
102
{ACAD_REACTORS
330
136E
102
}
330
136E
100
AcDbDictionary
281
     1
  3
Standard
350
1565
  0
DICTIONARY
  5
1648
102
{ACAD_REACTORS
330
136E
102
}
330
136E
100
AcDbDictionary
281
     1
  0
DICTIONARY
  5
163B
102
{ACAD_REACTORS
330
136E
102
}
330
136E
100
AcDbDictionary
281
     1
  3
CTABLESTYLE
350
163C
  3
DIMASSOC
350
1645
  3
PROJECTNAME
350
1646
  0
DICTIONARY
  5
15C5
102
{ACAD_REACTORS
330
136E
102
}
330
136E
100
AcDbDictionary
281
     1
  3
AcmStdDictionary
350
15D0
  3
AMDTSECTSYM_ARROWCOLOR
350
15F3
  0
DICTIONARY
  5
156B
102
{ACAD_REACTORS
330
136E
102
}
330
136E
100
AcDbDictionary
281
     1
  0
DICTIONARY
  5
1632
102
{ACAD_REACTORS
330
136E
102
}
330
136E
100
AcDbDictionary
281
     1
  0
LAYOUT
  5
1569
102
{ACAD_XDICTIONARY
360
164B
102
}
102
{ACAD_REACTORS
330
1566
102
}
330
1566
100
AcDbPlotSettings
  1

  2
Xerox Document Centre CS50 PS
  4

  6

 40
0.0
 41
0.0
 42
0.0
 43
0.0
 44
0.0
 45
0.0
 46
0.0
 47
0.0
 48
0.0
 49
0.0
140
0.0
141
0.0
142
1.0
143
1.0
 70
   688
 72
     0
 73
     0
 74
     5
  7

 75
    16
147
1.0
148
0.0
149
0.0
100
AcDbLayout
  1
Layout1
 70
     1
 71
     1
 10
0.0
 20
0.0
 11
210.001
 21
297.001
 12
0.0
 22
0.0
 32
0.0
 14
0.0
 24
0.0
 34
0.0
 15
210.001
 25
297.001
 35
0.0
146
0.0
 13
0.0
 23
0.0
 33
0.0
 16
1.0
 26
0.0
 36
0.0
 17
0.0
 27
1.0
 37
0.0
 76
     0
330
1377
  0
LAYOUT
  5
1568
102
{ACAD_XDICTIONARY
360
1649
102
}
102
{ACAD_REACTORS
330
1566
102
}
330
1566
100
AcDbPlotSettings
  1

  2
Xerox Document Centre CS50 PS
  4

  6

 40
0.0
 41
0.0
 42
0.0
 43
0.0
 44
0.0
 45
0.0
 46
0.0
 47
0.0
 48
0.0
 49
0.0
140
0.0
141
0.0
142
1.0
143
1.0
 70
  1712
 72
     0
 73
     0
 74
     0
  7

 75
     0
147
1.0
148
0.0
149
0.0
100
AcDbLayout
  1
Model
 70
     1
 71
     0
 10
0.0
 20
0.0
 11
12.0
 21
9.0
 12
0.0
 22
0.0
 32
0.0
 14
0.0
 24
0.0
 34
0.0
 15
0.0
 25
0.0
 35
0.0
146
0.0
 13
0.0
 23
0.0
 33
0.0
 16
1.0
 26
0.0
 36
0.0
 17
0.0
 27
1.0
 37
0.0
 76
     0
330
137A
  0
MLINESTYLE
  5
137E
102
{ACAD_REACTORS
330
137D
102
}
330
137D
100
AcDbMlineStyle
  2
STANDARD
 70
     0
  3

 62
   256
 51
90.0
 52
90.0
 71
     2
 49
0.5
 62
   256
  6
BYLAYER
 49
-0.5
 62
   256
  6
BYLAYER
  0
ACDBPLACEHOLDER
  5
1561
102
{ACAD_REACTORS
330
1560
102
}
330
1560
  0
TABLESTYLE
  5
1565
102
{ACAD_REACTORS
330
1564
102
}
330
1564
100
AcDbTableStyle
  3
Standard
 70
     0
 71
     0
 40
1.5
 41
1.5
280
     0
281
     0
  7
STANDARD
140
4.5
170
     2
 62
     0
 63
     7
283
     0
274
    -2
284
     1
 64
     0
275
    -2
285
     1
 65
     0
276
    -2
286
     1
 66
     0
277
    -2
287
     1
 67
     0
278
    -2
288
     1
 68
     0
279
    -2
289
     1
 69
     0
  7
STANDARD
140
6.0
170
     5
 62
     0
 63
     7
283
     0
274
    -2
284
     1
 64
     0
275
    -2
285
     1
 65
     0
276
    -2
286
     1
 66
     0
277
    -2
287
     1
 67
     0
278
    -2
288
     1
 68
     0
279
    -2
289
     1
 69
     0
  7
STANDARD
140
4.5
170
     5
 62
     0
 63
     7
283
     0
274
    -2
284
     1
 64
     0
275
    -2
285
     1
 65
     0
276
    -2
286
     1
 66
     0
277
    -2
287
     1
 67
     0
278
    -2
288
     1
 68
     0
279
    -2
289
     1
 69
     0
  0
DICTIONARYVAR
  5
163C
102
{ACAD_REACTORS
330
163B
102
}
330
163B
100
DictionaryVariables
280
     0
  1
STANDARD
  0
DICTIONARYVAR
  5
1645
102
{ACAD_REACTORS
330
163B
102
}
330
163B
100
DictionaryVariables
280
     0
  1
1
  0
DICTIONARYVAR
  5
1646
102
{ACAD_REACTORS
330
163B
102
}
330
163B
100
DictionaryVariables
280
     0
  1

  0
DICTIONARY
  5
15D0
102
{ACAD_REACTORS
330
15C5
102
}
330
15C5
100
AcDbDictionary
281
     1
  0
XRECORD
  5
15F3
102
{ACAD_REACTORS
330
15C5
102
}
330
15C5
100
AcDbXrecord
280
     1
 90
-1023410169
  0
DICTIONARY
  5
164B
330
1569
100
AcDbDictionary
280
     1
281
     1
  3
ACAD_XREC_ROUNDTRIP
360
164C
  0
DICTIONARY
  5
1649
330
1568
100
AcDbDictionary
280
     1
281
     1
  3
ACAD_XREC_ROUNDTRIP
360
164A
  0
XRECORD
  5
164C
102
{ACAD_REACTORS
330
164B
102
}
330
164B
100
AcDbXrecord
280
     1
102
SHADEPLOT
 70
     0
102
SHADEPLOTRESLEVEL
 70
     2
102
SHADEPLOTCUSTOMDPI
 70
   300
  0
XRECORD
  5
164A
102
{ACAD_REACTORS
330
1649
102
}
330
1649
100
AcDbXrecord
280
     1
102
SHADEPLOT
 70
     0
102
SHADEPLOTRESLEVEL
 70
     2
102
SHADEPLOTCUSTOMDPI
 70
   300
  0
ENDSEC
  0
EOF
