  0
SECTION
  2
HEADER
  9
$ACADVER
  1
AC1015
  9
$ACADMAINTVER
 70
    20
  9
$DWGCODEPAGE
  3
ANSI_1252
  9
$INSBASE
 10
0.0
 20
0.0
 30
0.0
  9
$EXTMIN
 10
61.57150520194727
 20
165.1519801760464
 30
-0.0015258207003583
  9
$EXTMAX
 10
733.3625814218103
 20
592.2912616775033
 30
0.0000000349246037
  9
$LIMMIN
 10
0.0
 20
0.0
  9
$LIMMAX
 10
1050.0
 20
1050.0
  9
$ORTHOMODE
 70
     1
  9
$REGENMODE
 70
     1
  9
$FILLMODE
 70
     1
  9
$QTEXTMODE
 70
     0
  9
$MIRRTEXT
 70
     0
  9
$LTSCALE
 40
5.0
  9
$ATTMODE
 70
     1
  9
$TEXTSIZE
 40
10.0
  9
$TRACEWID
 40
0.05
  9
$TEXTSTYLE
  7
STANDARD
  9
$CLAYER
  8
0
  9
$CELTYPE
  6
BYLAYER
  9
$CECOLOR
 62
   256
  9
$CELTSCALE
 40
1.0
  9
$DISPSILH
 70
     0
  9
$DIMSCALE
 40
5.0
  9
$DIMASZ
 40
2.5
  9
$DIMEXO
 40
1.0
  9
$DIMDLI
 40
7.0
  9
$DIMRND
 40
0.0
  9
$DIMDLE
 40
0.0
  9
$DIMEXE
 40
1.0
  9
$DIMTP
 40
0.1
  9
$DIMTM
 40
0.1
  9
$DIMTXT
 40
3.5
  9
$DIMCEN
 40
0.0
  9
$DIMTSZ
 40
0.0
  9
$DIMTOL
 70
     0
  9
$DIMLIM
 70
     0
  9
$DIMTIH
 70
     0
  9
$DIMTOH
 70
     0
  9
$DIMSE1
 70
     0
  9
$DIMSE2
 70
     0
  9
$DIMTAD
 70
     1
  9
$DIMZIN
 70
    12
  9
$DIMBLK
  1

  9
$DIMASO
 70
     1
  9
$DIMSHO
 70
     1
  9
$DIMPOST
  1

  9
$DIMAPOST
  1
"
  9
$DIMALT
 70
     0
  9
$DIMALTD
 70
     2
  9
$DIMALTF
 40
0.03937
  9
$DIMLFAC
 40
1.0
  9
$DIMTOFL
 70
     1
  9
$DIMTVP
 40
0.0
  9
$DIMTIX
 70
     0
  9
$DIMSOXD
 70
     0
  9
$DIMSAH
 70
     0
  9
$DIMBLK1
  1

  9
$DIMBLK2
  1

  9
$DIMSTYLE
  2
GEN-ISO
  9
$DIMCLRD
 70
   256
  9
$DIMCLRE
 70
   256
  9
$DIMCLRT
 70
     2
  9
$DIMTFAC
 40
0.71
  9
$DIMGAP
 40
0.6
  9
$DIMJUST
 70
     0
  9
$DIMSD1
 70
     0
  9
$DIMSD2
 70
     0
  9
$DIMTOLJ
 70
     0
  9
$DIMTZIN
 70
     0
  9
$DIMALTZ
 70
     0
  9
$DIMALTTZ
 70
     0
  9
$DIMUPT
 70
     0
  9
$DIMDEC
 70
     2
  9
$DIMTDEC
 70
     3
  9
$DIMALTU
 70
     2
  9
$DIMALTTD
 70
     4
  9
$DIMTXSTY
  7
STANDARD
  9
$DIMAUNIT
 70
     0
  9
$DIMADEC
 70
     0
  9
$DIMALTRND
 40
0.0
  9
$DIMAZIN
 70
     0
  9
$DIMDSEP
 70
    46
  9
$DIMATFIT
 70
     3
  9
$DIMFRAC
 70
     0
  9
$DIMLDRBLK
  1

  9
$DIMLUNIT
 70
     2
  9
$DIMLWD
 70
    -2
  9
$DIMLWE
 70
    -2
  9
$DIMTMOVE
 70
     0
  9
$LUNITS
 70
     2
  9
$LUPREC
 70
     2
  9
$SKETCHINC
 40
0.1
  9
$FILLETRAD
 40
12.5
  9
$AUNITS
 70
     0
  9
$AUPREC
 70
     2
  9
$MENU
  1
.
  9
$ELEVATION
 40
0.0
  9
$PELEVATION
 40
0.0
  9
$THICKNESS
 40
0.0
  9
$LIMCHECK
 70
     0
  9
$CHAMFERA
 40
12.5
  9
$CHAMFERB
 40
12.5
  9
$CHAMFERC
 40
0.0
  9
$CHAMFERD
 40
0.0
  9
$SKPOLY
 70
     0
  9
$TDCREATE
 40
2451222.635773785
  9
$TDUCREATE
 40
2451222.594107118
  9
$TDUPDATE
 40
2454038.552074896
  9
$TDUUPDATE
 40
2454038.510408229
  9
$TDINDWG
 40
0.0047513079
  9
$TDUSRTIMER
 40
0.0047513079
  9
$USRTIMER
 70
     1
  9
$ANGBASE
 50
0.0
  9
$ANGDIR
 70
     0
  9
$PDMODE
 70
     0
  9
$PDSIZE
 40
0.0
  9
$PLINEWID
 40
0.0
  9
$SPLFRAME
 70
     0
  9
$SPLINETYPE
 70
     6
  9
$SPLINESEGS
 70
     8
  9
$HANDSEED
  5
183A
  9
$SURFTAB1
 70
     6
  9
$SURFTAB2
 70
     6
  9
$SURFTYPE
 70
     6
  9
$SURFU
 70
     6
  9
$SURFV
 70
     6
  9
$UCSBASE
  2

  9
$UCSNAME
  2

  9
$UCSORG
 10
0.0
 20
0.0
 30
0.0
  9
$UCSXDIR
 10
1.0
 20
0.0
 30
0.0
  9
$UCSYDIR
 10
0.0
 20
1.0
 30
0.0
  9
$UCSORTHOREF
  2

  9
$UCSORTHOVIEW
 70
     0
  9
$UCSORGTOP
 10
0.0
 20
0.0
 30
0.0
  9
$UCSORGBOTTOM
 10
0.0
 20
0.0
 30
0.0
  9
$UCSORGLEFT
 10
0.0
 20
0.0
 30
0.0
  9
$UCSORGRIGHT
 10
0.0
 20
0.0
 30
0.0
  9
$UCSORGFRONT
 10
0.0
 20
0.0
 30
0.0
  9
$UCSORGBACK
 10
0.0
 20
0.0
 30
0.0
  9
$PUCSBASE
  2

  9
$PUCSNAME
  2

  9
$PUCSORG
 10
0.0
 20
0.0
 30
0.0
  9
$PUCSXDIR
 10
1.0
 20
0.0
 30
0.0
  9
$PUCSYDIR
 10
0.0
 20
1.0
 30
0.0
  9
$PUCSORTHOREF
  2

  9
$PUCSORTHOVIEW
 70
     0
  9
$PUCSORGTOP
 10
0.0
 20
0.0
 30
0.0
  9
$PUCSORGBOTTOM
 10
0.0
 20
0.0
 30
0.0
  9
$PUCSORGLEFT
 10
0.0
 20
0.0
 30
0.0
  9
$PUCSORGRIGHT
 10
0.0
 20
0.0
 30
0.0
  9
$PUCSORGFRONT
 10
0.0
 20
0.0
 30
0.0
  9
$PUCSORGBACK
 10
0.0
 20
0.0
 30
0.0
  9
$USERI1
 70
     0
  9
$USERI2
 70
     0
  9
$USERI3
 70
     0
  9
$USERI4
 70
     0
  9
$USERI5
 70
     0
  9
$USERR1
 40
0.0
  9
$USERR2
 40
0.0
  9
$USERR3
 40
0.0
  9
$USERR4
 40
0.0
  9
$USERR5
 40
0.0
  9
$WORLDVIEW
 70
     1
  9
$SHADEDGE
 70
     3
  9
$SHADEDIF
 70
    70
  9
$TILEMODE
 70
     1
  9
$MAXACTVP
 70
    48
  9
$PINSBASE
 10
0.0
 20
0.0
 30
0.0
  9
$PLIMCHECK
 70
     0
  9
$PEXTMIN
 10
0.0
 20
0.0
 30
0.0
  9
$PEXTMAX
 10
419.8999999999999
 20
296.9
 30
0.0
  9
$PLIMMIN
 10
0.0
 20
0.0
  9
$PLIMMAX
 10
419.8999999999999
 20
296.9
  9
$UNITMODE
 70
     0
  9
$VISRETAIN
 70
     1
  9
$PLINEGEN
 70
     1
  9
$PSLTSCALE
 70
     1
  9
$TREEDEPTH
 70
 -3020
  9
$CMLSTYLE
  2
STANDARD
  9
$CMLJUST
 70
     0
  9
$CMLSCALE
 40
1.0
  9
$PROXYGRAPHICS
 70
     1
  9
$MEASUREMENT
 70
     1
  9
$CELWEIGHT
370
    -1
  9
$ENDCAPS
280
     0
  9
$JOINSTYLE
280
     0
  9
$LWDISPLAY
290
     0
  9
$INSUNITS
 70
     0
  9
$HYPERLINKBASE
  1

  9
$STYLESHEET
  1

  9
$XEDIT
290
     1
  9
$CEPSNTYPE
380
     0
  9
$PSTYLEMODE
290
     1
  9
$FINGERPRINTGUID
  2
{A9507511-28CD-4F95-BCAA-921728AFDA6E}
  9
$VERSIONGUID
  2
{55258183-9ECF-47FA-ADE6-77D50A393E3D}
  9
$EXTNAMES
290
     1
  9
$PSVPSCALE
 40
0.0
  9
$OLESTARTUP
290
     0
  0
ENDSEC
  0
SECTION
  2
CLASSES
  0
CLASS
  1
ACDBDICTIONARYWDFLT
  2
AcDbDictionaryWithDefault
  3
ObjectDBX Classes
 90
        0
280
     0
281
     0
  0
CLASS
  1
TABLESTYLE
  2
AcDbTableStyle
  3
ObjectDBX Classes
 90
     2047
280
     0
281
     0
  0
CLASS
  1
AMGSETTINGSOBJ
  2
AmgSettingsObj
  3
"AcadM|Product Description: AutoCAD Mechanical 2000|Company: Autodesk"
 90
        0
280
     0
281
     0
  0
CLASS
  1
ACME_DOCUMENT
  2
AcMeDbDoc
  3
AcMeServices
 90
        0
280
     0
281
     0
  0
CLASS
  1
ACMESCOPE
  2
AcMeScope
  3
AcMeServices
 90
        0
280
     0
281
     0
  0
CLASS
  1
ACMECOMMANDHISTORY
  2
AcMeCommandHistory
  3
AcMeServices
 90
        0
280
     0
281
     0
  0
CLASS
  1
ACIMSYSVARMAN
  2
AcImSysVarManager
  3
AcMeServices
 90
        0
280
     0
281
     0
  0
CLASS
  1
ACIMINTSYSVAR
  2
AcImIntSysVar
  3
AcMeServices
 90
        0
280
     0
281
     0
  0
CLASS
  1
ACMEDRAWINGMAN
  2
AcMeDrawingMan
  3
AcMeServices
 90
        0
280
     0
281
     0
  0
CLASS
  1
ACMEVIEW
  2
AcMeView
  3
AcMeServices
 90
        0
280
     0
281
     0
  0
CLASS
  1
ACDBENTITYCACHE
  2
AcMeEntityCache
  3
AcMeServices
 90
        0
280
     0
281
     0
  0
CLASS
  1
GSMANAGER
  2
AcMeGSManager
  3
AcMeServices
 90
        0
280
     0
281
     0
  0
CLASS
  1
AMDTINTERNALREACTOR
  2
AmdtInternalReactor
  3
AcMeServices
 90
        0
280
     0
281
     0
  0
CLASS
  1
ACMESTATEMGR
  2
AcMeStateMgr
  3
AcMeServices
 90
        0
280
     0
281
     0
  0
CLASS
  1
ACGREFMASTER
  2
AcGrefMaster
  3
AcAttribServices
 90
        0
280
     0
281
     0
  0
CLASS
  1
AM_DRAWING_MGR
  2
AcDmDwgMgr
  3
AcMechDwgViewMgmt
 90
        0
280
     0
281
     0
  0
CLASS
  1
AM_DWG_DOCUMENT
  2
AcDmDwgDocument
  3
AcMechDwgViewMgmt
 90
        0
280
     0
281
     0
  0
CLASS
  1
AM_DWG_SHEET
  2
AcDmSheet
  3
AcMechDwgViewMgmt
 90
        0
280
     0
281
     0
  0
CLASS
  1
AM_VIEWDIMPARMAP
  2
AcDmViewDimParMap
  3
AcMechDwgViewMgmt
 90
        0
280
     0
281
     0
  0
CLASS
  1
ACIMREALSYSVAR
  2
AcImRealSysVar
  3
AcMeServices
 90
        0
280
     0
281
     0
  0
CLASS
  1
AM_DWGMGR_NAME
  2
AcDmDwgMgrName
  3
AcMechDwgViewMgmt
 90
        0
280
     0
281
     0
  0
CLASS
  1
ACME_DATABASE
  2
AcMeDbDatabase
  3
AcMeServices
 90
        0
280
     0
281
     0
  0
CLASS
  1
ACRFINSADJUSTERMGR
  2
AcRfInsAdjusterMgr
  3
AcMeServices
 90
        0
280
     0
281
     0
  0
CLASS
  1
ACGREFACADMASTER
  2
AcGrefacadMaster
  3
AcGrefServices
 90
        0
280
     0
281
     0
  0
CLASS
  1
AMDTMENUSTATEMGR
  2
AmdtMenuStateMgr
  3
McadcomServices
 90
        0
280
     0
281
     0
  0
CLASS
  1
AMDTMCOMMENUSTATE
  2
AmdtMcomMenuState
  3
McadcomServices
 90
        0
280
     0
281
     0
  0
CLASS
  1
AMIMASTER
  2
AmiMaster
  3
AmiServices
 90
        0
280
     0
281
     0
  0
CLASS
  1
MAPIAMMOUDLE
  2
MApiAmModule
  3
MApiAmServices
 90
        0
280
     0
281
     0
  0
CLASS
  1
ACIMSTRSYSVAR
  2
AcImStrSysVar
  3
AcMeServices
 90
        0
280
     0
281
     0
  0
CLASS
  1
AMDTADMENUSTATE
  2
AmdtAdMenuState
  3
DesignerServices
 90
        0
280
     0
281
     0
  0
CLASS
  1
ADAPPL
  2
AcAdAppl
  3
DesignerServices
 90
        0
280
     0
281
     0
  0
CLASS
  1
DEPMGR
  2
AcAdDepMgr
  3
DesignerServices
 90
        0
280
     0
281
     0
  0
CLASS
  1
PARAMMGR
  2
AcAdParamMgr
  3
DesignerServices
 90
        0
280
     0
281
     0
  0
CLASS
  1
PARAMSCOPE
  2
AcAdParamScope
  3
DesignerServices
 90
        0
280
     0
281
     0
  0
CLASS
  1
NAMEDAPPL
  2
AcAdNamedAppl
  3
DesignerServices
 90
        0
280
     0
281
     0
  0
CLASS
  1
AMDTDMMENUSTATE
  2
AmdtDmMenuState
  3
AcMechDwgViewMgmt
 90
        0
280
     0
281
     0
  0
CLASS
  1
AMDTAMMENUSTATE
  2
AmdtAmMenuState
  3
DesignerAssemblies
 90
        0
280
     0
281
     0
  0
CLASS
  1
ACAMPROJECT
  2
AcAmProject
  3
DesignerAssemblies
 90
        0
280
     0
281
     0
  0
CLASS
  1
ACAMGRCOMPDEF
  2
AcAmGrCompDef
  3
DesignerAssemblies
 90
        0
280
     0
281
     0
  0
CLASS
  1
ACCMCONTEXT
  2
AcCmContext
  3
DesignerAssemblies
 90
        0
280
     0
281
     0
  0
CLASS
  1
ACAMCOMPDEF
  2
AcAmCompDef
  3
DesignerAssemblies
 90
        0
280
     0
281
     0
  0
CLASS
  1
ACAMCOMPDEFMGR
  2
AcAmCompDefMgr
  3
DesignerAssemblies
 90
        0
280
     0
281
     0
  0
CLASS
  1
AMCONTEXTMGR
  2
AcAmContextMgr
  3
DesignerAssemblies
 90
        0
280
     0
281
     0
  0
CLASS
  1
ACAMCONTEXTMODELER
  2
AcAmContextModeler
  3
DesignerAssemblies
 90
        0
280
     0
281
     0
  0
CLASS
  1
ACMDATADICTIONARY
  2
AcmDataDictionary
  3
"AcmSymBB|Product Description: AutoCAD Mechanical 2004 DX|Company: Autodesk"
 90
        0
280
     0
281
     0
  0
CLASS
  1
CATALOGSTATE
  2
AcAmCatalogState
  3
DesignerAssemblies
 90
        0
280
     0
281
     0
  0
CLASS
  1
ACAMGRCOMPDEFSET
  2
AcAmGrCompDefSet
  3
DesignerAssemblies
 90
        0
280
     0
281
     0
  0
CLASS
  1
AMDTBROWSERDBTAB
  2
AmdtBrowserDbTab
  3
McadcomServices
 90
        0
280
     0
281
     0
  0
CLASS
  1
CBROWSERAPPOBJECT
  2
CBrowserAppObject
  3
McadcomServices
 90
        0
280
     0
281
     0
  0
CLASS
  1
DM_PLACEHOLDER
  2
AcDmSelsetPlaceholder
  3
AcMechDwgViewMgmt
 90
        0
280
     0
281
     0
  0
CLASS
  1
ACMSTANDARDDIN
  2
AcmStandardDIN
  3
"Amdt_StdImp|Product Description: AutoCAD Mechanical 2004 DX|Company: Autodesk"
 90
        0
280
     0
281
     0
  0
CLASS
  1
AMGOBJPROPCFG
  2
AmgObjPropCfg
  3
"AmgLay|Product Description: AutoCAD Mechanical 2000|Company: Autodesk"
 90
        1
280
     0
281
     0
  0
CLASS
  1
AMDTEDGESTANDARDDIN13715
  2
AmdtEdgeStdDIN13715
  3
"Amdt_StdImp|Product Description: AutoCAD Mechanical 2004 DX|Company: Autodesk"
 90
        0
280
     0
281
     0
  0
CLASS
  1
ACMSURFSTANDARDDIN
  2
AcmSurfTextStdDIN
  3
"Amdt_StdImp|Product Description: AutoCAD Mechanical 2004 DX|Company: Autodesk"
 90
        0
280
     0
281
     0
  0
CLASS
  1
ACMFCFSTANDARDDIN
  2
AcmFCFStdDIN
  3
"Amdt_StdImp|Product Description: AutoCAD Mechanical 2004 DX|Company: Autodesk"
 90
        0
280
     0
281
     0
  0
CLASS
  1
ACMWELDSTANDARDDIN
  2
AcmWeldingStdDIN
  3
"Amdt_StdImp|Product Description: AutoCAD Mechanical 2004 DX|Company: Autodesk"
 90
        0
280
     0
281
     0
  0
CLASS
  1
ACMIDSTANDARDDIN
  2
AcmIdStdDIN
  3
"Amdt_StdImp|Product Description: AutoCAD Mechanical 2004 DX|Company: Autodesk"
 90
        0
280
     0
281
     0
  0
CLASS
  1
ACMDATUMSTANDARDDIN
  2
AcmDatumStdDIN
  3
"Amdt_StdImp|Product Description: AutoCAD Mechanical 2004 DX|Company: Autodesk"
 90
        0
280
     0
281
     0
  0
CLASS
  1
ACMBOMSTANDARDDIN
  2
AcmBOMStdDIN
  3
"Amdt_StdImp|Product Description: AutoCAD Mechanical 2004 DX|Company: Autodesk"
 90
        0
280
     0
281
     0
  0
CLASS
  1
ACMDETAILSTANDARDDIN
  2
AmdtDetailSymStdDIN
  3
"Amdt_StdImp|Product Description: AutoCAD Mechanical 2004 DX|Company: Autodesk"
 90
        0
280
     0
281
     0
  0
CLASS
  1
ACMSECTIONSTANDARDDIN
  2
AmdtSectionSymStdDIN
  3
"Amdt_StdImp|Product Description: AutoCAD Mechanical 2004 DX|Company: Autodesk"
 90
        0
280
     0
281
     0
  0
CLASS
  1
ACMCENTERLINESTANDARDDIN
  2
AmdtCenterLineStdDIN
  3
"Amdt_StdImp|Product Description: AutoCAD Mechanical 2004 DX|Company: Autodesk"
 90
        0
280
     0
281
     0
  0
CLASS
  1
ACMTHREADLINESTANDARDDIN
  2
AmdtThreadLineStdDIN
  3
"Amdt_StdImp|Product Description: AutoCAD Mechanical 2004 DX|Company: Autodesk"
 90
        0
280
     0
281
     0
  0
CLASS
  1
ACMNOTESTANDARDDIN
  2
AmdtNoteStdDIN
  3
"Amdt_StdImp|Product Description: AutoCAD Mechanical 2004 DX|Company: Autodesk"
 90
        0
280
     0
281
     0
  0
CLASS
  1
AMDTNOTETEMPLATEDB
  2
AmdtNoteTemplateDB
  3
AMDT_STDIMP_MODULE_NAME
 90
        0
280
     0
281
     0
  0
CLASS
  1
ACAMGLAYSTD
  2
AcAmgLayStd
  3
"AcAmgLayStd|Product Description: AutoCAD Mechanical 2000|Company: Autodesk"
 90
        0
280
     0
281
     0
  0
CLASS
  1
ACAMGDIMSTD
  2
AcAmgDimStd
  3
"AcAmgDimStd|Product Description: AutoCAD Mechanical 2000|Company: Autodesk"
 90
        0
280
     0
281
     0
  0
CLASS
  1
ACAMGHOLECHARTSTDDIN
  2
AcAmgHoleChartStdDIN
  3
ACMSYMBB_MODULE_NAME
 90
        0
280
     0
281
     0
  0
CLASS
  1
ACAMGTITLESTD
  2
AcAmgTitleStd
  3
"TITLEAPP"
 90
        0
280
     0
281
     0
  0
CLASS
  1
ACAMGFILTERDAT
  2
AcAmgFilterDat
  3
"AcadM|Product Description: AutoCAD Mechanical 2000|Company: Autodesk"
 90
        0
280
     0
281
     0
  0
CLASS
  1
SORTENTSTABLE
  2
AcDbSortentsTable
  3
ObjectDBX Classes
 90
        0
280
     0
281
     0
  0
CLASS
  1
DICTIONARYVAR
  2
AcDbDictionaryVar
  3
ObjectDBX Classes
 90
        0
280
     0
281
     0
  0
CLASS
  1
ACDBPLACEHOLDER
  2
AcDbPlaceHolder
  3
ObjectDBX Classes
 90
        0
280
     0
281
     0
  0
CLASS
  1
LAYOUT
  2
AcDbLayout
  3
ObjectDBX Classes
 90
        0
280
     0
281
     0
  0
ENDSEC
  0
SECTION
  2
TABLES
  0
TABLE
  2
VPORT
  5
1451
330
0
100
AcDbSymbolTable
 70
     7
  0
VPORT
  5
1834
330
1451
100
AcDbSymbolTableRecord
100
AcDbViewportTableRecord
  2
*Active
 70
     0
 10
0.0
 20
0.0
 11
1.0
 21
1.0
 12
397.4670433118788
 22
378.7216209267749
 13
0.0
 23
0.0
 14
5.0
 24
5.0
 15
50.0
 25
50.0
 16
0.0
 26
0.0
 36
1.0
 17
0.0
 27
0.0
 37
0.0
 40
451.6799223492504
 41
1.494545454545454
 42
50.0
 43
0.0
 44
0.0
 50
0.0
 51
0.0
 71
     0
 72
  1000
 73
     1
 74
     1
 75
     0
 76
     0
 77
     0
 78
     0
281
     0
 65
     0
110
0.0
120
0.0
130
0.0
111
1.0
121
0.0
131
0.0
112
0.0
122
1.0
132
0.0
 79
     0
146
0.0
  0
ENDTAB
  0
TABLE
  2
LTYPE
  5
144E
330
0
100
AcDbSymbolTable
 70
    20
  0
LTYPE
  5
145B
330
144E
100
AcDbSymbolTableRecord
100
AcDbLinetypeTableRecord
  2
BYBLOCK
 70
     0
  3

 72
    65
 73
     0
 40
0.0
  0
LTYPE
  5
145C
330
144E
100
AcDbSymbolTableRecord
100
AcDbLinetypeTableRecord
  2
BYLAYER
 70
     0
  3

 72
    65
 73
     0
 40
0.0
  0
LTYPE
  5
145D
330
144E
100
AcDbSymbolTableRecord
100
AcDbLinetypeTableRecord
  2
CONTINUOUS
 70
     0
  3
Solid line
 72
    65
 73
     0
 40
0.0
  0
LTYPE
  5
146C
330
144E
100
AcDbSymbolTableRecord
100
AcDbLinetypeTableRecord
  2
GEN7
 70
     0
  3
____ _ ____ _ ____ _ ____ _ ____ _ ____ _ ____ _ ____ _ ____ _
 72
    65
 73
     4
 40
22.0
 49
10.75
 74
     0
 49
-3.75
 74
     0
 49
3.75
 74
     0
 49
-3.75
 74
     0
  0
LTYPE
  5
174F
330
144E
100
AcDbSymbolTableRecord
100
AcDbLinetypeTableRecord
  2
HIDDEN
 70
     0
  3
Verdeckt
 72
    65
 73
     2
 40
9.525
 49
6.349999999999999
 74
     0
 49
-3.174999999999999
 74
     0
  0
LTYPE
  5
1750
330
144E
100
AcDbSymbolTableRecord
100
AcDbLinetypeTableRecord
  2
PHANTOM2
 70
     0
  3
Phantom (.5x) ___ _ _ ___ _ _ ___ _ _ ___ _ _
 72
    65
 73
     6
 40
31.75
 49
15.875
 74
     0
 49
-3.174999999999999
 74
     0
 49
3.174999999999999
 74
     0
 49
-3.174999999999999
 74
     0
 49
3.174999999999999
 74
     0
 49
-3.174999999999999
 74
     0
  0
LTYPE
  5
1751
330
144E
100
AcDbSymbolTableRecord
100
AcDbLinetypeTableRecord
  2
CENTER
 70
     0
  3
Mitte ____ _ ____ _ ____ _ ____ _ ____ _ ____
 72
    65
 73
     4
 40
50.8
 49
31.75
 74
     0
 49
-6.349999999999999
 74
     0
 49
6.349999999999999
 74
     0
 49
-6.349999999999999
 74
     0
  0
LTYPE
  5
1788
330
144E
100
AcDbSymbolTableRecord
100
AcDbLinetypeTableRecord
  2
Amconstr
 70
     0
  3
_______________________
 72
    65
 73
     2
 40
9999.0
 49
9999.0
 74
     0
 49
0.0
 74
     0
  0
LTYPE
  5
178D
330
144E
100
AcDbSymbolTableRecord
100
AcDbLinetypeTableRecord
  2
Amzigzag
 70
     0
  3
/\/-/\/-/\/-/\/-/\/-/\/
 72
    65
 73
     2
 40
11.0001
 49
0.0001
 74
     4
 75
   136
340
178C
 46
0.04
 50
0.0
 44
0.0
 45
0.0
 49
-11.0
 74
     0
  0
LTYPE
  5
178E
330
144E
100
AcDbSymbolTableRecord
100
AcDbLinetypeTableRecord
  2
AM_DIN_F_W050
 70
     0
  3
__ __ __ __ __ __ __ __ __ __ __ __ __ __ __
 72
    65
 73
     2
 40
6.25
 49
4.75
 74
     0
 49
-1.5
 74
     0
  0
LTYPE
  5
178F
330
144E
100
AcDbSymbolTableRecord
100
AcDbLinetypeTableRecord
  2
AM_DIN_G_W050
 70
     0
  3
____ . ____ . ____ . ____ . ____ . ____ . ____
 72
    65
 73
     4
 40
13.75
 49
9.75
 74
     0
 49
-1.5
 74
     0
 49
1.0
 74
     0
 49
-1.5
 74
     0
  0
LTYPE
  5
1790
330
144E
100
AcDbSymbolTableRecord
100
AcDbLinetypeTableRecord
  2
AM_DIN_K_W050
 70
     0
  3
_____ . . _____ . . _____ . . ____ .. ____
 72
    65
 73
     6
 40
16.25
 49
9.75
 74
     0
 49
-1.5
 74
     0
 49
1.0
 74
     0
 49
-1.5
 74
     0
 49
1.0
 74
     0
 49
-1.5
 74
     0
  0
LTYPE
  5
1791
330
144E
100
AcDbSymbolTableRecord
100
AcDbLinetypeTableRecord
  2
AM_DIN_G_W050x2
 70
     0
  3
__ . __ . __ . __ . __ . __
 72
    65
 73
     4
 40
6.875
 49
4.75
 74
     0
 49
-0.875
 74
     0
 49
0.375
 74
     0
 49
-0.875
 74
     0
  0
LTYPE
  5
1792
330
144E
100
AcDbSymbolTableRecord
100
AcDbLinetypeTableRecord
  2
AM_DIN_F_W050x2
 70
     0
  3
 _ _ _ _ _ _ _ _ _ _ _ _
 72
    65
 73
     2
 40
3.125
 49
2.25
 74
     0
 49
-0.875
 74
     0
  0
LTYPE
  5
17A1
330
144E
100
AcDbSymbolTableRecord
100
AcDbLinetypeTableRecord
  2
ACDINWELD
 70
     0
  3
_ _ _ _ _
 72
    65
 73
     2
 40
2.0
 49
2.0
 74
     0
 49
-1.0
 74
     0
  0
LTYPE
  5
17A2
330
144E
100
AcDbSymbolTableRecord
100
AcDbLinetypeTableRecord
  2
ACDINTGB
 70
     0
  3
__ . . __ . .
 72
    65
 73
     6
 40
9.0
 49
4.0
 74
     0
 49
-1.0
 74
     0
 49
1.0
 74
     0
 49
-1.0
 74
     0
 49
1.0
 74
     0
 49
-1.0
 74
     0
  0
LTYPE
  5
17A3
330
144E
100
AcDbSymbolTableRecord
100
AcDbLinetypeTableRecord
  2
ACDINTGL
 70
     0
  3
_ _ _ _ _
 72
    65
 73
     2
 40
3.0
 49
2.0
 74
     0
 49
-1.0
 74
     0
  0
ENDTAB
  0
TABLE
  2
LAYER
  5
144B
330
0
100
AcDbSymbolTable
 70
    14
  0
LAYER
  5
1457
330
144B
100
AcDbSymbolTableRecord
100
AcDbLayerTableRecord
  2
0
 70
     0
 62
     7
  6
CONTINUOUS
370
    -3
390
1713
  0
LAYER
  5
1472
330
144B
100
AcDbSymbolTableRecord
100
AcDbLayerTableRecord
  2
4
 70
     0
 62
     3
  6
CONTINUOUS
370
    -3
390
1713
  0
LAYER
  5
1474
330
144B
100
AcDbSymbolTableRecord
100
AcDbLayerTableRecord
  2
5
 70
     0
 62
     3
  6
CONTINUOUS
370
    -3
390
1713
  0
LAYER
  5
1477
330
144B
100
AcDbSymbolTableRecord
100
AcDbLayerTableRecord
  2
8
 70
     0
 62
     1
  6
CONTINUOUS
370
    -3
390
1713
  0
LAYER
  5
1478
330
144B
100
AcDbSymbolTableRecord
100
AcDbLayerTableRecord
  2
PUNKTE
 70
     0
 62
     1
  6
CONTINUOUS
370
    -3
390
1713
  0
LAYER
  5
1479
330
144B
100
AcDbSymbolTableRecord
100
AcDbLayerTableRecord
  2
SCHRAFFUR_RAND
 70
     1
 62
    36
  6
CONTINUOUS
370
    -3
390
1713
  0
LAYER
  5
14AA
330
144B
100
AcDbSymbolTableRecord
100
AcDbLayerTableRecord
  2
DEFPOINTS
 70
     0
 62
     7
  6
CONTINUOUS
290
     0
370
    -3
390
1713
  0
LAYER
  5
14B0
330
144B
100
AcDbSymbolTableRecord
100
AcDbLayerTableRecord
  2
MAßLINIEN
 70
     0
 62
    30
  6
GEN7
370
    -3
390
1713
  0
ENDTAB
  0
TABLE
  2
STYLE
  5
144C
330
0
100
AcDbSymbolTable
 70
     4
  0
STYLE
  5
1458
330
144C
100
AcDbSymbolTableRecord
100
AcDbTextStyleTableRecord
  2
STANDARD
 70
     0
 40
0.0
 41
1.0
 50
0.0
 71
     0
 42
10.0
  3
ISOCP.SHX
  4

  0
STYLE
  5
178C
330
144C
100
AcDbSymbolTableRecord
100
AcDbTextStyleTableRecord
  2

 70
     1
 40
0.0
 41
1.0
 50
0.0
 71
     0
 42
0.2
  3
genltshp.shx
  4

  0
STYLE
  5
1793
330
144C
100
AcDbSymbolTableRecord
100
AcDbTextStyleTableRecord
  2
ACDINTS
 70
     0
 40
1.0
 41
1.0
 50
0.0
 71
     0
 42
0.2
  3
isocp.shx
  4

  0
STYLE
  5
17A0
330
144C
100
AcDbSymbolTableRecord
100
AcDbTextStyleTableRecord
  2
ACDINGDT
 70
     0
 40
0.0
 41
1.0
 50
0.0
 71
     0
 42
0.2
  3
AMGDT
  4

  0
ENDTAB
  0
TABLE
  2
VIEW
  5
144F
330
0
100
AcDbSymbolTable
 70
     6
  0
VIEW
  5
150B
330
144F
100
AcDbSymbolTableRecord
100
AcDbViewTableRecord
  2
GEN1
 70
     0
 40
525.0
 10
394.960474
 20
787.5
 41
789.920949
 11
0.0
 21
0.0
 31
1.0
 12
0.0
 22
0.0
 32
0.0
 42
50.0
 43
0.0
 44
0.0
 50
0.0
 71
     0
281
     0
 72
     0
  0
VIEW
  5
150C
330
144F
100
AcDbSymbolTableRecord
100
AcDbViewTableRecord
  2
GEN2
 70
     0
 40
525.0
 10
655.039526
 20
787.5
 41
789.920949
 11
0.0
 21
0.0
 31
1.0
 12
0.0
 22
0.0
 32
0.0
 42
50.0
 43
0.0
 44
0.0
 50
0.0
 71
     0
281
     0
 72
     0
  0
VIEW
  5
150D
330
144F
100
AcDbSymbolTableRecord
100
AcDbViewTableRecord
  2
GEN3
 70
     0
 40
525.0
 10
394.960474
 20
262.5
 41
789.920949
 11
0.0
 21
0.0
 31
1.0
 12
0.0
 22
0.0
 32
0.0
 42
50.0
 43
0.0
 44
0.0
 50
0.0
 71
     0
281
     0
 72
     0
  0
VIEW
  5
150E
330
144F
100
AcDbSymbolTableRecord
100
AcDbViewTableRecord
  2
GEN4
 70
     0
 40
525.0
 10
655.039526
 20
262.5
 41
789.920949
 11
0.0
 21
0.0
 31
1.0
 12
0.0
 22
0.0
 32
0.0
 42
50.0
 43
0.0
 44
0.0
 50
0.0
 71
     0
281
     0
 72
     0
  0
VIEW
  5
150F
330
144F
100
AcDbSymbolTableRecord
100
AcDbViewTableRecord
  2
GEN5
 70
     0
 40
525.0
 10
525.0
 20
525.0
 41
789.920949
 11
0.0
 21
0.0
 31
1.0
 12
0.0
 22
0.0
 32
0.0
 42
50.0
 43
0.0
 44
0.0
 50
0.0
 71
     0
281
     0
 72
     0
  0
VIEW
  5
1510
330
144F
100
AcDbSymbolTableRecord
100
AcDbViewTableRecord
  2
GEN6
 70
     0
 40
1049.9895
 10
525.0
 20
525.0
 41
1579.826099
 11
0.0
 21
0.0
 31
1.0
 12
0.0
 22
0.0
 32
0.0
 42
50.0
 43
0.0
 44
0.0
 50
0.0
 71
     0
281
     0
 72
     0
  0
ENDTAB
  0
TABLE
  2
UCS
  5
1450
330
0
100
AcDbSymbolTable
 70
     0
  0
ENDTAB
  0
TABLE
  2
APPID
  5
1452
330
0
100
AcDbSymbolTable
 70
    36
  0
APPID
  5
1459
330
1452
100
AcDbSymbolTableRecord
100
AcDbRegAppTableRecord
  2
ACAD
 70
     0
  0
APPID
  5
1497
330
1452
100
AcDbSymbolTableRecord
100
AcDbRegAppTableRecord
  2
GENIUS_GENOENT_13
 70
     0
  0
APPID
  5
1498
330
1452
100
AcDbSymbolTableRecord
100
AcDbRegAppTableRecord
  2
GENIUS_GENCFG_13
 70
     0
1001
GENIUS_GENCFG0_13
1000
GEN@INFO_POS@XLATE
1001
GENIUS_GENCFG1_13
1000
GEN@INFO_POS
1001
GENIUS_GENCFG2_13
1000
GEN@LAYER@DEFS
1001
GENIUS_GENCFG3_13
1000
GEN@LAYER@ENTSORT
1001
GENIUS_GENCFG4_13
1000
GEN
1001
GENIUS_GEVCFG0_13
1000
GEV
1001
GENIUS_DUMCFG0_13
1000
DUM
  0
APPID
  5
1499
330
1452
100
AcDbSymbolTableRecord
100
AcDbRegAppTableRecord
  2
GENIUS_DUMCFG0_13
 70
     0
1001
GENIUS_GENCFG_13
1071
921245634
1000
1499
1000
DUM
1070
     0
  0
APPID
  5
149A
330
1452
100
AcDbSymbolTableRecord
100
AcDbRegAppTableRecord
  2
GENIUS_GENCFG0_13
 70
     0
1001
GENIUS_GENCFG_13
1071
955726830
1000
149A
1000
GEN@INFO_POS@XLATE
1070
     8
1000
GenCfgObject
1000
GenCfgShort
1000
GenCfgReal
1000
GenCfgBool
1000
GenCfgString
1000
GenCfgDim
1000
GenCfgPoint
1000
GenCfgAttrInf
1000
INFOPOINTS
1070
     0
1002
{
1000
GENINF14
1070
     0
1002
{
1000
2GENINF
1070
     4
1000
2
1002
{
1002
}
1000
5GENINF
1070
     4
1000
5
1002
{
1002
}
1000
7GENINF
1070
     4
1000
7
1002
{
1002
}
1000
9GENINF
1070
     4
1000
9
1002
{
1002
}
1000
11GENINF
1070
     4
1000
11
1002
{
1002
}
1000
14GENINF
1070
     4
1000
14
1002
{
1002
}
1002
}
1000
GENINF13
1070
     0
1002
{
1000
2GENINF
1070
     4
1000
2
1002
{
1002
}
1000
3GENINF
1070
     4
1000
3
1002
{
1002
}
1000
4GENINF
1070
     4
1000
4
1002
{
1002
}
1000
5GENINF
1070
     4
1000
5
1002
{
1002
}
1000
6GENINF
1070
     4
1000
6
1002
{
1002
}
1000
7GENINF
1070
     4
1000
7
1002
{
1002
}
1000
8GENINF
1070
     4
1000
8
1002
{
1002
}
1000
9GENINF
1070
     4
1000
9
1002
{
1002
}
1000
10GENINF
1070
     4
1000
10
1002
{
1002
}
1000
11GENINF
1070
     4
1000
11
1002
{
1002
}
1000
12GENINF
1070
     4
1000
12
1002
{
1002
}
1000
13GENINF
1070
     4
1000
13
1002
{
1002
}
1000
14GENINF
1070
     4
1000
14
1002
{
1002
}
1000
15GENINF
1070
     4
1000
15
1002
{
1002
}
1000
16GENINF
1070
     4
1000
16
1002
{
1002
}
1000
17GENINF
1070
     4
1000
17
1002
{
1002
}
1000
18GENINF
1070
     4
1000
18
1002
{
1002
}
1000
19GENINF
1070
     4
1000
19
1002
{
1002
}
1000
20GENINF
1070
     4
1000
20
1002
{
1002
}
1000
21GENINF
1070
     4
1000
21
1002
{
1002
}
1000
22GENINF
1070
     4
1000
22
1002
{
1002
}
1000
23GENINF
1070
     4
1000
23
1002
{
1002
}
1000
24GENINF
1070
     4
1000
24
1002
{
1002
}
1000
0GENINF
1070
     4
1000
0
1002
{
1002
}
1002
}
1000
GENINFO
1070
     0
1002
{
1000
3GENINF
1070
     4
1000
3
1002
{
1002
}
1000
4GENINF
1070
     4
1000
4
1002
{
1002
}
1000
5GENINF
1070
     4
1000
5
1002
{
1002
}
1000
6GENINF
1070
     4
1000
6
1002
{
1002
}
1000
7GENINF
1070
     4
1000
7
1002
{
1002
}
1000
8GENINF
1070
     4
1000
8
1002
{
1002
}
1000
9GENINF
1070
     4
1000
9
1002
{
1002
}
1000
10GENINF
1070
     4
1000
10
1002
{
1002
}
1000
11GENINF
1070
     4
1000
11
1002
{
1002
}
1000
12GENINF
1070
     4
1000
12
1002
{
1002
}
1000
13GENINF
1070
     4
1000
13
1002
{
1002
}
1000
14GENINF
1070
     4
1000
14
1002
{
1002
}
1000
15GENINF
1070
     4
1000
15
1002
{
1002
}
1000
16GENINF
1070
     4
1000
16
1002
{
1002
}
1000
17GENINF
1070
     4
1000
17
1002
{
1002
}
1000
18GENINF
1070
     4
1000
18
1002
{
1002
}
1000
19GENINF
1070
     4
1000
19
1002
{
1002
}
1000
20GENINF
1070
     4
1000
20
1002
{
1002
}
1000
21GENINF
1070
     4
1000
21
1002
{
1002
}
1000
22GENINF
1070
     4
1000
22
1002
{
1002
}
1002
}
1000
DININFO
1070
     0
1002
{
1000
ST-NAME1
1070
     4
1000
5
1002
{
1002
}
1000
ST-NAME2
1070
     4
1000
6
1002
{
1002
}
1000
ST-NORM1
1070
     4
1000
7
1002
{
1002
}
1000
ST-NORM2
1070
     4
1000
8
1002
{
1002
}
1000
ST-MAT1
1070
     4
1000
9
1002
{
1002
}
1000
ST-MAT2
1070
     4
1000
10
1002
{
1002
}
1002
}
1002
}
1000
POS_NUMBERS
1070
     0
1002
{
1000
GENPOS14
1070
     0
1002
{
1000
1GENPOS
1070
     4
1000
1
1002
{
1002
}
1000
2GENPOS
1070
     4
1000
2
1002
{
1002
}
1000
5GENPOS
1070
     4
1000
5
1002
{
1002
}
1000
7GENPOS
1070
     4
1000
7
1002
{
1002
}
1000
9GENPOS
1070
     4
1000
9
1002
{
1002
}
1000
11GENPOS
1070
     4
1000
11
1002
{
1002
}
1000
14GENPOS
1070
     4
1000
14
1002
{
1002
}
1002
}
1000
GENPOS13
1070
     0
1002
{
1000
1GENPOS
1070
     4
1000
1
1002
{
1002
}
1000
2GENPOS
1070
     4
1000
2
1002
{
1002
}
1000
3GENPOS
1070
     4
1000
3
1002
{
1002
}
1000
4GENPOS
1070
     4
1000
4
1002
{
1002
}
1000
5GENPOS
1070
     4
1000
5
1002
{
1002
}
1000
6GENPOS
1070
     4
1000
6
1002
{
1002
}
1000
7GENPOS
1070
     4
1000
7
1002
{
1002
}
1000
8GENPOS
1070
     4
1000
8
1002
{
1002
}
1000
9GENPOS
1070
     4
1000
9
1002
{
1002
}
1000
10GENPOS
1070
     4
1000
10
1002
{
1002
}
1000
11GENPOS
1070
     4
1000
11
1002
{
1002
}
1000
12GENPOS
1070
     4
1000
12
1002
{
1002
}
1000
13GENPOS
1070
     4
1000
13
1002
{
1002
}
1000
14GENPOS
1070
     4
1000
14
1002
{
1002
}
1000
15GENPOS
1070
     4
1000
15
1002
{
1002
}
1000
16GENPOS
1070
     4
1000
16
1002
{
1002
}
1000
17GENPOS
1070
     4
1000
17
1002
{
1002
}
1000
18GENPOS
1070
     4
1000
18
1002
{
1002
}
1000
19GENPOS
1070
     4
1000
19
1002
{
1002
}
1000
20GENPOS
1070
     4
1000
20
1002
{
1002
}
1000
21GENPOS
1070
     4
1000
21
1002
{
1002
}
1000
22GENPOS
1070
     4
1000
22
1002
{
1002
}
1000
23GENPOS
1070
     4
1000
23
1002
{
1002
}
1000
24GENPOS
1070
     4
1000
24
1002
{
1002
}
1000
0GENPOS
1070
     4
1000
0
1002
{
1002
}
1002
}
1000
GENPOS
1070
     0
1002
{
1000
1GENPOS
1070
     4
1000
1
1002
{
1002
}
1000
2GENPOS
1070
     4
1000
2
1002
{
1002
}
1000
3GENPOS
1070
     4
1000
3
1002
{
1002
}
1000
4GENPOS
1070
     4
1000
4
1002
{
1002
}
1000
5GENPOS
1070
     4
1000
5
1002
{
1002
}
1000
6GENPOS
1070
     4
1000
6
1002
{
1002
}
1000
7GENPOS
1070
     4
1000
7
1002
{
1002
}
1000
8GENPOS
1070
     4
1000
8
1002
{
1002
}
1000
9GENPOS
1070
     4
1000
9
1002
{
1002
}
1000
10GENPOS
1070
     4
1000
10
1002
{
1002
}
1000
11GENPOS
1070
     4
1000
11
1002
{
1002
}
1000
12GENPOS
1070
     4
1000
12
1002
{
1002
}
1000
13GENPOS
1070
     4
1000
13
1002
{
1002
}
1000
14GENPOS
1070
     4
1000
14
1002
{
1002
}
1000
15GENPOS
1070
     4
1000
15
1002
{
1002
}
1000
16GENPOS
1070
     4
1000
16
1002
{
1002
}
1000
17GENPOS
1070
     4
1000
17
1002
{
1002
}
1000
18GENPOS
1070
     4
1000
18
1002
{
1002
}
1000
19GENPOS
1070
     4
1000
19
1002
{
1002
}
1000
20GENPOS
1070
     4
1000
20
1002
{
1002
}
1000
21GENPOS
1070
     4
1000
21
1002
{
1002
}
1000
22GENPOS
1070
     4
1000
22
1002
{
1002
}
1000
23GENPOS
1070
     4
1000
23
1002
{
1002
}
1002
}
1000
DIN985
1070
     0
1002
{
1000
POSITION
1070
     4
1000
1
1002
{
1002
}
1000
MENGE
1070
     4
1000
2
1002
{
1002
}
1000
BLATT
1070
     4
1000
3
1002
{
1002
}
1000
BENENN
1070
     4
1000
5
1002
{
1002
}
1000
BENENN2
1070
     4
1000
6
1002
{
1002
}
1000
NORM
1070
     4
1000
7
1002
{
1002
}
1000
NORM2
1070
     4
1000
8
1002
{
1002
}
1000
WERKSTOFF
1070
     4
1000
9
1002
{
1002
}
1000
WERKSTOFF2
1070
     4
1000
10
1002
{
1002
}
1002
}
1000
DIN986
1070
     0
1002
{
1000
POSITION
1070
     4
1000
1
1002
{
1002
}
1000
MENGE
1070
     4
1000
2
1002
{
1002
}
1000
BLATT
1070
     4
1000
3
1002
{
1002
}
1000
BENENN
1070
     4
1000
5
1002
{
1002
}
1000
BENENN2
1070
     4
1000
6
1002
{
1002
}
1000
NORM
1070
     4
1000
7
1002
{
1002
}
1000
NORM2
1070
     4
1000
8
1002
{
1002
}
1000
WERKSTOFF
1070
     4
1000
9
1002
{
1002
}
1000
WERKSTOFF2
1070
     4
1000
10
1002
{
1002
}
1002
}
1000
DIN987
1070
     0
1002
{
1000
POSITION
1070
     4
1000
1
1002
{
1002
}
1000
MENGE
1070
     4
1000
2
1002
{
1002
}
1000
BLATT
1070
     4
1000
3
1002
{
1002
}
1000
BENENN
1070
     4
1000
5
1002
{
1002
}
1000
BENENN2
1070
     4
1000
6
1002
{
1002
}
1000
NORM
1070
     4
1000
7
1002
{
1002
}
1000
NORM2
1070
     4
1000
8
1002
{
1002
}
1000
WERKSTOFF
1070
     4
1000
9
1002
{
1002
}
1000
WERKSTOFF2
1070
     4
1000
10
1002
{
1002
}
1002
}
1002
}
  0
APPID
  5
149B
330
1452
100
AcDbSymbolTableRecord
100
AcDbRegAppTableRecord
  2
GENIUS_GENCFG1_13
 70
     0
1001
GENIUS_GENCFG_13
1071
955726830
1000
149B
1000
GEN@INFO_POS
1070
     8
1000
GenCfgObject
1000
GenCfgShort
1000
GenCfgReal
1000
GenCfgBool
1000
GenCfgString
1000
GenCfgDim
1000
GenCfgPoint
1000
GenCfgAttrInf
1000
DescrText
1070
     4
1000
5, ,6, ,7, ,8
1002
{
1002
}
1000
DescrText2
1070
     4
1000
26
1002
{
1002
}
1000
VisibleAttr1
1070
     4
1000
1
1002
{
1002
}
1000
VisibleAttr2
1070
     4
1000
26
1002
{
1002
}
1000
UpdateBlock
1070
     3
1070
     1
1002
{
1002
}
1000
Attrib
1070
     0
1002
{
1000
0
1070
     7
1002
{
1000
Prompt
1070
     4
1000
(genmsg gendwg 103)
1002
{
1002
}
1000
Value
1070
     4
1000

1002
{
1002
}
1000
EditFlag
1070
     1
1070
     0
1002
{
1002
}
1000
PosInDDATTE
1070
     1
1070
    27
1002
{
1002
}
1000
FieldLen
1070
     1
1070
    -1
1002
{
1002
}
1002
}
1000
1
1070
     7
1002
{
1000
Prompt
1070
     4
1000
(genmsg gendwg 31)
1002
{
1002
}
1000
Value
1070
     4
1000
1
1002
{
1002
}
1000
EditFlag
1070
     1
1070
     1
1002
{
1002
}
1000
PosInDDATTE
1070
     1
1070
     1
1002
{
1002
}
1000
FieldLen
1070
     1
1070
    -1
1002
{
1002
}
1002
}
1000
2
1070
     7
1002
{
1000
Prompt
1070
     4
1000
(genmsg gendwg 32)
1002
{
1002
}
1000
Value
1070
     4
1000
1
1002
{
1002
}
1000
EditFlag
1070
     1
1070
     1
1002
{
1002
}
1000
PosInDDATTE
1070
     1
1070
     2
1002
{
1002
}
1000
FieldLen
1070
     1
1070
    -1
1002
{
1002
}
1002
}
1000
3
1070
     7
1002
{
1000
Prompt
1070
     4
1000
(genmsg gendwg 33)
1002
{
1002
}
1000
Value
1070
     4
1000

1002
{
1002
}
1000
EditFlag
1070
     1
1070
     1
1002
{
1002
}
1000
PosInDDATTE
1070
     1
1070
     3
1002
{
1002
}
1000
FieldLen
1070
     1
1070
    -1
1002
{
1002
}
1002
}
1000
4
1070
     7
1002
{
1000
Prompt
1070
     4
1000
(genmsg gendwg 34)
1002
{
1002
}
1000
Value
1070
     4
1000

1002
{
1002
}
1000
EditFlag
1070
     1
1070
     1
1002
{
1002
}
1000
PosInDDATTE
1070
     1
1070
     4
1002
{
1002
}
1000
FieldLen
1070
     1
1070
    -1
1002
{
1002
}
1002
}
1000
5
1070
     7
1002
{
1000
Prompt
1070
     4
1000
(genmsg gendwg 35)
1002
{
1002
}
1000
Value
1070
     4
1000

1002
{
1002
}
1000
EditFlag
1070
     1
1070
     1
1002
{
1002
}
1000
PosInDDATTE
1070
     1
1070
     5
1002
{
1002
}
1000
FieldLen
1070
     1
1070
    -1
1002
{
1002
}
1002
}
1000
6
1070
     7
1002
{
1000
Prompt
1070
     4
1000
(genmsg gendwg 36)
1002
{
1002
}
1000
Value
1070
     4
1000

1002
{
1002
}
1000
EditFlag
1070
     1
1070
     1
1002
{
1002
}
1000
PosInDDATTE
1070
     1
1070
     6
1002
{
1002
}
1000
FieldLen
1070
     1
1070
    -1
1002
{
1002
}
1002
}
1000
7
1070
     7
1002
{
1000
Prompt
1070
     4
1000
(genmsg gendwg 37)
1002
{
1002
}
1000
Value
1070
     4
1000

1002
{
1002
}
1000
EditFlag
1070
     1
1070
     1
1002
{
1002
}
1000
PosInDDATTE
1070
     1
1070
     7
1002
{
1002
}
1000
FieldLen
1070
     1
1070
    -1
1002
{
1002
}
1002
}
1000
8
1070
     7
1002
{
1000
Prompt
1070
     4
1000
(genmsg gendwg 38)
1002
{
1002
}
1000
Value
1070
     4
1000

1002
{
1002
}
1000
EditFlag
1070
     1
1070
     1
1002
{
1002
}
1000
PosInDDATTE
1070
     1
1070
     8
1002
{
1002
}
1000
FieldLen
1070
     1
1070
    -1
1002
{
1002
}
1002
}
1000
9
1070
     7
1002
{
1000
Prompt
1070
     4
1000
(genmsg gendwg 39)
1002
{
1002
}
1000
Value
1070
     4
1000

1002
{
1002
}
1000
EditFlag
1070
     1
1070
     1
1002
{
1002
}
1000
PosInDDATTE
1070
     1
1070
     9
1002
{
1002
}
1000
FieldLen
1070
     1
1070
    -1
1002
{
1002
}
1002
}
1000
10
1070
     7
1002
{
1000
Prompt
1070
     4
1000
(genmsg gendwg 40)
1002
{
1002
}
1000
Value
1070
     4
1000

1002
{
1002
}
1000
EditFlag
1070
     1
1070
     1
1002
{
1002
}
1000
PosInDDATTE
1070
     1
1070
    10
1002
{
1002
}
1000
FieldLen
1070
     1
1070
    -1
1002
{
1002
}
1002
}
1000
11
1070
     7
1002
{
1000
Prompt
1070
     4
1000
(genmsg gendwg 41)
1002
{
1002
}
1000
Value
1070
     4
1000

1002
{
1002
}
1000
EditFlag
1070
     1
1070
     1
1002
{
1002
}
1000
PosInDDATTE
1070
     1
1070
    11
1002
{
1002
}
1000
FieldLen
1070
     1
1070
    -1
1002
{
1002
}
1002
}
1000
12
1070
     7
1002
{
1000
Prompt
1070
     4
1000
(genmsg gendwg 42)
1002
{
1002
}
1000
Value
1070
     4
1000

1002
{
1002
}
1000
EditFlag
1070
     1
1070
     1
1002
{
1002
}
1000
PosInDDATTE
1070
     1
1070
    12
1002
{
1002
}
1000
FieldLen
1070
     1
1070
    -1
1002
{
1002
}
1002
}
1000
13
1070
     7
1002
{
1000
Prompt
1070
     4
1000
(genmsg gendwg 43)
1002
{
1002
}
1000
Value
1070
     4
1000

1002
{
1002
}
1000
EditFlag
1070
     1
1070
     1
1002
{
1002
}
1000
PosInDDATTE
1070
     1
1070
    13
1002
{
1002
}
1000
FieldLen
1070
     1
1070
    -1
1002
{
1002
}
1002
}
1000
14
1070
     7
1002
{
1000
Prompt
1070
     4
1000
(genmsg gendwg 44)
1002
{
1002
}
1000
Value
1070
     4
1000

1002
{
1002
}
1000
EditFlag
1070
     1
1070
     1
1002
{
1002
}
1000
PosInDDATTE
1070
     1
1070
    14
1002
{
1002
}
1000
FieldLen
1070
     1
1070
    -1
1002
{
1002
}
1002
}
1000
15
1070
     7
1002
{
1000
Prompt
1070
     4
1000
(genmsg gendwg 45)
1002
{
1002
}
1000
Value
1070
     4
1000

1002
{
1002
}
1000
EditFlag
1070
     1
1070
     1
1002
{
1002
}
1000
PosInDDATTE
1070
     1
1070
    15
1002
{
1002
}
1000
FieldLen
1070
     1
1070
    -1
1002
{
1002
}
1002
}
1000
16
1070
     7
1002
{
1000
Prompt
1070
     4
1000
(genmsg gendwg 46)
1002
{
1002
}
1000
Value
1070
     4
1000

1002
{
1002
}
1000
EditFlag
1070
     1
1070
     1
1002
{
1002
}
1000
PosInDDATTE
1070
     1
1070
    16
1002
{
1002
}
1000
FieldLen
1070
     1
1070
    -1
1002
{
1002
}
1002
}
1000
17
1070
     7
1002
{
1000
Prompt
1070
     4
1000
(genmsg gendwg 47)
1002
{
1002
}
1000
Value
1070
     4
1000

1002
{
1002
}
1000
EditFlag
1070
     1
1070
     1
1002
{
1002
}
1000
PosInDDATTE
1070
     1
1070
    17
1002
{
1002
}
1000
FieldLen
1070
     1
1070
    -1
1002
{
1002
}
1002
}
1000
18
1070
     7
1002
{
1000
Prompt
1070
     4
1000
(genmsg gendwg 48)
1002
{
1002
}
1000
Value
1070
     4
1000

1002
{
1002
}
1000
EditFlag
1070
     1
1070
     1
1002
{
1002
}
1000
PosInDDATTE
1070
     1
1070
    18
1002
{
1002
}
1000
FieldLen
1070
     1
1070
    -1
1002
{
1002
}
1002
}
1000
19
1070
     7
1002
{
1000
Prompt
1070
     4
1000
(genmsg gendwg 99)
1002
{
1002
}
1000
Value
1070
     4
1000

1002
{
1002
}
1000
EditFlag
1070
     1
1070
     1
1002
{
1002
}
1000
PosInDDATTE
1070
     1
1070
    19
1002
{
1002
}
1000
FieldLen
1070
     1
1070
    -1
1002
{
1002
}
1002
}
1000
20
1070
     7
1002
{
1000
Prompt
1070
     4
1000
(genmsg gendwg 100)
1002
{
1002
}
1000
Value
1070
     4
1000

1002
{
1002
}
1000
EditFlag
1070
     1
1070
     1
1002
{
1002
}
1000
PosInDDATTE
1070
     1
1070
    20
1002
{
1002
}
1000
FieldLen
1070
     1
1070
    -1
1002
{
1002
}
1002
}
1000
21
1070
     7
1002
{
1000
Prompt
1070
     4
1000
(genmsg gendwg 101)
1002
{
1002
}
1000
Value
1070
     4
1000

1002
{
1002
}
1000
EditFlag
1070
     1
1070
     1
1002
{
1002
}
1000
PosInDDATTE
1070
     1
1070
    21
1002
{
1002
}
1000
FieldLen
1070
     1
1070
    -1
1002
{
1002
}
1002
}
1000
22
1070
     7
1002
{
1000
Prompt
1070
     4
1000
(genmsg gendwg 102)
1002
{
1002
}
1000
Value
1070
     4
1000

1002
{
1002
}
1000
EditFlag
1070
     1
1070
     1
1002
{
1002
}
1000
PosInDDATTE
1070
     1
1070
    22
1002
{
1002
}
1000
FieldLen
1070
     1
1070
    -1
1002
{
1002
}
1002
}
1000
23
1070
     7
1002
{
1000
Prompt
1070
     4
1000
(genmsg gendwg 30)
1002
{
1002
}
1000
Value
1070
     4
1000

1002
{
1002
}
1000
EditFlag
1070
     1
1070
     1
1002
{
1002
}
1000
PosInDDATTE
1070
     1
1070
    23
1002
{
1002
}
1000
FieldLen
1070
     1
1070
    -1
1002
{
1002
}
1002
}
1000
24
1070
     7
1002
{
1000
Prompt
1070
     4
1000
(genmsg gendwg 104)
1002
{
1002
}
1000
Value
1070
     4
1000

1002
{
1002
}
1000
EditFlag
1070
     1
1070
     1
1002
{
1002
}
1000
PosInDDATTE
1070
     1
1070
    24
1002
{
1002
}
1000
FieldLen
1070
     1
1070
    -1
1002
{
1002
}
1002
}
1000
25
1070
     7
1002
{
1000
Prompt
1070
     4
1000
(genmsg gendwg 105)
1002
{
1002
}
1000
Value
1070
     4
1000

1002
{
1002
}
1000
EditFlag
1070
     1
1070
     1
1002
{
1002
}
1000
PosInDDATTE
1070
     1
1070
    25
1002
{
1002
}
1000
FieldLen
1070
     1
1070
    -1
1002
{
1002
}
1002
}
1000
26
1070
     7
1002
{
1000
Prompt
1070
     4
1000
(genmsg gendwg 106)
1002
{
1002
}
1000
Value
1070
     4
1000

1002
{
1002
}
1000
EditFlag
1070
     1
1070
     1
1002
{
1002
}
1000
PosInDDATTE
1070
     1
1070
    26
1002
{
1002
}
1000
FieldLen
1070
     1
1070
    -1
1002
{
1002
}
1002
}
1000
27
1070
     7
1002
{
1000
Prompt
1070
     4
1000
(genmsg gendwg 109)
1002
{
1002
}
1000
Value
1070
     4
1000

1002
{
1002
}
1000
EditFlag
1070
     1
1070
     2
1002
{
1002
}
1000
PosInDDATTE
1070
     1
1070
    27
1002
{
1002
}
1000
FieldLen
1070
     1
1070
    -1
1002
{
1002
}
1002
}
1002
}
1000
Xlate
1070
     0
1002
{
1000
>
1002
}
  0
APPID
  5
149C
330
1452
100
AcDbSymbolTableRecord
100
AcDbRegAppTableRecord
  2
GENIUS_GENCFG2_13
 70
     0
1001
GENIUS_GENCFG_13
1071
955726830
1000
149C
1000
GEN@LAYER@DEFS
1070
    10
1000
GenCfgObject
1000
GenCfgShort
1000
GenCfgReal
1000
GenCfgBool
1000
GenCfgString
1000
GenCfgDim
1000
GenCfgPoint
1000
GenCfgAttrInf
1000
GenCfgLaySection
1000
GenCfgLayer
1000
Basic
1070
     0
1002
{
1000
0
1070
     9
1000
0
1002
{
1000
Color
1070
     1
1070
     7
1002
{
1002
}
1000
LType
1070
     4
1000
CONTINUOUS
1002
{
1002
}
1000
Base
1070
     3
1070
     0
1002
{
1002
}
1002
}
1000
1
1070
     9
1000
1
1002
{
1000
Color
1070
     1
1070
    14
1002
{
1002
}
1000
LType
1070
     4
1000
CONTINUOUS
1002
{
1002
}
1000
Base
1070
     3
1070
     0
1002
{
1002
}
1002
}
1000
2
1070
     9
1000
2
1002
{
1000
Color
1070
     1
1070
     5
1002
{
1002
}
1000
LType
1070
     4
1000
CONTINUOUS
1002
{
1002
}
1000
Base
1070
     3
1070
     0
1002
{
1002
}
1002
}
1000
3
1070
     9
1000
3
1002
{
1000
Color
1070
     1
1070
     6
1002
{
1002
}
1000
LType
1070
     4
1000
GEN3
1002
{
1002
}
1000
Base
1070
     3
1070
     0
1002
{
1002
}
1002
}
1000
4
1070
     9
1000
4
1002
{
1000
Color
1070
     1
1070
     3
1002
{
1002
}
1000
LType
1070
     4
1000
CONTINUOUS
1002
{
1002
}
1000
Base
1070
     3
1070
     0
1002
{
1002
}
1002
}
1000
5
1070
     9
1000
5
1002
{
1000
Color
1070
     1
1070
     3
1002
{
1002
}
1000
LType
1070
     4
1000
CONTINUOUS
1002
{
1002
}
1000
Base
1070
     3
1070
     0
1002
{
1002
}
1002
}
1000
6
1070
     9
1000
6
1002
{
1000
Color
1070
     1
1070
     2
1002
{
1002
}
1000
LType
1070
     4
1000
CONTINUOUS
1002
{
1002
}
1000
Base
1070
     3
1070
     0
1002
{
1002
}
1002
}
1000
7
1070
     9
1000
7
1002
{
1000
Color
1070
     1
1070
     4
1002
{
1002
}
1000
LType
1070
     4
1000
GEN7
1002
{
1002
}
1000
Base
1070
     3
1070
     0
1002
{
1002
}
1002
}
1000
8
1070
     9
1000
8
1002
{
1000
Color
1070
     1
1070
     1
1002
{
1002
}
1000
LType
1070
     4
1000
CONTINUOUS
1002
{
1002
}
1000
Base
1070
     3
1070
     0
1002
{
1002
}
1002
}
1000
3A
1070
     9
1000
3A
1002
{
1000
Color
1070
     1
1070
     6
1002
{
1002
}
1000
LType
1070
     4
1000
GEN3A
1002
{
1002
}
1000
Base
1070
     3
1070
     0
1002
{
1002
}
1002
}
1000
7A
1070
     9
1000
7A
1002
{
1000
Color
1070
     1
1070
     4
1002
{
1002
}
1000
LType
1070
     4
1000
GEN7A
1002
{
1002
}
1000
Base
1070
     3
1070
     0
1002
{
1002
}
1002
}
1000
2A
1070
     9
1000
2A
1002
{
1000
Color
1070
     1
1070
     7
1002
{
1002
}
1000
LType
1070
     4
1000
GEN7
1002
{
1002
}
1000
Base
1070
     3
1070
     0
1002
{
1002
}
1002
}
1000
4A
1070
     9
1000
4A
1002
{
1000
Color
1070
     1
1070
     3
1002
{
1002
}
1000
LType
1070
     4
1000
GEN4A
1002
{
1002
}
1000
Base
1070
     3
1070
     0
1002
{
1002
}
1002
}
1000
9
1070
     9
1000
9
1002
{
1000
Color
1070
     1
1070
   253
1002
{
1002
}
1000
LType
1070
     4
1000
CONTINUOUS
1002
{
1002
}
1000
Base
1070
     3
1070
     0
1002
{
1002
}
1002
}
1000
IP
1070
     9
1000
IP
1002
{
1000
Color
1070
     1
1070
     7
1002
{
1002
}
1000
LType
1070
     4
1000
CONTINUOUS
1002
{
1002
}
1000
Base
1070
     3
1070
     0
1002
{
1002
}
1002
}
1002
}
1000
Standard
1070
     0
1002
{
1000
0N
1070
     9
1000
0N
1002
{
1000
Color
1070
     1
1070
     7
1002
{
1002
}
1000
LType
1070
     4
1000
CONTINUOUS
1002
{
1002
}
1000
Base
1070
     3
1070
     0
1002
{
1002
}
1002
}
1000
1N
1070
     9
1000
1N
1002
{
1000
Color
1070
     1
1070
    14
1002
{
1002
}
1000
LType
1070
     4
1000
CONTINUOUS
1002
{
1002
}
1000
Base
1070
     3
1070
     0
1002
{
1002
}
1002
}
1000
2N
1070
     9
1000
2N
1002
{
1000
Color
1070
     1
1070
     5
1002
{
1002
}
1000
LType
1070
     4
1000
CONTINUOUS
1002
{
1002
}
1000
Base
1070
     3
1070
     0
1002
{
1002
}
1002
}
1000
3N
1070
     9
1000
3N
1002
{
1000
Color
1070
     1
1070
     6
1002
{
1002
}
1000
LType
1070
     4
1000
GEN3
1002
{
1002
}
1000
Base
1070
     3
1070
     0
1002
{
1002
}
1002
}
1000
4N
1070
     9
1000
4N
1002
{
1000
Color
1070
     1
1070
     3
1002
{
1002
}
1000
LType
1070
     4
1000
CONTINUOUS
1002
{
1002
}
1000
Base
1070
     3
1070
     0
1002
{
1002
}
1002
}
1000
5N
1070
     9
1000
5N
1002
{
1000
Color
1070
     1
1070
     3
1002
{
1002
}
1000
LType
1070
     4
1000
CONTINUOUS
1002
{
1002
}
1000
Base
1070
     3
1070
     0
1002
{
1002
}
1002
}
1000
6N
1070
     9
1000
6N
1002
{
1000
Color
1070
     1
1070
     2
1002
{
1002
}
1000
LType
1070
     4
1000
CONTINUOUS
1002
{
1002
}
1000
Base
1070
     3
1070
     0
1002
{
1002
}
1002
}
1000
7N
1070
     9
1000
7N
1002
{
1000
Color
1070
     1
1070
     4
1002
{
1002
}
1000
LType
1070
     4
1000
GEN7
1002
{
1002
}
1000
Base
1070
     3
1070
     0
1002
{
1002
}
1002
}
1000
8N
1070
     9
1000
8N
1002
{
1000
Color
1070
     1
1070
     1
1002
{
1002
}
1000
LType
1070
     4
1000
CONTINUOUS
1002
{
1002
}
1000
Base
1070
     3
1070
     0
1002
{
1002
}
1002
}
1000
3AN
1070
     9
1000
3AN
1002
{
1000
Color
1070
     1
1070
     6
1002
{
1002
}
1000
LType
1070
     4
1000
GEN3A
1002
{
1002
}
1000
Base
1070
     3
1070
     0
1002
{
1002
}
1002
}
1000
7AN
1070
     9
1000
7AN
1002
{
1000
Color
1070
     1
1070
     4
1002
{
1002
}
1000
LType
1070
     4
1000
GEN7A
1002
{
1002
}
1000
Base
1070
     3
1070
     0
1002
{
1002
}
1002
}
1000
2AN
1070
     9
1000
2AN
1002
{
1000
Color
1070
     1
1070
     7
1002
{
1002
}
1000
LType
1070
     4
1000
GEN7
1002
{
1002
}
1000
Base
1070
     3
1070
     0
1002
{
1002
}
1002
}
1000
4AN
1070
     9
1000
4AN
1002
{
1000
Color
1070
     1
1070
     3
1002
{
1002
}
1000
LType
1070
     4
1000
GEN4A
1002
{
1002
}
1000
Base
1070
     3
1070
     0
1002
{
1002
}
1002
}
1000
9N
1070
     9
1000
9N
1002
{
1000
Color
1070
     1
1070
   253
1002
{
1002
}
1000
LType
1070
     4
1000
CONTINUOUS
1002
{
1002
}
1000
Base
1070
     3
1070
     0
1002
{
1002
}
1002
}
1000
IPN
1070
     9
1000
IPN
1002
{
1000
Color
1070
     1
1070
     7
1002
{
1002
}
1000
LType
1070
     4
1000
CONTINUOUS
1002
{
1002
}
1000
Base
1070
     3
1070
     0
1002
{
1002
}
1002
}
1002
}
1000
Extra
1070
     0
1002
{
1000
Klin
1070
     9
1000
KLIN
1002
{
1000
Color
1070
     1
1070
     1
1002
{
1002
}
1000
LType
1070
     4
1000
CONTINUOUS
1002
{
1002
}
1000
Base
1070
     3
1070
     1
1002
{
1002
}
1002
}
1000
Info
1070
     9
1000
INFO
1002
{
1000
Color
1070
     1
1070
     4
1002
{
1002
}
1000
LType
1070
     4
1000
CONTINUOUS
1002
{
1002
}
1000
Base
1070
     3
1070
     1
1002
{
1002
}
1002
}
1000
Rahm2
1070
     9
1000
RAHM2
1002
{
1000
Color
1070
     1
1070
     1
1002
{
1002
}
1000
LType
1070
     4
1000
CONTINUOUS
1002
{
1002
}
1000
Base
1070
     3
1070
     1
1002
{
1002
}
1002
}
1000
Rahm3
1070
     9
1000
RAHM3
1002
{
1000
Color
1070
     1
1070
     2
1002
{
1002
}
1000
LType
1070
     4
1000
CONTINUOUS
1002
{
1002
}
1000
Base
1070
     3
1070
     1
1002
{
1002
}
1002
}
1000
Rahm5
1070
     9
1000
RAHM5
1002
{
1000
Color
1070
     1
1070
     7
1002
{
1002
}
1000
LType
1070
     4
1000
CONTINUOUS
1002
{
1002
}
1000
Base
1070
     3
1070
     1
1002
{
1002
}
1002
}
1000
View
1070
     9
1000
VIEW
1002
{
1000
Color
1070
     1
1070
     1
1002
{
1002
}
1000
LType
1070
     4
1000
CONTINUOUS
1002
{
1002
}
1000
Base
1070
     3
1070
     1
1002
{
1002
}
1002
}
1000
Behind
1070
     9
1000
BEHIND
1002
{
1000
Color
1070
     1
1070
   253
1002
{
1002
}
1000
LType
1070
     4
1000
CONTINUOUS
1002
{
1002
}
1000
Base
1070
     3
1070
     1
1002
{
1002
}
1002
}
1002
}
  0
APPID
  5
149D
330
1452
100
AcDbSymbolTableRecord
100
AcDbRegAppTableRecord
  2
GENIUS_GENCFG3_13
 70
     0
1001
GENIUS_GENCFG_13
1071
955726830
1000
149D
1000
GEN@LAYER@ENTSORT
1070
    11
1000
GenCfgObject
1000
GenCfgShort
1000
GenCfgReal
1000
GenCfgBool
1000
GenCfgString
1000
GenCfgDim
1000
GenCfgPoint
1000
GenCfgAttrInf
1000
GenCfgLaySection
1000
GenCfgLayer
1000
GenCfgEntSort
1000
ADDL
1070
    10
1000
5
1002
{
1000
Class
1070
     4
1000
SYM
1002
{
1002
}
1000
Color
1070
     1
1070
     1
1002
{
1002
}
1000
LType
1070
     4
1000
BYLAYER
1002
{
1002
}
1002
}
1000
ALTR
1070
    10
1000
4
1002
{
1000
Class
1070
     4
1000

1002
{
1002
}
1000
Color
1070
     1
1070
     7
1002
{
1002
}
1000
LType
1070
     4
1000
GEN3A
1002
{
1002
}
1002
}
1000
BELI
1070
    10
1000
4
1002
{
1000
Class
1070
     4
1000

1002
{
1002
}
1000
Color
1070
     1
1070
   256
1002
{
1002
}
1000
LType
1070
     4
1000
BYLAYER
1002
{
1002
}
1002
}
1000
BHNV
1070
    10
1000
9
1002
{
1000
Class
1070
     4
1000
INV
1002
{
1002
}
1000
Color
1070
     1
1070
   256
1002
{
1002
}
1000
LType
1070
     4
1000
BYLAYER
1002
{
1002
}
1002
}
1000
BHNVS
1070
    10
1000
BEHIND
1002
{
1000
Class
1070
     4
1000
INV
1002
{
1002
}
1000
Color
1070
     1
1070
   256
1002
{
1002
}
1000
LType
1070
     4
1000
BYLAYER
1002
{
1002
}
1002
}
1000
BLID
1070
    10
1000
4A
1002
{
1000
Class
1070
     4
1000

1002
{
1002
}
1000
Color
1070
     1
1070
   256
1002
{
1002
}
1000
LType
1070
     4
1000
BYLAYER
1002
{
1002
}
1002
}
1000
BOAP
1070
    10
1000
4A
1002
{
1000
Class
1070
     4
1000

1002
{
1002
}
1000
Color
1070
     1
1070
   256
1002
{
1002
}
1000
LType
1070
     4
1000
BYLAYER
1002
{
1002
}
1002
}
1000
BOR2
1070
    10
1000
RAHM2
1002
{
1000
Class
1070
     4
1000
SPZ,SYM
1002
{
1002
}
1000
Color
1070
     1
1070
   256
1002
{
1002
}
1000
LType
1070
     4
1000
BYLAYER
1002
{
1002
}
1002
}
1000
BOR3
1070
    10
1000
RAHM3
1002
{
1000
Class
1070
     4
1000
SPZ,SYM
1002
{
1002
}
1000
Color
1070
     1
1070
   256
1002
{
1002
}
1000
LType
1070
     4
1000
BYLAYER
1002
{
1002
}
1002
}
1000
BOR5
1070
    10
1000
RAHM5
1002
{
1000
Class
1070
     4
1000
SPZ,SYM
1002
{
1002
}
1000
Color
1070
     1
1070
   256
1002
{
1002
}
1000
LType
1070
     4
1000
BYLAYER
1002
{
1002
}
1002
}
1000
BOR7
1070
    10
1000
RAHM5
1002
{
1000
Class
1070
     4
1000
SPZ,SYM
1002
{
1002
}
1000
Color
1070
     1
1070
     7
1002
{
1002
}
1000
LType
1070
     4
1000
CONTINUOUS
1002
{
1002
}
1002
}
1000
BPAP
1070
    10
1000
4A
1002
{
1000
Class
1070
     4
1000

1002
{
1002
}
1000
Color
1070
     1
1070
   256
1002
{
1002
}
1000
LType
1070
     4
1000
BYLAYER
1002
{
1002
}
1002
}
1000
BPEX
1070
    10
1000
4A
1002
{
1000
Class
1070
     4
1000

1002
{
1002
}
1000
Color
1070
     1
1070
   256
1002
{
1002
}
1000
LType
1070
     4
1000
BYLAYER
1002
{
1002
}
1002
}
1000
BTDI
1070
    10
1000
5
1002
{
1000
Class
1070
     4
1000
DIM,SYM
1002
{
1002
}
1000
Color
1070
     1
1070
   256
1002
{
1002
}
1000
LType
1070
     4
1000
BYLAYER
1002
{
1002
}
1002
}
1000
CAL2
1070
    10
1000
4
1002
{
1000
Class
1070
     4
1000
SYM
1002
{
1002
}
1000
Color
1070
     1
1070
   256
1002
{
1002
}
1000
LType
1070
     4
1000
BYLAYER
1002
{
1002
}
1002
}
1000
CAL3
1070
    10
1000
4
1002
{
1000
Class
1070
     4
1000
SYM
1002
{
1002
}
1000
Color
1070
     1
1070
     2
1002
{
1002
}
1000
LType
1070
     4
1000
BYLAYER
1002
{
1002
}
1002
}
1000
CAL5
1070
    10
1000
4
1002
{
1000
Class
1070
     4
1000
SYM
1002
{
1002
}
1000
Color
1070
     1
1070
     7
1002
{
1002
}
1000
LType
1070
     4
1000
BYLAYER
1002
{
1002
}
1002
}
1000
CAL7
1070
    10
1000
4
1002
{
1000
Class
1070
     4
1000
SYM
1002
{
1002
}
1000
Color
1070
     1
1070
     5
1002
{
1002
}
1000
LType
1070
     4
1000
BYLAYER
1002
{
1002
}
1002
}
1000
CENN
1070
    10
1000
7A
1002
{
1000
Class
1070
     4
1000
CEN
1002
{
1002
}
1000
Color
1070
     1
1070
   256
1002
{
1002
}
1000
LType
1070
     4
1000
BYLAYER
1002
{
1002
}
1002
}
1000
CENW
1070
    10
1000
7
1002
{
1000
Class
1070
     4
1000
CEN
1002
{
1002
}
1000
Color
1070
     1
1070
   256
1002
{
1002
}
1000
LType
1070
     4
1000
BYLAYER
1002
{
1002
}
1002
}
1000
CLIN
1070
    10
1000
KLIN
1002
{
1000
Class
1070
     4
1000
SPZ
1002
{
1002
}
1000
Color
1070
     1
1070
   256
1002
{
1002
}
1000
LType
1070
     4
1000
BYLAYER
1002
{
1002
}
1002
}
1000
CON1
1070
    10
1000
0
1002
{
1000
Class
1070
     4
1000
CON,BGD
1002
{
1002
}
1000
Color
1070
     1
1070
   256
1002
{
1002
}
1000
LType
1070
     4
1000
BYLAYER
1002
{
1002
}
1002
}
1000
CON2
1070
    10
1000
1
1002
{
1000
Class
1070
     4
1000
CON,BGD
1002
{
1002
}
1000
Color
1070
     1
1070
   256
1002
{
1002
}
1000
LType
1070
     4
1000
BYLAYER
1002
{
1002
}
1002
}
1000
CON3
1070
    10
1000
2
1002
{
1000
Class
1070
     4
1000
CON,BGD
1002
{
1002
}
1000
Color
1070
     1
1070
   256
1002
{
1002
}
1000
LType
1070
     4
1000
BYLAYER
1002
{
1002
}
1002
}
1000
CON4
1070
    10
1000
2
1002
{
1000
Class
1070
     4
1000
CON,BGD
1002
{
1002
}
1000
Color
1070
     1
1070
   256
1002
{
1002
}
1000
LType
1070
     4
1000
BYLAYER
1002
{
1002
}
1002
}
1000
DERP
1070
    10
1000
4
1002
{
1000
Class
1070
     4
1000

1002
{
1002
}
1000
Color
1070
     1
1070
   256
1002
{
1002
}
1000
LType
1070
     4
1000
BYLAYER
1002
{
1002
}
1002
}
1000
DETA
1070
    10
1000
4
1002
{
1000
Class
1070
     4
1000

1002
{
1002
}
1000
Color
1070
     1
1070
   256
1002
{
1002
}
1000
LType
1070
     4
1000
BYLAYER
1002
{
1002
}
1002
}
1000
DIAG
1070
    10
1000
5
1002
{
1000
Class
1070
     4
1000
SYM
1002
{
1002
}
1000
Color
1070
     1
1070
   256
1002
{
1002
}
1000
LType
1070
     4
1000
BYLAYER
1002
{
1002
}
1002
}
1000
DILI
1070
    10
1000
5
1002
{
1000
Class
1070
     4
1000
DIM,SYM
1002
{
1002
}
1000
Color
1070
     1
1070
   256
1002
{
1002
}
1000
LType
1070
     4
1000
BYLAYER
1002
{
1002
}
1002
}
1000
DITO2
1070
    10
1000
5
1002
{
1000
Class
1070
     4
1000
DIM,SYM
1002
{
1002
}
1000
Color
1070
     1
1070
     3
1002
{
1002
}
1000
LType
1070
     4
1000
BYLAYER
1002
{
1002
}
1002
}
1000
DITO3
1070
    10
1000
5
1002
{
1000
Class
1070
     4
1000
DIM,SYM
1002
{
1002
}
1000
Color
1070
     1
1070
     2
1002
{
1002
}
1000
LType
1070
     4
1000
BYLAYER
1002
{
1002
}
1002
}
1000
DITX
1070
    10
1000
5
1002
{
1000
Class
1070
     4
1000
DIM,SYM
1002
{
1002
}
1000
Color
1070
     1
1070
     2
1002
{
1002
}
1000
LType
1070
     4
1000
CONTINUOUS
1002
{
1002
}
1002
}
1000
DIXL
1070
    10
1000
5
1002
{
1000
Class
1070
     4
1000
DIM,SYM
1002
{
1002
}
1000
Color
1070
     1
1070
   256
1002
{
1002
}
1000
LType
1070
     4
1000
BYLAYER
1002
{
1002
}
1002
}
1000
EXMP
1070
    10
1000
4A
1002
{
1000
Class
1070
     4
1000

1002
{
1002
}
1000
Color
1070
     1
1070
   256
1002
{
1002
}
1000
LType
1070
     4
1000
BYLAYER
1002
{
1002
}
1002
}
1000
FEMN
1070
    10
1000
8
1002
{
1000
Class
1070
     4
1000

1002
{
1002
}
1000
Color
1070
     1
1070
   256
1002
{
1002
}
1000
LType
1070
     4
1000
BYLAYER
1002
{
1002
}
1002
}
1000
FEMPN
1070
    10
1000
8
1002
{
1000
Class
1070
     4
1000
SYM
1002
{
1002
}
1000
Color
1070
     1
1070
     3
1002
{
1002
}
1000
LType
1070
     4
1000
BYLAYER
1002
{
1002
}
1002
}
1000
FEMSP
1070
    10
1000
4A
1002
{
1000
Class
1070
     4
1000

1002
{
1002
}
1000
Color
1070
     1
1070
   256
1002
{
1002
}
1000
LType
1070
     4
1000
CONTINUOUS
1002
{
1002
}
1002
}
1000
FEMST
1070
    10
1000
4A
1002
{
1000
Class
1070
     4
1000
SYM
1002
{
1002
}
1000
Color
1070
     1
1070
     3
1002
{
1002
}
1000
LType
1070
     4
1000
BYLAYER
1002
{
1002
}
1002
}
1000
FEMVN
1070
    10
1000
2
1002
{
1000
Class
1070
     4
1000
CON
1002
{
1002
}
1000
Color
1070
     1
1070
   256
1002
{
1002
}
1000
LType
1070
     4
1000
BYLAYER
1002
{
1002
}
1002
}
1000
FEMVT
1070
    10
1000
2
1002
{
1000
Class
1070
     4
1000
SYM
1002
{
1002
}
1000
Color
1070
     1
1070
     3
1002
{
1002
}
1000
LType
1070
     4
1000
BYLAYER
1002
{
1002
}
1002
}
1000
FLAT
1070
    10
1000
0
1002
{
1000
Class
1070
     4
1000

1002
{
1002
}
1000
Color
1070
     1
1070
   256
1002
{
1002
}
1000
LType
1070
     4
1000
BYLAYER
1002
{
1002
}
1002
}
1000
FRAR
1070
    10
1000
4A
1002
{
1000
Class
1070
     4
1000

1002
{
1002
}
1000
Color
1070
     1
1070
   256
1002
{
1002
}
1000
LType
1070
     4
1000
BYLAYER
1002
{
1002
}
1002
}
1000
GRLI
1070
    10
1000
5
1002
{
1000
Class
1070
     4
1000
SYM
1002
{
1002
}
1000
Color
1070
     1
1070
   256
1002
{
1002
}
1000
LType
1070
     4
1000
BYLAYER
1002
{
1002
}
1002
}
1000
GVLI
1070
    10
1000
4A
1002
{
1000
Class
1070
     4
1000

1002
{
1002
}
1000
Color
1070
     1
1070
   256
1002
{
1002
}
1000
LType
1070
     4
1000
BYLAYER
1002
{
1002
}
1002
}
1000
HATC
1070
    10
1000
8
1002
{
1000
Class
1070
     4
1000
HTC,BGD
1002
{
1002
}
1000
Color
1070
     1
1070
   256
1002
{
1002
}
1000
LType
1070
     4
1000
BYLAYER
1002
{
1002
}
1002
}
1000
HIDN
1070
    10
1000
3A
1002
{
1000
Class
1070
     4
1000
HID,BGD
1002
{
1002
}
1000
Color
1070
     1
1070
   256
1002
{
1002
}
1000
LType
1070
     4
1000
BYLAYER
1002
{
1002
}
1002
}
1000
HIDW
1070
    10
1000
3
1002
{
1000
Class
1070
     4
1000
HID,BGD
1002
{
1002
}
1000
Color
1070
     1
1070
   256
1002
{
1002
}
1000
LType
1070
     4
1000
BYLAYER
1002
{
1002
}
1002
}
1000
HLIN
1070
    10
1000
4
1002
{
1000
Class
1070
     4
1000
BGD
1002
{
1002
}
1000
Color
1070
     1
1070
   256
1002
{
1002
}
1000
LType
1070
     4
1000
BYLAYER
1002
{
1002
}
1002
}
1000
HOCN
1070
    10
1000
7A
1002
{
1000
Class
1070
     4
1000
CEN
1002
{
1002
}
1000
Color
1070
     1
1070
   256
1002
{
1002
}
1000
LType
1070
     4
1000
BYLAYER
1002
{
1002
}
1002
}
1000
HOCW
1070
    10
1000
7
1002
{
1000
Class
1070
     4
1000
CEN
1002
{
1002
}
1000
Color
1070
     1
1070
   256
1002
{
1002
}
1000
LType
1070
     4
1000
BYLAYER
1002
{
1002
}
1002
}
1000
INFO
1070
    10
1000
INFO
1002
{
1000
Class
1070
     4
1000
SPZ,SYM
1002
{
1002
}
1000
Color
1070
     1
1070
   256
1002
{
1002
}
1000
LType
1070
     4
1000
BYLAYER
1002
{
1002
}
1002
}
1000
LADI
1070
    10
1000
4
1002
{
1000
Class
1070
     4
1000
BGD
1002
{
1002
}
1000
Color
1070
     1
1070
   256
1002
{
1002
}
1000
LType
1070
     4
1000
BYLAYER
1002
{
1002
}
1002
}
1000
LEAD
1070
    10
1000
5
1002
{
1000
Class
1070
     4
1000
SYM
1002
{
1002
}
1000
Color
1070
     1
1070
   256
1002
{
1002
}
1000
LType
1070
     4
1000
BYLAYER
1002
{
1002
}
1002
}
1000
N_ADDL
1070
    10
1000
5N
1002
{
1000
Class
1070
     4
1000
SYM
1002
{
1002
}
1000
Color
1070
     1
1070
     1
1002
{
1002
}
1000
LType
1070
     4
1000
BYLAYER
1002
{
1002
}
1002
}
1000
N_BHNV
1070
    10
1000
9N
1002
{
1000
Class
1070
     4
1000
INV
1002
{
1002
}
1000
Color
1070
     1
1070
   256
1002
{
1002
}
1000
LType
1070
     4
1000
BYLAYER
1002
{
1002
}
1002
}
1000
N_CON1
1070
    10
1000
0N
1002
{
1000
Class
1070
     4
1000
CON,BGD
1002
{
1002
}
1000
Color
1070
     1
1070
   256
1002
{
1002
}
1000
LType
1070
     4
1000
BYLAYER
1002
{
1002
}
1002
}
1000
N_CON2
1070
    10
1000
1N
1002
{
1000
Class
1070
     4
1000
CON,BGD
1002
{
1002
}
1000
Color
1070
     1
1070
   256
1002
{
1002
}
1000
LType
1070
     4
1000
BYLAYER
1002
{
1002
}
1002
}
1000
N_CON3
1070
    10
1000
2N
1002
{
1000
Class
1070
     4
1000
CON,BGD
1002
{
1002
}
1000
Color
1070
     1
1070
   256
1002
{
1002
}
1000
LType
1070
     4
1000
BYLAYER
1002
{
1002
}
1002
}
1000
N_CON4
1070
    10
1000
2N
1002
{
1000
Class
1070
     4
1000
CON,BGD
1002
{
1002
}
1000
Color
1070
     1
1070
   256
1002
{
1002
}
1000
LType
1070
     4
1000
BYLAYER
1002
{
1002
}
1002
}
1000
N_CENN
1070
    10
1000
7AN
1002
{
1000
Class
1070
     4
1000
CEN
1002
{
1002
}
1000
Color
1070
     1
1070
   256
1002
{
1002
}
1000
LType
1070
     4
1000
BYLAYER
1002
{
1002
}
1002
}
1000
N_CENW
1070
    10
1000
7N
1002
{
1000
Class
1070
     4
1000
CEN
1002
{
1002
}
1000
Color
1070
     1
1070
   256
1002
{
1002
}
1000
LType
1070
     4
1000
BYLAYER
1002
{
1002
}
1002
}
1000
N_DILI
1070
    10
1000
5N
1002
{
1000
Class
1070
     4
1000
DIM,SYM
1002
{
1002
}
1000
Color
1070
     1
1070
   256
1002
{
1002
}
1000
LType
1070
     4
1000
BYLAYER
1002
{
1002
}
1002
}
1000
N_DITX
1070
    10
1000
5N
1002
{
1000
Class
1070
     4
1000
DIM,SYM
1002
{
1002
}
1000
Color
1070
     1
1070
     2
1002
{
1002
}
1000
LType
1070
     4
1000
CONTINUOUS
1002
{
1002
}
1002
}
1000
N_DIXL
1070
    10
1000
5N
1002
{
1000
Class
1070
     4
1000
DIM,SYM
1002
{
1002
}
1000
Color
1070
     1
1070
   256
1002
{
1002
}
1000
LType
1070
     4
1000
BYLAYER
1002
{
1002
}
1002
}
1000
N_HATC
1070
    10
1000
8N
1002
{
1000
Class
1070
     4
1000
HTC,BGD
1002
{
1002
}
1000
Color
1070
     1
1070
   256
1002
{
1002
}
1000
LType
1070
     4
1000
BYLAYER
1002
{
1002
}
1002
}
1000
N_HIDN
1070
    10
1000
3AN
1002
{
1000
Class
1070
     4
1000
HID,BGD
1002
{
1002
}
1000
Color
1070
     1
1070
   256
1002
{
1002
}
1000
LType
1070
     4
1000
BYLAYER
1002
{
1002
}
1002
}
1000
N_HIDW
1070
    10
1000
3N
1002
{
1000
Class
1070
     4
1000
HID,BGD
1002
{
1002
}
1000
Color
1070
     1
1070
   256
1002
{
1002
}
1000
LType
1070
     4
1000
BYLAYER
1002
{
1002
}
1002
}
1000
N_NGIP
1070
    10
1000
IPN
1002
{
1000
Class
1070
     4
1000

1002
{
1002
}
1000
Color
1070
     1
1070
   256
1002
{
1002
}
1000
LType
1070
     4
1000
BYLAYER
1002
{
1002
}
1002
}
1000
N_PHAN
1070
    10
1000
4AN
1002
{
1000
Class
1070
     4
1000

1002
{
1002
}
1000
Color
1070
     1
1070
   256
1002
{
1002
}
1000
LType
1070
     4
1000
BYLAYER
1002
{
1002
}
1002
}
1000
N_POSL
1070
    10
1000
5N
1002
{
1000
Class
1070
     4
1000
SYM
1002
{
1002
}
1000
Color
1070
     1
1070
   256
1002
{
1002
}
1000
LType
1070
     4
1000
BYLAYER
1002
{
1002
}
1002
}
1000
N_TCON
1070
    10
1000
0N
1002
{
1000
Class
1070
     4
1000
CON,BGD
1002
{
1002
}
1000
Color
1070
     1
1070
   256
1002
{
1002
}
1000
LType
1070
     4
1000
BYLAYER
1002
{
1002
}
1002
}
1000
N_THLI
1070
    10
1000
4N
1002
{
1000
Class
1070
     4
1000
BGD
1002
{
1002
}
1000
Color
1070
     1
1070
   256
1002
{
1002
}
1000
LType
1070
     4
1000
BYLAYER
1002
{
1002
}
1002
}
1000
N_TLEN
1070
    10
1000
0N
1002
{
1000
Class
1070
     4
1000
CON,BGD
1002
{
1002
}
1000
Color
1070
     1
1070
   256
1002
{
1002
}
1000
LType
1070
     4
1000
BYLAYER
1002
{
1002
}
1002
}
1000
N_TXT3
1070
    10
1000
6N
1002
{
1000
Class
1070
     4
1000
SYM
1002
{
1002
}
1000
Color
1070
     1
1070
   256
1002
{
1002
}
1000
LType
1070
     4
1000
BYLAYER
1002
{
1002
}
1002
}
1000
N_VPLI
1070
    10
1000
2AN
1002
{
1000
Class
1070
     4
1000

1002
{
1002
}
1000
Color
1070
     1
1070
   256
1002
{
1002
}
1000
LType
1070
     4
1000
BYLAYER
1002
{
1002
}
1002
}
1000
NGIP
1070
    10
1000
IP
1002
{
1000
Class
1070
     4
1000

1002
{
1002
}
1000
Color
1070
     1
1070
   256
1002
{
1002
}
1000
LType
1070
     4
1000
BYLAYER
1002
{
1002
}
1002
}
1000
PAL2
1070
    10
1000
RAHM2
1002
{
1000
Class
1070
     4
1000
SPZ,SYM
1002
{
1002
}
1000
Color
1070
     1
1070
   256
1002
{
1002
}
1000
LType
1070
     4
1000
BYLAYER
1002
{
1002
}
1002
}
1000
PAL3
1070
    10
1000
RAHM3
1002
{
1000
Class
1070
     4
1000
SPZ,SYM
1002
{
1002
}
1000
Color
1070
     1
1070
   256
1002
{
1002
}
1000
LType
1070
     4
1000
BYLAYER
1002
{
1002
}
1002
}
1000
PAL5
1070
    10
1000
RAHM5
1002
{
1000
Class
1070
     4
1000
SPZ,SYM
1002
{
1002
}
1000
Color
1070
     1
1070
   256
1002
{
1002
}
1000
LType
1070
     4
1000
BYLAYER
1002
{
1002
}
1002
}
1000
PAL7
1070
    10
1000
RAHM5
1002
{
1000
Class
1070
     4
1000
SPZ,SYM
1002
{
1002
}
1000
Color
1070
     1
1070
     7
1002
{
1002
}
1000
LType
1070
     4
1000
CONTINUOUS
1002
{
1002
}
1002
}
1000
PHAN
1070
    10
1000
4A
1002
{
1000
Class
1070
     4
1000

1002
{
1002
}
1000
Color
1070
     1
1070
   256
1002
{
1002
}
1000
LType
1070
     4
1000
BYLAYER
1002
{
1002
}
1002
}
1000
POSL
1070
    10
1000
5
1002
{
1000
Class
1070
     4
1000
SYM
1002
{
1002
}
1000
Color
1070
     1
1070
   256
1002
{
1002
}
1000
LType
1070
     4
1000
BYLAYER
1002
{
1002
}
1002
}
1000
POSN
1070
    10
1000
6
1002
{
1000
Class
1070
     4
1000
SYM
1002
{
1002
}
1000
Color
1070
     1
1070
     7
1002
{
1002
}
1000
LType
1070
     4
1000
BYLAYER
1002
{
1002
}
1002
}
1000
POSREF
1070
    10
1000
6
1002
{
1000
Class
1070
     4
1000
SYM
1002
{
1002
}
1000
Color
1070
     1
1070
     5
1002
{
1002
}
1000
LType
1070
     4
1000
BYLAYER
1002
{
1002
}
1002
}
1000
POSX
1070
    10
1000
5
1002
{
1000
Class
1070
     4
1000
SYM
1002
{
1002
}
1000
Color
1070
     1
1070
     2
1002
{
1002
}
1000
LType
1070
     4
1000
CONTINUOUS
1002
{
1002
}
1002
}
1000
PSEC
1070
    10
1000
4A
1002
{
1000
Class
1070
     4
1000

1002
{
1002
}
1000
Color
1070
     1
1070
   256
1002
{
1002
}
1000
LType
1070
     4
1000
BYLAYER
1002
{
1002
}
1002
}
1000
RCGN
1070
    10
1000
7A
1002
{
1000
Class
1070
     4
1000
CEN
1002
{
1002
}
1000
Color
1070
     1
1070
   256
1002
{
1002
}
1000
LType
1070
     4
1000
BYLAYER
1002
{
1002
}
1002
}
1000
RCGW
1070
    10
1000
7
1002
{
1000
Class
1070
     4
1000
CEN
1002
{
1002
}
1000
Color
1070
     1
1070
   256
1002
{
1002
}
1000
LType
1070
     4
1000
BYLAYER
1002
{
1002
}
1002
}
1000
RFDI
1070
    10
1000
4
1002
{
1000
Class
1070
     4
1000
BGD
1002
{
1002
}
1000
Color
1070
     1
1070
   256
1002
{
1002
}
1000
LType
1070
     4
1000
BYLAYER
1002
{
1002
}
1002
}
1000
RQTR
1070
    10
1000
4
1002
{
1000
Class
1070
     4
1000

1002
{
1002
}
1000
Color
1070
     1
1070
     7
1002
{
1002
}
1000
LType
1070
     4
1000
GEN7A
1002
{
1002
}
1002
}
1000
RSBO
1070
    10
1000
4
1002
{
1000
Class
1070
     4
1000
BGD
1002
{
1002
}
1000
Color
1070
     1
1070
   256
1002
{
1002
}
1000
LType
1070
     4
1000
BYLAYER
1002
{
1002
}
1002
}
1000
SBRK
1070
    10
1000
4
1002
{
1000
Class
1070
     4
1000
BGD
1002
{
1002
}
1000
Color
1070
     1
1070
   256
1002
{
1002
}
1000
LType
1070
     4
1000
BYLAYER
1002
{
1002
}
1002
}
1000
SCEN
1070
    10
1000
7
1002
{
1000
Class
1070
     4
1000

1002
{
1002
}
1000
Color
1070
     1
1070
   256
1002
{
1002
}
1000
LType
1070
     4
1000
CONTINUOUS
1002
{
1002
}
1002
}
1000
SECT
1070
    10
1000
4
1002
{
1000
Class
1070
     4
1000
BGD
1002
{
1002
}
1000
Color
1070
     1
1070
   256
1002
{
1002
}
1000
LType
1070
     4
1000
BYLAYER
1002
{
1002
}
1002
}
1000
SELN
1070
    10
1000
7A
1002
{
1000
Class
1070
     4
1000

1002
{
1002
}
1000
Color
1070
     1
1070
   256
1002
{
1002
}
1000
LType
1070
     4
1000
BYLAYER
1002
{
1002
}
1002
}
1000
SELW
1070
    10
1000
7
1002
{
1000
Class
1070
     4
1000

1002
{
1002
}
1000
Color
1070
     1
1070
   256
1002
{
1002
}
1000
LType
1070
     4
1000
BYLAYER
1002
{
1002
}
1002
}
1000
SSYS
1070
    10
1000
0
1002
{
1000
Class
1070
     4
1000

1002
{
1002
}
1000
Color
1070
     1
1070
   256
1002
{
1002
}
1000
LType
1070
     4
1000
BYLAYER
1002
{
1002
}
1002
}
1000
STLI
1070
    10
1000
4
1002
{
1000
Class
1070
     4
1000

1002
{
1002
}
1000
Color
1070
     1
1070
     7
1002
{
1002
}
1000
LType
1070
     4
1000
GEN3A
1002
{
1002
}
1002
}
1000
SYB1
1070
    10
1000
5
1002
{
1000
Class
1070
     4
1000
SYM
1002
{
1002
}
1000
Color
1070
     1
1070
   256
1002
{
1002
}
1000
LType
1070
     4
1000
BYLAYER
1002
{
1002
}
1002
}
1000
SYB2
1070
    10
1000
5
1002
{
1000
Class
1070
     4
1000
SYM
1002
{
1002
}
1000
Color
1070
     1
1070
   256
1002
{
1002
}
1000
LType
1070
     4
1000
BYLAYER
1002
{
1002
}
1002
}
1000
SYB3
1070
    10
1000
6
1002
{
1000
Class
1070
     4
1000
SYM
1002
{
1002
}
1000
Color
1070
     1
1070
   256
1002
{
1002
}
1000
LType
1070
     4
1000
CONTINUOUS
1002
{
1002
}
1002
}
1000
SYB5
1070
    10
1000
5
1002
{
1000
Class
1070
     4
1000
SYM
1002
{
1002
}
1000
Color
1070
     1
1070
     7
1002
{
1002
}
1000
LType
1070
     4
1000
BYLAYER
1002
{
1002
}
1002
}
1000
SYMN
1070
    10
1000
7A
1002
{
1000
Class
1070
     4
1000
CEN
1002
{
1002
}
1000
Color
1070
     1
1070
   256
1002
{
1002
}
1000
LType
1070
     4
1000
BYLAYER
1002
{
1002
}
1002
}
1000
SYMW
1070
    10
1000
7
1002
{
1000
Class
1070
     4
1000
CEN
1002
{
1002
}
1000
Color
1070
     1
1070
   256
1002
{
1002
}
1000
LType
1070
     4
1000
BYLAYER
1002
{
1002
}
1002
}
1000
TCON
1070
    10
1000
0
1002
{
1000
Class
1070
     4
1000
CON,BGD
1002
{
1002
}
1000
Color
1070
     1
1070
   256
1002
{
1002
}
1000
LType
1070
     4
1000
BYLAYER
1002
{
1002
}
1002
}
1000
THLI
1070
    10
1000
4
1002
{
1000
Class
1070
     4
1000
BGD
1002
{
1002
}
1000
Color
1070
     1
1070
   256
1002
{
1002
}
1000
LType
1070
     4
1000
BYLAYER
1002
{
1002
}
1002
}
1000
TIT2
1070
    10
1000
RAHM2
1002
{
1000
Class
1070
     4
1000
SPZ,SYM
1002
{
1002
}
1000
Color
1070
     1
1070
   256
1002
{
1002
}
1000
LType
1070
     4
1000
BYLAYER
1002
{
1002
}
1002
}
1000
TIT3
1070
    10
1000
RAHM3
1002
{
1000
Class
1070
     4
1000
SPZ,SYM
1002
{
1002
}
1000
Color
1070
     1
1070
   256
1002
{
1002
}
1000
LType
1070
     4
1000
BYLAYER
1002
{
1002
}
1002
}
1000
TIT5
1070
    10
1000
RAHM5
1002
{
1000
Class
1070
     4
1000
SPZ,SYM
1002
{
1002
}
1000
Color
1070
     1
1070
   256
1002
{
1002
}
1000
LType
1070
     4
1000
BYLAYER
1002
{
1002
}
1002
}
1000
TIT7
1070
    10
1000
RAHM5
1002
{
1000
Class
1070
     4
1000
SPZ,SYM
1002
{
1002
}
1000
Color
1070
     1
1070
     7
1002
{
1002
}
1000
LType
1070
     4
1000
CONTINUOUS
1002
{
1002
}
1002
}
1000
TLEN
1070
    10
1000
0
1002
{
1000
Class
1070
     4
1000
CON,BGD
1002
{
1002
}
1000
Color
1070
     1
1070
   256
1002
{
1002
}
1000
LType
1070
     4
1000
BYLAYER
1002
{
1002
}
1002
}
1000
TRKN
1070
    10
1000
7A
1002
{
1000
Class
1070
     4
1000

1002
{
1002
}
1000
Color
1070
     1
1070
   256
1002
{
1002
}
1000
LType
1070
     4
1000
BYLAYER
1002
{
1002
}
1002
}
1000
TRKW
1070
    10
1000
7
1002
{
1000
Class
1070
     4
1000

1002
{
1002
}
1000
Color
1070
     1
1070
   256
1002
{
1002
}
1000
LType
1070
     4
1000
BYLAYER
1002
{
1002
}
1002
}
1000
TRLI
1070
    10
1000
4
1002
{
1000
Class
1070
     4
1000
BGD
1002
{
1002
}
1000
Color
1070
     1
1070
   256
1002
{
1002
}
1000
LType
1070
     4
1000
BYLAYER
1002
{
1002
}
1002
}
1000
TXT1
1070
    10
1000
6
1002
{
1000
Class
1070
     4
1000
SYM
1002
{
1002
}
1000
Color
1070
     1
1070
     2
1002
{
1002
}
1000
LType
1070
     4
1000
BYLAYER
1002
{
1002
}
1002
}
1000
TXT2
1070
    10
1000
6
1002
{
1000
Class
1070
     4
1000
SYM
1002
{
1002
}
1000
Color
1070
     1
1070
     2
1002
{
1002
}
1000
LType
1070
     4
1000
BYLAYER
1002
{
1002
}
1002
}
1000
TXT3
1070
    10
1000
6
1002
{
1000
Class
1070
     4
1000
SYM
1002
{
1002
}
1000
Color
1070
     1
1070
   256
1002
{
1002
}
1000
LType
1070
     4
1000
BYLAYER
1002
{
1002
}
1002
}
1000
TXT5
1070
    10
1000
6
1002
{
1000
Class
1070
     4
1000
SYM
1002
{
1002
}
1000
Color
1070
     1
1070
     7
1002
{
1002
}
1000
LType
1070
     4
1000
BYLAYER
1002
{
1002
}
1002
}
1000
TXT7
1070
    10
1000
6
1002
{
1000
Class
1070
     4
1000
SYM
1002
{
1002
}
1000
Color
1070
     1
1070
     7
1002
{
1002
}
1000
LType
1070
     4
1000
BYLAYER
1002
{
1002
}
1002
}
1000
VIEW
1070
    10
1000
VIEW
1002
{
1000
Class
1070
     4
1000
SPZ
1002
{
1002
}
1000
Color
1070
     1
1070
   256
1002
{
1002
}
1000
LType
1070
     4
1000
BYLAYER
1002
{
1002
}
1002
}
1000
VPLI
1070
    10
1000
2A
1002
{
1000
Class
1070
     4
1000

1002
{
1002
}
1000
Color
1070
     1
1070
   256
1002
{
1002
}
1000
LType
1070
     4
1000
BYLAYER
1002
{
1002
}
1002
}
1000
ZIZA
1070
    10
1000
4
1002
{
1000
Class
1070
     4
1000
BGD
1002
{
1002
}
1000
Color
1070
     1
1070
   256
1002
{
1002
}
1000
LType
1070
     4
1000
GENZIGZAG
1002
{
1002
}
1002
}
  0
APPID
  5
149E
330
1452
100
AcDbSymbolTableRecord
100
AcDbRegAppTableRecord
  2
GENIUS_GENCFG4_13
 70
     0
1001
GENIUS_GENCFG_13
1071
1020869840
1000
149E
1000
GEN
1070
     9
1000
GenCfgObject
1000
GenCfgShort
1000
GenCfgReal
1000
GenCfgBool
1000
GenCfgString
1000
GenCfgDim
1000
GenCfgLaySection
1000
GenCfgLType
1000
GenCfgFilter
1000
Balloon
1070
     0
1002
{
1000
GenIF
1070
     1
1070
     0
1002
{
1002
}
1000
GenPosInc
1070
     1
1070
     1
1002
{
1002
}
1000
GenPosBlk
1070
     1
1070
     8
1002
{
1002
}
1000
GenPosVar
1070
     1
1070
     0
1002
{
1002
}
1000
GenZiCir
1070
     2
1040
1.5
1002
{
1002
}
1000
MaxCharForCenteredText
1070
     1
1070
    30
1002
{
1002
}
1000
Snap
1070
     0
1002
{
1000
ActivationRadius
1070
     2
1040
1.0
1002
{
1002
}
1000
M
1070
     0
1002
{
1000
SnapStepX
1070
     2
1040
20.0
1002
{
1002
}
1000
SnapStepY
1070
     2
1040
10.0
1002
{
1002
}
1002
}
1000
I
1070
     0
1002
{
1000
SnapStepX
1070
     2
1040
1.0
1002
{
1002
}
1000
SnapStepY
1070
     2
1040
0.5
1002
{
1002
}
1002
}
1002
}
1002
}
1000
Centerline
1070
     0
1002
{
1000
ScaleNot
1070
     3
1070
     0
1002
{
1002
}
1000
M
1070
     0
1002
{
1000
GenCenAng
1070
     4
1000
45|90|135
1002
{
1002
}
1000
GenCenDia
1070
     2
1040
10.0
1002
{
1002
}
1000
GenCenDias
1070
     4
1000
10|20|30
1002
{
1002
}
1000
GenCenDist
1070
     2
1040
3.0
1002
{
1002
}
1000
GenCenLen
1070
     2
1040
10.0
1002
{
1002
}
1000
GenCenOff
1070
     2
1040
10.0
1002
{
1002
}
1002
}
1000
I
1070
     0
1002
{
1000
GenCenAng
1070
     4
1000
45|90|135
1002
{
1002
}
1000
GenCenDia
1070
     2
1040
0.5
1002
{
1002
}
1000
GenCenDias
1070
     4
1000
0.5|1.0|1.5
1002
{
1002
}
1000
GenCenDist
1070
     2
1040
0.125
1002
{
1002
}
1000
GenCenLen
1070
     2
1040
0.5
1002
{
1002
}
1000
GenCenOff
1070
     2
1040
0.5
1002
{
1002
}
1002
}
1002
}
1000
CLine
1070
     0
1002
{
1000
CAngArray
1070
     4
1000
30|45|60
1002
{
1002
}
1000
Typ
1070
     4
1000
XLINE
1002
{
1002
}
1000
M
1070
     0
1002
{
1000
CLinArray
1070
     4
1000
10|20|30
1002
{
1002
}
1002
}
1000
I
1070
     0
1002
{
1000
CLinArray
1070
     4
1000
0.125|0.25|0.5
1002
{
1002
}
1002
}
1002
}
1000
Detail
1070
     0
1002
{
1002
}
1000
Dimension
1070
     5
1002
{
1000
DIMALT
1070
     1
1070
     0
1002
{
1002
}
1000
DIMALTD
1070
     1
1070
     2
1002
{
1002
}
1000
DIMALTTD
1070
     1
1070
     4
1002
{
1002
}
1000
DIMALTTZ
1070
     1
1070
     0
1002
{
1002
}
1000
DIMALTU
1070
     1
1070
     2
1002
{
1002
}
1000
DIMALTZ
1070
     1
1070
     0
1002
{
1002
}
1000
DIMAUNIT
1070
     1
1070
     0
1002
{
1002
}
1000
DIMBLK
1070
     4
1000

1002
{
1002
}
1000
DIMBLK1
1070
     4
1000

1002
{
1002
}
1000
DIMBLK2
1070
     4
1000

1002
{
1002
}
1000
DIMCLRD
1070
     1
1070
   256
1002
{
1002
}
1000
DIMCLRE
1070
     1
1070
   256
1002
{
1002
}
1000
DIMCLRT
1070
     1
1070
     2
1002
{
1002
}
1000
DIMDLE
1070
     2
1040
0.0
1002
{
1002
}
1000
DIMFIT
1070
     1
1070
     3
1002
{
1002
}
1000
DIMJUST
1070
     1
1070
     0
1002
{
1002
}
1000
DIMLFAC
1070
     2
1040
1.0
1002
{
1002
}
1000
DIMLIM
1070
     1
1070
     0
1002
{
1002
}
1000
DIMPOST
1070
     4
1000

1002
{
1002
}
1000
DIMRND
1070
     2
1040
0.0
1002
{
1002
}
1000
DIMSAH
1070
     1
1070
     0
1002
{
1002
}
1000
DIMSCALE
1070
     2
1040
1.0
1002
{
1002
}
1000
DIMSD1
1070
     1
1070
     0
1002
{
1002
}
1000
DIMSD2
1070
     1
1070
     0
1002
{
1002
}
1000
DIMSE1
1070
     1
1070
     0
1002
{
1002
}
1000
DIMSE2
1070
     1
1070
     0
1002
{
1002
}
1000
DIMSOXD
1070
     1
1070
     0
1002
{
1002
}
1000
DIMTAD
1070
     1
1070
     0
1002
{
1002
}
1000
DIMTFAC
1070
     2
1040
0.71
1002
{
1002
}
1000
DIMTIH
1070
     1
1070
     0
1002
{
1002
}
1000
DIMTIX
1070
     1
1070
     0
1002
{
1002
}
1000
DIMTM
1070
     2
1040
0.1
1002
{
1002
}
1000
DIMTOFL
1070
     1
1070
     0
1002
{
1002
}
1000
DIMTOH
1070
     1
1070
     0
1002
{
1002
}
1000
DIMTOL
1070
     1
1070
     0
1002
{
1002
}
1000
DIMTOLJ
1070
     1
1070
     1
1002
{
1002
}
1000
DIMTP
1070
     2
1040
0.1
1002
{
1002
}
1000
DIMTSZ
1070
     2
1040
0.0
1002
{
1002
}
1000
DIMTVP
1070
     2
1040
0.0
1002
{
1002
}
1000
DIMTXSTY
1070
     4
1000
STANDARD
1002
{
1002
}
1000
DIMTZIN
1070
     1
1070
     0
1002
{
1002
}
1000
DIMUNIT
1070
     1
1070
     2
1002
{
1002
}
1000
DIMUPT
1070
     1
1070
     0
1002
{
1002
}
1000
M
1070
     0
1002
{
1000
DIMALTF
1070
     2
1040
0.03937
1002
{
1002
}
1000
DIMAPOST
1070
     4
1000
"
1002
{
1002
}
1000
DIMASZ
1070
     2
1040
2.5
1002
{
1002
}
1000
DIMCEN
1070
     2
1040
0.0
1002
{
1002
}
1000
DIMDEC
1070
     1
1070
     2
1002
{
1002
}
1000
DIMDLI
1070
     2
1040
7.0
1002
{
1002
}
1000
DIMEXE
1070
     2
1040
1.0
1002
{
1002
}
1000
DIMEXO
1070
     2
1040
1.0
1002
{
1002
}
1000
DIMGAP
1070
     2
1040
0.6
1002
{
1002
}
1000
DIMTDEC
1070
     1
1070
     3
1002
{
1002
}
1000
DIMTXT
1070
     2
1040
3.5
1002
{
1002
}
1000
DIMZIN
1070
     1
1070
     8
1002
{
1002
}
1002
}
1000
I
1070
     0
1002
{
1000
DIMALTF
1070
     2
1040
25.4
1002
{
1002
}
1000
DIMAPOST
1070
     4
1000
mm
1002
{
1002
}
1000
DIMASZ
1070
     2
1040
0.1
1002
{
1002
}
1000
DIMCEN
1070
     2
1040
0.0
1002
{
1002
}
1000
DIMDEC
1070
     1
1070
     4
1002
{
1002
}
1000
DIMDLI
1070
     2
1040
0.5
1002
{
1002
}
1000
DIMEXE
1070
     2
1040
0.1
1002
{
1002
}
1000
DIMEXO
1070
     2
1040
0.05
1002
{
1002
}
1000
DIMGAP
1070
     2
1040
0.06
1002
{
1002
}
1000
DIMTDEC
1070
     1
1070
     4
1002
{
1002
}
1000
DIMTXT
1070
     2
1040
0.12
1002
{
1002
}
1000
DIMZIN
1070
     1
1070
     7
1002
{
1002
}
1002
}
1000
GEN-ISO
1070
     5
1002
{
1000
NAME
1070
     4
1000
GEN-ISO
1002
{
1002
}
1000
DIMTAD
1070
     1
1070
     1
1002
{
1002
}
1000
DIMTOLJ
1070
     1
1070
     0
1002
{
1002
}
1000
DIMTOFL
1070
     1
1070
     1
1002
{
1002
}
1000
M
1070
     0
1002
{
1002
}
1000
I
1070
     0
1002
{
1002
}
1002
}
1000
GEN-ISO-POS
1070
     5
1002
{
1000
NAME
1070
     4
1000
GEN-ISO-POS
1002
{
1002
}
1000
DIMTOLJ
1070
     1
1070
     0
1002
{
1002
}
1000
DIMTXSTY
1070
     4
1000
STANDARD
1002
{
1002
}
1000
M
1070
     0
1002
{
1000
DIMASZ
1070
     2
1040
2.5
1002
{
1002
}
1000
DIMGAP
1070
     2
1040
1.5
1002
{
1002
}
1000
DIMTXT
1070
     2
1040
5.0
1002
{
1002
}
1002
}
1000
I
1070
     0
1002
{
1000
DIMASZ
1070
     2
1040
0.1
1002
{
1002
}
1000
DIMGAP
1070
     2
1040
0.06
1002
{
1002
}
1000
DIMTXT
1070
     2
1040
0.2
1002
{
1002
}
1002
}
1002
}
1000
GEN-ISO-CIR
1070
     5
1002
{
1000
NAME
1070
     4
1000
GEN-ISO$3
1002
{
1002
}
1000
DIMFIT
1070
     1
1070
     0
1002
{
1002
}
1000
DIMTAD
1070
     1
1070
     1
1002
{
1002
}
1000
DIMTOH
1070
     1
1070
     1
1002
{
1002
}
1000
DIMTOLJ
1070
     1
1070
     0
1002
{
1002
}
1000
DIMUPT
1070
     1
1070
     1
1002
{
1002
}
1000
M
1070
     0
1002
{
1002
}
1000
I
1070
     0
1002
{
1002
}
1002
}
1000
GEN-ISO-RAD
1070
     5
1002
{
1000
NAME
1070
     4
1000
GEN-ISO$4
1002
{
1002
}
1000
DIMFIT
1070
     1
1070
     0
1002
{
1002
}
1000
DIMTAD
1070
     1
1070
     1
1002
{
1002
}
1000
DIMTIH
1070
     1
1070
     0
1002
{
1002
}
1000
DIMTIX
1070
     1
1070
     0
1002
{
1002
}
1000
DIMTOH
1070
     1
1070
     1
1002
{
1002
}
1000
DIMTOLJ
1070
     1
1070
     0
1002
{
1002
}
1000
DIMTOFL
1070
     1
1070
     0
1002
{
1002
}
1000
DIMUPT
1070
     1
1070
     1
1002
{
1002
}
1000
M
1070
     0
1002
{
1002
}
1000
I
1070
     0
1002
{
1002
}
1002
}
1000
GEN-ISO-ORD
1070
     5
1002
{
1000
NAME
1070
     4
1000
GEN-ISO$6
1002
{
1002
}
1000
DIMTOLJ
1070
     1
1070
     0
1002
{
1002
}
1000
M
1070
     0
1002
{
1002
}
1000
I
1070
     0
1002
{
1002
}
1002
}
1000
GEN-ISO-AXE-F
1070
     5
1002
{
1000
NAME
1070
     4
1000
GEN-ISO-AXE-F
1002
{
1002
}
1000
DIMSE1
1070
     1
1070
     1
1002
{
1002
}
1000
DIMSE2
1070
     1
1070
     1
1002
{
1002
}
1000
DIMTAD
1070
     1
1070
     1
1002
{
1002
}
1000
DIMTOLJ
1070
     1
1070
     0
1002
{
1002
}
1000
DIMTOFL
1070
     1
1070
     1
1002
{
1002
}
1000
M
1070
     0
1002
{
1002
}
1000
I
1070
     0
1002
{
1002
}
1002
}
1000
GEN-ISO-AXE-H
1070
     5
1002
{
1000
NAME
1070
     4
1000
GEN-ISO-AXE-H
1002
{
1002
}
1000
DIMBLK1
1070
     4
1000
GENAXEH
1002
{
1002
}
1000
DIMLFAC
1070
     2
1040
2.0
1002
{
1002
}
1000
DIMSAH
1070
     1
1070
     1
1002
{
1002
}
1000
DIMSE1
1070
     1
1070
     1
1002
{
1002
}
1000
DIMSE2
1070
     1
1070
     1
1002
{
1002
}
1000
DIMTAD
1070
     1
1070
     1
1002
{
1002
}
1000
DIMTOLJ
1070
     1
1070
     0
1002
{
1002
}
1000
DIMTOFL
1070
     1
1070
     1
1002
{
1002
}
1000
M
1070
     0
1002
{
1002
}
1000
I
1070
     0
1002
{
1002
}
1002
}
1000
GEN-ANSI
1070
     5
1002
{
1000
NAME
1070
     4
1000
GEN-ANSI
1002
{
1002
}
1000
DIMTIH
1070
     1
1070
     1
1002
{
1002
}
1000
DIMTOH
1070
     1
1070
     1
1002
{
1002
}
1000
DIMTAD
1070
     1
1070
     0
1002
{
1002
}
1000
DIMTOLJ
1070
     1
1070
     1
1002
{
1002
}
1000
M
1070
     0
1002
{
1002
}
1000
I
1070
     0
1002
{
1002
}
1002
}
1000
GEN-ANSI-POS
1070
     5
1002
{
1000
NAME
1070
     4
1000
GEN-ANSI-POS
1002
{
1002
}
1000
DIMTOLJ
1070
     1
1070
     1
1002
{
1002
}
1000
DIMTXSTY
1070
     4
1000
STANDARD
1002
{
1002
}
1000
M
1070
     0
1002
{
1000
DIMASZ
1070
     2
1040
2.5
1002
{
1002
}
1000
DIMGAP
1070
     2
1040
1.5
1002
{
1002
}
1000
DIMTXT
1070
     2
1040
5.0
1002
{
1002
}
1002
}
1000
I
1070
     0
1002
{
1000
DIMASZ
1070
     2
1040
0.1
1002
{
1002
}
1000
DIMGAP
1070
     2
1040
0.06
1002
{
1002
}
1000
DIMTXT
1070
     2
1040
0.2
1002
{
1002
}
1002
}
1002
}
1000
GEN-ANSI-CIR
1070
     5
1002
{
1000
NAME
1070
     4
1000
GEN-ANSI$3
1002
{
1002
}
1000
DIMFIT
1070
     1
1070
     0
1002
{
1002
}
1000
DIMTAD
1070
     1
1070
     0
1002
{
1002
}
1000
DIMTIH
1070
     1
1070
     1
1002
{
1002
}
1000
DIMTIX
1070
     1
1070
     0
1002
{
1002
}
1000
DIMTOFL
1070
     1
1070
     0
1002
{
1002
}
1000
DIMTOH
1070
     1
1070
     1
1002
{
1002
}
1000
DIMTOLJ
1070
     1
1070
     1
1002
{
1002
}
1000
DIMUPT
1070
     1
1070
     1
1002
{
1002
}
1000
M
1070
     0
1002
{
1002
}
1000
I
1070
     0
1002
{
1002
}
1002
}
1000
GEN-ANSI-RAD
1070
     5
1002
{
1000
NAME
1070
     4
1000
GEN-ANSI$4
1002
{
1002
}
1000
DIMFIT
1070
     1
1070
     0
1002
{
1002
}
1000
DIMTAD
1070
     1
1070
     0
1002
{
1002
}
1000
DIMTIH
1070
     1
1070
     1
1002
{
1002
}
1000
DIMTIX
1070
     1
1070
     0
1002
{
1002
}
1000
DIMTOFL
1070
     1
1070
     0
1002
{
1002
}
1000
DIMTOH
1070
     1
1070
     1
1002
{
1002
}
1000
DIMTOLJ
1070
     1
1070
     1
1002
{
1002
}
1000
DIMUPT
1070
     1
1070
     1
1002
{
1002
}
1000
M
1070
     0
1002
{
1002
}
1000
I
1070
     0
1002
{
1002
}
1002
}
1000
GEN-ANSI-ORD
1070
     5
1002
{
1000
NAME
1070
     4
1000
GEN-ANSI$6
1002
{
1002
}
1000
DIMTAD
1070
     1
1070
     0
1002
{
1002
}
1000
DIMTIH
1070
     1
1070
     1
1002
{
1002
}
1000
DIMTOH
1070
     1
1070
     1
1002
{
1002
}
1000
DIMTOLJ
1070
     1
1070
     1
1002
{
1002
}
1000
M
1070
     0
1002
{
1002
}
1000
I
1070
     0
1002
{
1002
}
1002
}
1000
GEN-ANSI-AXE-F
1070
     5
1002
{
1000
NAME
1070
     4
1000
GEN-ANSI-AXE-F
1002
{
1002
}
1000
DIMBLK1
1070
     4
1000
GENAXEH
1002
{
1002
}
1000
DIMSAH
1070
     1
1070
     1
1002
{
1002
}
1000
DIMSE1
1070
     1
1070
     1
1002
{
1002
}
1000
DIMSE2
1070
     1
1070
     1
1002
{
1002
}
1000
DIMTAD
1070
     1
1070
     0
1002
{
1002
}
1000
DIMTIH
1070
     1
1070
     1
1002
{
1002
}
1000
DIMTOH
1070
     1
1070
     1
1002
{
1002
}
1000
DIMTOLJ
1070
     1
1070
     1
1002
{
1002
}
1000
M
1070
     0
1002
{
1002
}
1000
I
1070
     0
1002
{
1002
}
1002
}
1000
GEN-ANSI-AXE-H
1070
     5
1002
{
1000
NAME
1070
     4
1000
GEN-ANSI-AXE-H
1002
{
1002
}
1000
DIMBLK1
1070
     4
1000
GENAXEH
1002
{
1002
}
1000
DIMLFAC
1070
     2
1040
2.0
1002
{
1002
}
1000
DIMSAH
1070
     1
1070
     1
1002
{
1002
}
1000
DIMSE1
1070
     1
1070
     1
1002
{
1002
}
1000
DIMSE2
1070
     1
1070
     1
1002
{
1002
}
1000
DIMTAD
1070
     1
1070
     0
1002
{
1002
}
1000
DIMTOFL
1070
     1
1070
     1
1002
{
1002
}
1000
DIMTOLJ
1070
     1
1070
     1
1002
{
1002
}
1000
M
1070
     0
1002
{
1002
}
1000
I
1070
     0
1002
{
1002
}
1002
}
1002
}
1000
DimSet
1070
     0
1002
{
1000
ChainSum
1070
     3
1070
     0
1002
{
1002
}
1000
DimDclTyp0
1070
     4
1000
dim23
1002
{
1002
}
1000
HorBra
1070
     3
1070
     0
1002
{
1002
}
1000
StrDia
1070
     4
1000
%%c<>
1002
{
1002
}
1000
StrRad
1070
     4
1000
R<>
1002
{
1002
}
1000
TextMinus
1070
     4
1000
<>
1002
{
1002
}
1000
TextPlus
1070
     4
1000
<>
1002
{
1002
}
1000
M
1070
     0
1002
{
1000
DimdliFirst
1070
     2
1040
10.0
1002
{
1002
}
1000
PointMakeDist
1070
     2
1040
10.0
1002
{
1002
}
1002
}
1000
I
1070
     0
1002
{
1000
DimdliFirst
1070
     2
1040
0.5
1002
{
1002
}
1000
PointMakeDist
1070
     2
1040
0.5
1002
{
1002
}
1002
}
1000
FitGrade
1070
     4
1000
h7
1002
{
1002
}
1002
}
1000
Drawing
1070
     0
1002
{
1000
ChamferDimMode
1070
     1
1070
     2
1002
{
1002
}
1000
Gen_Fiso
1070
    -3
1040
1.0
1002
{
1002
}
1000
GenDimStil
1070
     4
1000
ISO
1002
{
1002
}
1000
GenDwgUScale
1070
     2
1040
1.0
1002
{
1002
}
1000
GenInch
1070
     4
1000
M
1002
{
1002
}
1000
GenPlotScale
1070
     4
1000
1:5
1002
{
1002
}
1000
Revisi
1070
     4
1000
0
1002
{
1002
}
1000
Version
1070
    -5
1000
14.01/Apr  1 1998
1002
{
1002
}
1000
Platform
1070
    -5
1000
WINNT
1002
{
1002
}
1002
}
1000
DwgVar
1070
     0
1002
{
1000
M
1070
     0
1002
{
1002
}
1000
I
1070
     0
1002
{
1002
}
1002
}
1000
Hatch
1070
     0
1002
{
1000
GenHtcFlag
1070
     3
1070
     0
1002
{
1002
}
1002
}
1000
Info_Pos
1070
     0
1002
{
1000
>
1002
}
1000
Layer
1070
     6
1002
{
1000
Defs
1070
     0
1002
{
1000
>
1002
}
1000
EntSort
1070
     0
1002
{
1000
>
1002
}
1000
Match
1070
     0
1002
{
1002
}
1000
Settings
1070
     0
1002
{
1000
FocGrNC
1070
     3
1070
     0
1002
{
1002
}
1000
FocGrLo
1070
     3
1070
     0
1002
{
1002
}
1000
FocLoNC
1070
     3
1070
     0
1002
{
1002
}
1000
FocusCol
1070
     1
1070
   253
1002
{
1002
}
1000
GenStdLG
1070
     4
1000

1002
{
1002
}
1000
LayMatch
1070
     3
1070
     0
1002
{
1002
}
1000
LgOff
1070
     3
1070
     0
1002
{
1002
}
1000
CurLG
1070
    -5
1000

1002
{
1002
}
1002
}
1002
}
1000
LType
1070
     0
1002
{
1000
GEN3
1070
     7
1000
genius.lin
1002
{
1002
}
1000
GEN7
1070
     7
1000
genius.lin
1002
{
1002
}
1000
GEN4A
1070
     7
1000
genius.lin
1002
{
1002
}
1000
GEN3A
1070
     7
1000
genius.lin
1002
{
1002
}
1000
GEN7A
1070
     7
1000
genius.lin
1002
{
1002
}
1000
GENZIGZAG
1070
     7
1000
genius.lin
1002
{
1002
}
1002
}
1000
Objecter
1070
     0
1002
{
1000
CreateGroups
1070
     3
1070
     0
1002
{
1002
}
1000
LaySwitch
1070
     3
1070
     1
1002
{
1002
}
1000
LastObj
1070
    -5
1000
1512
1002
{
1002
}
1000
TimeStamp
1070
    -5
1000
20020508.16571912
1002
{
1002
}
1002
}
1000
OSWiz
1070
     0
1002
{
1000
Filter
1070
     0
1002
{
1000
HATCH
1070
     8
1002
{
1000
EntityType
1070
     4
1000
LINE
1002
{
1002
}
1000
Layer
1070
     4
1000
8,8N,*-8,*-8N
1002
{
1002
}
1000
Linetype
1070
     4
1000
*
1002
{
1002
}
1000
Color
1070
     4
1000
*
1002
{
1002
}
1000
ApplyInDims
1070
     3
1070
     1
1002
{
1002
}
1002
}
1000
SYMBOLS
1070
     8
1002
{
1000
EntityType
1070
     4
1000
*
1002
{
1002
}
1000
Layer
1070
     4
1000
[5-6],[5-6]N,*-[5-6],*-[5-6]N
1002
{
1002
}
1000
Linetype
1070
     4
1000
*
1002
{
1002
}
1000
Color
1070
     4
1000
*
1002
{
1002
}
1000
ApplyInDims
1070
     3
1070
     1
1002
{
1002
}
1002
}
1000
FEM
1070
     8
1002
{
1000
EntityType
1070
     4
1000
*
1002
{
1002
}
1000
Layer
1070
     4
1000
4A,4AN,*-4A,*-4AN
1002
{
1002
}
1000
Linetype
1070
     4
1000
*
1002
{
1002
}
1000
Color
1070
     4
1000
*
1002
{
1002
}
1000
ApplyInDims
1070
     3
1070
     1
1002
{
1002
}
1002
}
1002
}
1002
}
1000
PaList
1070
     0
1002
{
1000
AutoUpdatePartList
1070
     1
1070
     0
1002
{
1002
}
1000
ReadInfoPoint
1070
     3
1070
     0
1002
{
1002
}
1000
ReadPosNr
1070
     3
1070
     1
1002
{
1002
}
1000
RevStr
1070
     4
1000
0
1002
{
1002
}
1002
}
1000
Paper
1070
     0
1002
{
1002
}
1000
PartDB
1070
     0
1002
{
1000
GenDbOwner
1070
     4
1000

1002
{
1002
}
1002
}
1000
System
1070
     0
1002
{
1000
Menu
1070
     4
1000
GEV
1002
{
1002
}
1002
}
1000
Title
1070
     0
1002
{
1000
MakeView
1070
     1
1070
     2
1002
{
1002
}
1002
}
1000
Tools
1070
     0
1002
{
1000
Trans
1070
     0
1002
{
1000
Drawingtranslation
1070
    -4
1070
     1
1002
{
1002
}
1000
upreserve
1070
     3
1070
     0
1002
{
1002
}
1000
originally_on
1070
    -4
1070
     0
1002
{
1002
}
1000
sourcelang
1070
    -5
1000
D
1002
{
1002
}
1002
}
1002
}
  0
APPID
  5
149F
330
1452
100
AcDbSymbolTableRecord
100
AcDbRegAppTableRecord
  2
GENIUS_GEVCFG0_13
 70
     0
1001
GENIUS_GENCFG_13
1071
955726830
1000
149F
1000
GEV
1070
     1
1000
GenCfgObject
1000
VED
1070
     0
1002
{
1002
}
  0
APPID
  5
14E2
330
1452
100
AcDbSymbolTableRecord
100
AcDbRegAppTableRecord
  2
GEV_VCCNULL_SWITCH_OFF
 70
     0
  0
APPID
  5
14E3
330
1452
100
AcDbSymbolTableRecord
100
AcDbRegAppTableRecord
  2
GENIUS_GENDTOL_13
 70
     0
  0
APPID
  5
14E4
330
1452
100
AcDbSymbolTableRecord
100
AcDbRegAppTableRecord
  2
GENIUS_GENBLLY_14
 70
     0
  0
APPID
  5
14E5
330
1452
100
AcDbSymbolTableRecord
100
AcDbRegAppTableRecord
  2
GENIUS_GENODEF_13
 70
     0
  0
APPID
  5
14E6
330
1452
100
AcDbSymbolTableRecord
100
AcDbRegAppTableRecord
  2
GENIUS_GENOBJ-N-CRS_13
 70
     0
  0
APPID
  5
14E7
330
1452
100
AcDbSymbolTableRecord
100
AcDbRegAppTableRecord
  2
GENIUS_GENOREF_13
 70
     0
  0
APPID
  5
14E8
330
1452
100
AcDbSymbolTableRecord
100
AcDbRegAppTableRecord
  2
GENIUS_GENOLIS_13
 70
     0
  0
APPID
  5
14E9
330
1452
100
AcDbSymbolTableRecord
100
AcDbRegAppTableRecord
  2
GENIUS_GEFCFG0_13
 70
     0
  0
APPID
  5
14EA
330
1452
100
AcDbSymbolTableRecord
100
AcDbRegAppTableRecord
  2
GENIUS_VERSION2
 70
     0
  0
APPID
  5
14EB
330
1452
100
AcDbSymbolTableRecord
100
AcDbRegAppTableRecord
  2
GENIUS_GENREC_14
 70
     0
  0
APPID
  5
14EC
330
1452
100
AcDbSymbolTableRecord
100
AcDbRegAppTableRecord
  2
GENIUS_GENOBJ-N-REC_13
 70
     0
  0
APPID
  5
14ED
330
1452
100
AcDbSymbolTableRecord
100
AcDbRegAppTableRecord
  2
GENIUS_GENOBJ-N-TIT_13
 70
     0
  0
APPID
  5
14EE
330
1452
100
AcDbSymbolTableRecord
100
AcDbRegAppTableRecord
  2
GENIUS_GENTITLE_13
 70
     0
  0
APPID
  5
14EF
330
1452
100
AcDbSymbolTableRecord
100
AcDbRegAppTableRecord
  2
GENIUS_GENZVEED_13
 70
     0
  0
APPID
  5
14F0
330
1452
100
AcDbSymbolTableRecord
100
AcDbRegAppTableRecord
  2
GENIUS_GENOBJ-N-SDF_13
 70
     0
  0
APPID
  5
14F1
330
1452
100
AcDbSymbolTableRecord
100
AcDbRegAppTableRecord
  2
GENIUS_GENSCREG_13
 70
     0
  0
APPID
  5
14F2
330
1452
100
AcDbSymbolTableRecord
100
AcDbRegAppTableRecord
  2
GENIUS_GENBLKED_14
 70
     0
  0
APPID
  5
1722
330
1452
100
AcDbSymbolTableRecord
100
AcDbRegAppTableRecord
  2
MCAD_NO_VIS
 70
     0
  0
APPID
  5
1723
330
1452
100
AcDbSymbolTableRecord
100
AcDbRegAppTableRecord
  2
ACAD_TEMP_GRAPHIC
 70
     0
  0
APPID
  5
1753
330
1452
100
AcDbSymbolTableRecord
100
AcDbRegAppTableRecord
  2
AD_DRAW
 70
     0
  0
APPID
  5
1756
330
1452
100
AcDbSymbolTableRecord
100
AcDbRegAppTableRecord
  2
ACATTRIBSERVICES
 70
     0
  0
APPID
  5
1776
330
1452
100
AcDbSymbolTableRecord
100
AcDbRegAppTableRecord
  2
DESIGNERASSEMBLIES
 70
     0
  0
APPID
  5
177C
330
1452
100
AcDbSymbolTableRecord
100
AcDbRegAppTableRecord
  2
ACADM_DIM_EDIT
 70
     0
  0
APPID
  5
177D
330
1452
100
AcDbSymbolTableRecord
100
AcDbRegAppTableRecord
  2
AMDT_DM_ADJ
 70
     0
  0
APPID
  5
17AF
330
1452
100
AcDbSymbolTableRecord
100
AcDbRegAppTableRecord
  2
ACAD_DSTYLE_DIMARC_LENGTH_SYMBOL
 70
     0
  0
APPID
  5
17B0
330
1452
100
AcDbSymbolTableRecord
100
AcDbRegAppTableRecord
  2
ACAD_DSTYLE_DIMJOGGED_JOGANGLE_SYMBOL
 70
     0
  0
ENDTAB
  0
TABLE
  2
DIMSTYLE
  5
1453
330
0
100
AcDbSymbolTable
 70
     9
100
AcDbDimStyleTable
 71
     0
  0
DIMSTYLE
105
147A
102
{ACAD_REACTORS
330
1153
330
115D
330
12FB
330
1305
330
131A
330
1419
330
1424
330
1324
102
}
330
1453
100
AcDbSymbolTableRecord
100
AcDbDimStyleTableRecord
  2
GEN-ISO
 70
     0
  4
"
 40
5.0
 41
2.5
 42
1.0
 43
7.0
 44
1.0
 47
0.1
 48
0.1
 73
     0
 74
     0
 77
     1
 78
     8
140
3.5
141
0.0
143
0.03937
146
0.71
147
0.6
172
     1
176
   256
177
   256
178
     2
271
     2
272
     3
274
     4
283
     0
340
1458
  0
DIMSTYLE
105
17AE
330
1453
100
AcDbSymbolTableRecord
100
AcDbDimStyleTableRecord
  2
AM_DIN
 70
     0
  4
"
 41
2.5
 42
1.0
 43
10.0
 44
1.0
 47
0.1
 48
0.1
 73
     0
 74
     0
 77
     1
 78
     8
 79
     2
140
3.5
141
0.0
143
0.0393701
146
0.71
147
1.5
172
     1
176
   256
177
   256
178
     2
271
     2
272
     3
274
     4
283
     0
284
     8
340
1458
371
    -1
372
    -1
1001
ACAD_DSTYLE_DIMARC_LENGTH_SYMBOL
1070
   379
1070
     0
1001
ACAD_DSTYLE_DIMJOGGED_JOGANGLE_SYMBOL
1070
   384
1040
1.570796326794896
  0
DIMSTYLE
105
17BF
330
1453
100
AcDbSymbolTableRecord
100
AcDbDimStyleTableRecord
  2
AM_DIN$3
 70
     0
  4
"
 41
2.5
 42
1.0
 43
10.0
 44
1.0
 47
0.1
 48
0.1
 73
     0
 77
     1
 78
     8
 79
     2
140
3.5
141
0.0
143
0.0393701
146
0.71
147
1.5
176
   256
177
   256
178
     2
271
     2
272
     3
274
     4
283
     0
284
     8
288
     1
289
     0
340
1458
371
    -1
372
    -1
1001
ACAD_DSTYLE_DIMARC_LENGTH_SYMBOL
1070
   379
1070
     0
1001
ACAD_DSTYLE_DIMJOGGED_JOGANGLE_SYMBOL
1070
   384
1040
1.570796326794896
  0
DIMSTYLE
105
17C4
330
1453
100
AcDbSymbolTableRecord
100
AcDbDimStyleTableRecord
  2
AM_DIN$4
 70
     0
  4
"
 41
2.5
 42
1.0
 43
10.0
 44
1.0
 47
0.1
 48
0.1
 73
     0
 77
     1
 78
     8
 79
     2
140
3.5
141
0.0
143
0.0393701
146
0.71
147
1.5
176
   256
177
   256
178
     2
271
     2
272
     3
274
     4
283
     0
284
     8
288
     1
289
     0
340
1458
371
    -1
372
    -1
1001
ACAD_DSTYLE_DIMARC_LENGTH_SYMBOL
1070
   379
1070
     0
1001
ACAD_DSTYLE_DIMJOGGED_JOGANGLE_SYMBOL
1070
   384
1040
1.570796326794896
  0
DIMSTYLE
105
17C9
330
1453
100
AcDbSymbolTableRecord
100
AcDbDimStyleTableRecord
  2
AM_DIN$6
 70
     0
  4
"
 41
2.5
 42
1.0
 43
10.0
 44
1.0
 47
0.1
 48
0.1
 73
     0
 74
     0
 78
     8
 79
     2
140
3.5
141
0.0
143
0.0393701
146
0.71
147
1.5
172
     1
176
   256
177
   256
178
     2
271
     2
272
     3
274
     4
283
     0
284
     8
340
1458
371
    -1
372
    -1
1001
ACAD_DSTYLE_DIMARC_LENGTH_SYMBOL
1070
   379
1070
     0
1001
ACAD_DSTYLE_DIMJOGGED_JOGANGLE_SYMBOL
1070
   384
1040
1.570796326794896
  0
DIMSTYLE
105
17CE
330
1453
100
AcDbSymbolTableRecord
100
AcDbDimStyleTableRecord
  2
AM_DIN$7
 70
     0
  4
"
 41
2.5
 42
1.0
 43
10.0
 44
1.0
 47
0.1
 48
0.1
 73
     0
 74
     0
 77
     1
 78
     8
 79
     2
140
5.0
141
0.0
143
0.0393701
146
0.71
147
1.5
172
     1
176
   256
177
   256
178
     2
271
     2
272
     3
274
     4
283
     0
284
     8
340
1458
371
    -1
372
    -1
1001
ACAD_DSTYLE_DIMARC_LENGTH_SYMBOL
1070
   379
1070
     0
1001
ACAD_DSTYLE_DIMJOGGED_JOGANGLE_SYMBOL
1070
   384
1040
1.570796326794896
  0
DIMSTYLE
105
17D3
330
1453
100
AcDbSymbolTableRecord
100
AcDbDimStyleTableRecord
  2
AM_DIN$SF
 70
     0
  4
"
 41
2.5
 42
1.0
 43
10.0
 44
1.0
 47
0.1
 48
0.1
 73
     0
 74
     0
 75
     1
 76
     1
 77
     1
 78
     8
 79
     2
140
3.5
141
0.0
143
0.0393701
146
0.71
147
1.5
172
     1
176
   256
177
   256
178
     2
271
     2
272
     3
274
     4
283
     0
284
     8
340
1458
371
    -1
372
    -1
1001
ACAD_DSTYLE_DIMARC_LENGTH_SYMBOL
1070
   379
1070
     0
1001
ACAD_DSTYLE_DIMJOGGED_JOGANGLE_SYMBOL
1070
   384
1040
1.570796326794896
  0
DIMSTYLE
105
17DC
330
1453
100
AcDbSymbolTableRecord
100
AcDbDimStyleTableRecord
  2
AM_DIN$SH
 70
     0
  4
"
 41
2.5
 42
1.0
 43
10.0
 44
1.0
 47
0.1
 48
0.1
 73
     0
 74
     0
 75
     1
 76
     1
 77
     1
 78
     8
 79
     2
140
3.5
141
0.0
143
0.0393701
144
2.0
146
0.71
147
1.5
172
     1
173
     1
176
   256
177
   256
178
     2
271
     2
272
     3
274
     4
283
     0
284
     8
340
1458
343
17D4
371
    -1
372
    -1
1001
ACAD_DSTYLE_DIMARC_LENGTH_SYMBOL
1070
   379
1070
     0
1001
ACAD_DSTYLE_DIMJOGGED_JOGANGLE_SYMBOL
1070
   384
1040
1.570796326794896
  0
ENDTAB
  0
TABLE
  2
BLOCK_RECORD
  5
144A
330
0
100
AcDbSymbolTable
 70
    27
  0
BLOCK_RECORD
  5
1461
102
{ACAD_XDICTIONARY
360
1824
102
}
330
144A
100
AcDbSymbolTableRecord
100
AcDbBlockTableRecord
  2
*MODEL_SPACE
340
171A
  0
BLOCK_RECORD
  5
145E
330
144A
100
AcDbSymbolTableRecord
100
AcDbBlockTableRecord
  2
*PAPER_SPACE
340
171B
  0
BLOCK_RECORD
  5
147C
330
144A
100
AcDbSymbolTableRecord
100
AcDbBlockTableRecord
  2
*X0
340
0
102
{BLKREFS
331
163B
331
17ED
102
}
  0
BLOCK_RECORD
  5
147D
330
144A
100
AcDbSymbolTableRecord
100
AcDbBlockTableRecord
  2
*X1
340
0
102
{BLKREFS
331
164B
331
17FD
102
}
  0
BLOCK_RECORD
  5
1481
330
144A
100
AcDbSymbolTableRecord
100
AcDbBlockTableRecord
  2
*X3
340
0
102
{BLKREFS
331
11DD
102
}
  0
BLOCK_RECORD
  5
1482
330
144A
100
AcDbSymbolTableRecord
100
AcDbBlockTableRecord
  2
*X4
340
0
102
{BLKREFS
331
1244
102
}
  0
BLOCK_RECORD
  5
1483
330
144A
100
AcDbSymbolTableRecord
100
AcDbBlockTableRecord
  2
*X5
340
0
102
{BLKREFS
331
12AC
102
}
  0
BLOCK_RECORD
  5
1484
330
144A
100
AcDbSymbolTableRecord
100
AcDbBlockTableRecord
  2
*X6
340
0
102
{BLKREFS
331
12CF
102
}
  0
BLOCK_RECORD
  5
1485
330
144A
100
AcDbSymbolTableRecord
100
AcDbBlockTableRecord
  2
*X7
340
0
102
{BLKREFS
331
12F2
102
}
  0
BLOCK_RECORD
  5
148B
330
144A
100
AcDbSymbolTableRecord
100
AcDbBlockTableRecord
  2
*X8
340
0
102
{BLKREFS
331
1383
102
}
  0
BLOCK_RECORD
  5
148C
330
144A
100
AcDbSymbolTableRecord
100
AcDbBlockTableRecord
  2
*X9
340
0
102
{BLKREFS
331
13B2
102
}
  0
BLOCK_RECORD
  5
148D
330
144A
100
AcDbSymbolTableRecord
100
AcDbBlockTableRecord
  2
*X10
340
0
102
{BLKREFS
331
140F
102
}
  0
BLOCK_RECORD
  5
14A2
330
144A
100
AcDbSymbolTableRecord
100
AcDbBlockTableRecord
  2
*D11
340
0
  0
BLOCK_RECORD
  5
14B2
330
144A
100
AcDbSymbolTableRecord
100
AcDbBlockTableRecord
  2
KATALOG_LEER
340
0
102
{BLKREFS
331
14F4
331
1511
102
}
  0
BLOCK_RECORD
  5
151E
330
144A
100
AcDbSymbolTableRecord
100
AcDbBlockTableRecord
  2
*D14
340
0
  0
BLOCK_RECORD
  5
1535
330
144A
100
AcDbSymbolTableRecord
100
AcDbBlockTableRecord
  2
*D15
340
0
  0
BLOCK_RECORD
  5
154E
330
144A
100
AcDbSymbolTableRecord
100
AcDbBlockTableRecord
  2
*D16
340
0
  0
BLOCK_RECORD
  5
1569
330
144A
100
AcDbSymbolTableRecord
100
AcDbBlockTableRecord
  2
*D17
340
0
  0
BLOCK_RECORD
  5
159B
330
144A
100
AcDbSymbolTableRecord
100
AcDbBlockTableRecord
  2
*D19
340
0
  0
BLOCK_RECORD
  5
15B2
330
144A
100
AcDbSymbolTableRecord
100
AcDbBlockTableRecord
  2
*D20
340
0
  0
BLOCK_RECORD
  5
15C9
330
144A
100
AcDbSymbolTableRecord
100
AcDbBlockTableRecord
  2
*D21
340
0
  0
BLOCK_RECORD
  5
17D4
330
144A
100
AcDbSymbolTableRecord
100
AcDbBlockTableRecord
  2
GENAXEH
340
0
  0
ENDTAB
  0
ENDSEC
  0
SECTION
  2
BLOCKS
  0
BLOCK
  5
1462
330
1461
100
AcDbEntity
  8
0
100
AcDbBlockBegin
  2
*MODEL_SPACE
 70
     0
 10
0.0
 20
0.0
 30
0.0
  3
*MODEL_SPACE
  1

  0
ENDBLK
  5
1463
330
1461
100
AcDbEntity
  8
0
100
AcDbBlockEnd
  0
BLOCK
  5
145F
330
145E
100
AcDbEntity
 67
     1
  8
0
100
AcDbBlockBegin
  2
*PAPER_SPACE
 70
     0
 10
0.0
 20
0.0
 30
0.0
  3
*PAPER_SPACE
  1

  0
ENDBLK
  5
1460
330
145E
100
AcDbEntity
 67
     1
  8
0
100
AcDbBlockEnd
  0
BLOCK
  5
1001
330
147C
100
AcDbEntity
  8
0
100
AcDbBlockBegin
  2
*X0
 70
     1
 10
0.0
 20
0.0
 30
0.0
  3
*X0
  1

  0
LINE
  5
1002
330
147C
100
AcDbEntity
  8
8
100
AcDbLine
 10
13.879
 20
-29.5
 30
0.0
 11
18.462
 21
-24.917
 31
0.0
  0
LINE
  5
1003
330
147C
100
AcDbEntity
  8
8
100
AcDbLine
 10
9.388999999999999
 20
-29.5
 30
0.0
 11
11.389
 21
-27.5
 31
0.0
  0
LINE
  5
1004
330
147C
100
AcDbEntity
  8
8
100
AcDbLine
 10
17.73
 20
-21.158
 30
0.0
 11
18.91099999999999
 21
-19.97799999999999
 31
0.0
  0
LINE
  5
1005
330
147C
100
AcDbEntity
  8
8
100
AcDbLine
 10
4.899
 20
-29.5
 30
0.0
 11
6.897999999999999
 21
-27.5
 31
0.0
  0
LINE
  5
1006
330
147C
100
AcDbEntity
  8
8
100
AcDbLine
 10
-3.092
 20
-33.0
 30
0.0
 11
0.0
 21
-29.908
 31
0.0
  0
LINE
  5
1007
330
147C
100
AcDbEntity
  8
8
100
AcDbLine
 10
0.408
 20
-29.5
 30
0.0
 11
5.91
 21
-23.998
 31
0.0
  0
LINE
  5
1008
330
147C
100
AcDbEntity
  8
8
100
AcDbLine
 10
-4.0
 20
-29.418
 30
0.0
 11
-2.081999999999999
 21
-27.5
 31
0.0
  0
LINE
  5
1009
330
147C
100
AcDbEntity
  8
8
100
AcDbLine
 10
18.474
 20
-24.788
 30
0.0
 11
16.661
 21
-22.976
 31
0.0
  0
LINE
  5
100A
330
147C
100
AcDbEntity
  8
8
100
AcDbLine
 10
18.1
 20
-28.904
 30
0.0
 11
14.998
 21
-25.803
 31
0.0
  0
LINE
  5
100B
330
147C
100
AcDbEntity
  8
8
100
AcDbLine
 10
14.205
 20
-29.5
 30
0.0
 11
12.205
 21
-27.5
 31
0.0
  0
LINE
  5
100C
330
147C
100
AcDbEntity
  8
8
100
AcDbLine
 10
6.895999999999999
 20
-22.191
 30
0.0
 11
6.705
 21
-22.0
 31
0.0
  0
LINE
  5
100D
330
147C
100
AcDbEntity
  8
8
100
AcDbLine
 10
9.714999999999999
 20
-29.5
 30
0.0
 11
7.714999999999999
 21
-27.5
 31
0.0
  0
LINE
  5
100E
330
147C
100
AcDbEntity
  8
8
100
AcDbLine
 10
5.310999999999999
 20
-25.096
 30
0.0
 11
3.858
 21
-23.642
 31
0.0
  0
LINE
  5
100F
330
147C
100
AcDbEntity
  8
8
100
AcDbLine
 10
5.224999999999999
 20
-29.5
 30
0.0
 11
1.613
 21
-25.887
 31
0.0
  0
LINE
  5
1010
330
147C
100
AcDbEntity
  8
8
100
AcDbLine
 10
0.735
 20
-29.5
 30
0.0
 11
-1.264999999999999
 21
-27.5
 31
0.0
  0
LINE
  5
1011
330
147C
100
AcDbEntity
  8
8
100
AcDbLine
 10
-0.255
 20
-33.0
 30
0.0
 11
-4.0
 21
-29.255
 31
0.0
  0
ENDBLK
  5
1012
330
147C
100
AcDbEntity
  8
0
100
AcDbBlockEnd
  0
BLOCK
  5
1013
330
147D
100
AcDbEntity
  8
0
100
AcDbBlockBegin
  2
*X1
 70
     1
 10
0.0
 20
0.0
 30
0.0
  3
*X1
  1

  0
LINE
  5
1014
330
147D
100
AcDbEntity
  8
8
100
AcDbLine
 10
16.773
 20
22.786
 30
0.0
 11
18.499
 21
24.512
 31
0.0
  0
LINE
  5
1015
330
147D
100
AcDbEntity
  8
8
100
AcDbLine
 10
15.11
 20
25.61300000000001
 30
0.0
 11
18.125
 21
28.628
 31
0.0
  0
LINE
  5
1016
330
147D
100
AcDbEntity
  8
8
100
AcDbLine
 10
12.507
 20
27.5
 30
0.0
 11
14.507
 21
29.5
 31
0.0
  0
LINE
  5
1017
330
147D
100
AcDbEntity
  8
8
100
AcDbLine
 10
4.008
 20
23.491
 30
0.0
 11
5.417999999999999
 21
24.901
 31
0.0
  0
LINE
  5
1018
330
147D
100
AcDbEntity
  8
8
100
AcDbLine
 10
8.017000000000001
 20
27.5
 30
0.0
 11
10.017
 21
29.5
 31
0.0
  0
LINE
  5
1019
330
147D
100
AcDbEntity
  8
8
100
AcDbLine
 10
1.763
 20
25.737
 30
0.0
 11
5.527
 21
29.5
 31
0.0
  0
LINE
  5
101A
330
147D
100
AcDbEntity
  8
8
100
AcDbLine
 10
-0.9629999999999999
 20
27.5
 30
0.0
 11
1.036999999999999
 21
29.5
 31
0.0
  0
LINE
  5
101B
330
147D
100
AcDbEntity
  8
8
100
AcDbLine
 10
-4.0
 20
28.95300000000001
 30
0.0
 11
0.0
 21
32.95300000000001
 31
0.0
  0
LINE
  5
101C
330
147D
100
AcDbEntity
  8
8
100
AcDbLine
 10
18.492
 20
24.585
 30
0.0
 11
13.577
 21
29.5
 31
0.0
  0
LINE
  5
101D
330
147D
100
AcDbEntity
  8
8
100
AcDbLine
 10
18.941
 20
19.646
 30
0.0
 11
18.162
 21
20.425
 31
0.0
  0
LINE
  5
101E
330
147D
100
AcDbEntity
  8
8
100
AcDbLine
 10
11.087
 20
27.5
 30
0.0
 11
9.086999999999999
 21
29.5
 31
0.0
  0
LINE
  5
101F
330
147D
100
AcDbEntity
  8
8
100
AcDbLine
 10
6.597
 20
27.5
 30
0.0
 11
4.596999999999999
 21
29.5
 31
0.0
  0
LINE
  5
1020
330
147D
100
AcDbEntity
  8
8
100
AcDbLine
 10
6.272
 20
23.335
 30
0.0
 11
0.107
 21
29.5
 31
0.0
  0
LINE
  5
1021
330
147D
100
AcDbEntity
  8
8
100
AcDbLine
 10
0.0
 20
29.607
 30
0.0
 11
-3.393
 21
33.0
 31
0.0
  0
LINE
  5
1022
330
147D
100
AcDbEntity
  8
8
100
AcDbLine
 10
-2.383
 20
27.5
 30
0.0
 11
-4.0
 21
29.117
 31
0.0
  0
ENDBLK
  5
1023
330
147D
100
AcDbEntity
  8
0
100
AcDbBlockEnd
  0
BLOCK
  5
11A2
330
1481
100
AcDbEntity
  8
0
100
AcDbBlockBegin
  2
*X3
 70
     1
 10
0.0
 20
0.0
 30
0.0
  3
*X3
  1

  0
LINE
  5
11A3
330
1481
100
AcDbEntity
  8
8
100
AcDbLine
 10
310.953
 20
238.207
 30
0.0
 11
313.453
 21
238.207
 31
0.0
  0
LINE
  5
11A4
330
1481
100
AcDbEntity
  8
8
100
AcDbLine
 10
433.4529999999999
 20
238.207
 30
0.0
 11
435.953
 21
238.207
 31
0.0
  0
LINE
  5
11A5
330
1481
100
AcDbEntity
  8
8
100
AcDbLine
 10
310.953
 20
241.382
 30
0.0
 11
313.453
 21
241.382
 31
0.0
  0
LINE
  5
11A6
330
1481
100
AcDbEntity
  8
8
100
AcDbLine
 10
433.4529999999999
 20
241.382
 30
0.0
 11
435.953
 21
241.382
 31
0.0
  0
LINE
  5
11A7
330
1481
100
AcDbEntity
  8
8
100
AcDbLine
 10
310.953
 20
244.557
 30
0.0
 11
313.453
 21
244.557
 31
0.0
  0
LINE
  5
11A8
330
1481
100
AcDbEntity
  8
8
100
AcDbLine
 10
433.4529999999999
 20
244.557
 30
0.0
 11
435.953
 21
244.557
 31
0.0
  0
LINE
  5
11A9
330
1481
100
AcDbEntity
  8
8
100
AcDbLine
 10
310.953
 20
247.732
 30
0.0
 11
313.453
 21
247.732
 31
0.0
  0
LINE
  5
11AA
330
1481
100
AcDbEntity
  8
8
100
AcDbLine
 10
433.4529999999999
 20
247.732
 30
0.0
 11
435.953
 21
247.732
 31
0.0
  0
LINE
  5
11AB
330
1481
100
AcDbEntity
  8
8
100
AcDbLine
 10
310.953
 20
250.907
 30
0.0
 11
313.453
 21
250.907
 31
0.0
  0
LINE
  5
11AC
330
1481
100
AcDbEntity
  8
8
100
AcDbLine
 10
433.4529999999999
 20
250.907
 30
0.0
 11
435.953
 21
250.907
 31
0.0
  0
LINE
  5
11AD
330
1481
100
AcDbEntity
  8
8
100
AcDbLine
 10
310.953
 20
254.082
 30
0.0
 11
313.453
 21
254.082
 31
0.0
  0
LINE
  5
11AE
330
1481
100
AcDbEntity
  8
8
100
AcDbLine
 10
433.4529999999999
 20
254.082
 30
0.0
 11
435.953
 21
254.082
 31
0.0
  0
LINE
  5
11AF
330
1481
100
AcDbEntity
  8
8
100
AcDbLine
 10
310.953
 20
257.257
 30
0.0
 11
313.453
 21
257.257
 31
0.0
  0
LINE
  5
11B0
330
1481
100
AcDbEntity
  8
8
100
AcDbLine
 10
433.4529999999999
 20
257.257
 30
0.0
 11
435.953
 21
257.257
 31
0.0
  0
LINE
  5
11B1
330
1481
100
AcDbEntity
  8
8
100
AcDbLine
 10
310.953
 20
260.432
 30
0.0
 11
313.453
 21
260.432
 31
0.0
  0
LINE
  5
11B2
330
1481
100
AcDbEntity
  8
8
100
AcDbLine
 10
433.4529999999999
 20
260.432
 30
0.0
 11
435.953
 21
260.432
 31
0.0
  0
LINE
  5
11B3
330
1481
100
AcDbEntity
  8
8
100
AcDbLine
 10
310.953
 20
263.607
 30
0.0
 11
313.453
 21
263.607
 31
0.0
  0
LINE
  5
11B4
330
1481
100
AcDbEntity
  8
8
100
AcDbLine
 10
433.4529999999999
 20
263.607
 30
0.0
 11
435.953
 21
263.607
 31
0.0
  0
LINE
  5
11B5
330
1481
100
AcDbEntity
  8
8
100
AcDbLine
 10
310.953
 20
266.782
 30
0.0
 11
313.453
 21
266.782
 31
0.0
  0
LINE
  5
11B6
330
1481
100
AcDbEntity
  8
8
100
AcDbLine
 10
433.4529999999999
 20
266.782
 30
0.0
 11
435.953
 21
266.782
 31
0.0
  0
LINE
  5
11B7
330
1481
100
AcDbEntity
  8
8
100
AcDbLine
 10
310.953
 20
269.957
 30
0.0
 11
313.453
 21
269.957
 31
0.0
  0
LINE
  5
11B8
330
1481
100
AcDbEntity
  8
8
100
AcDbLine
 10
433.4529999999999
 20
269.957
 30
0.0
 11
435.953
 21
269.957
 31
0.0
  0
LINE
  5
11B9
330
1481
100
AcDbEntity
  8
8
100
AcDbLine
 10
310.953
 20
273.132
 30
0.0
 11
313.453
 21
273.132
 31
0.0
  0
LINE
  5
11BA
330
1481
100
AcDbEntity
  8
8
100
AcDbLine
 10
433.4529999999999
 20
273.132
 30
0.0
 11
435.953
 21
273.132
 31
0.0
  0
LINE
  5
11BB
330
1481
100
AcDbEntity
  8
8
100
AcDbLine
 10
310.953
 20
276.307
 30
0.0
 11
313.453
 21
276.307
 31
0.0
  0
LINE
  5
11BC
330
1481
100
AcDbEntity
  8
8
100
AcDbLine
 10
433.4529999999999
 20
276.307
 30
0.0
 11
435.953
 21
276.307
 31
0.0
  0
LINE
  5
11BD
330
1481
100
AcDbEntity
  8
8
100
AcDbLine
 10
310.953
 20
279.482
 30
0.0
 11
313.453
 21
279.482
 31
0.0
  0
LINE
  5
11BE
330
1481
100
AcDbEntity
  8
8
100
AcDbLine
 10
433.4529999999999
 20
279.482
 30
0.0
 11
435.953
 21
279.482
 31
0.0
  0
LINE
  5
11BF
330
1481
100
AcDbEntity
  8
8
100
AcDbLine
 10
310.953
 20
282.657
 30
0.0
 11
313.453
 21
282.657
 31
0.0
  0
LINE
  5
11C0
330
1481
100
AcDbEntity
  8
8
100
AcDbLine
 10
433.4529999999999
 20
282.657
 30
0.0
 11
435.953
 21
282.657
 31
0.0
  0
LINE
  5
11C1
330
1481
100
AcDbEntity
  8
8
100
AcDbLine
 10
310.953
 20
285.832
 30
0.0
 11
313.453
 21
285.832
 31
0.0
  0
LINE
  5
11C2
330
1481
100
AcDbEntity
  8
8
100
AcDbLine
 10
433.4529999999999
 20
285.832
 30
0.0
 11
435.953
 21
285.832
 31
0.0
  0
LINE
  5
11C3
330
1481
100
AcDbEntity
  8
8
100
AcDbLine
 10
310.953
 20
289.007
 30
0.0
 11
313.453
 21
289.007
 31
0.0
  0
LINE
  5
11C4
330
1481
100
AcDbEntity
  8
8
100
AcDbLine
 10
433.4529999999999
 20
289.007
 30
0.0
 11
435.953
 21
289.007
 31
0.0
  0
LINE
  5
11C5
330
1481
100
AcDbEntity
  8
8
100
AcDbLine
 10
310.953
 20
292.182
 30
0.0
 11
313.453
 21
292.182
 31
0.0
  0
LINE
  5
11C6
330
1481
100
AcDbEntity
  8
8
100
AcDbLine
 10
433.4529999999999
 20
292.182
 30
0.0
 11
435.953
 21
292.182
 31
0.0
  0
LINE
  5
11C7
330
1481
100
AcDbEntity
  8
8
100
AcDbLine
 10
310.953
 20
295.357
 30
0.0
 11
313.453
 21
295.357
 31
0.0
  0
LINE
  5
11C8
330
1481
100
AcDbEntity
  8
8
100
AcDbLine
 10
433.4529999999999
 20
295.357
 30
0.0
 11
435.953
 21
295.357
 31
0.0
  0
LINE
  5
11C9
330
1481
100
AcDbEntity
  8
8
100
AcDbLine
 10
310.953
 20
298.532
 30
0.0
 11
313.453
 21
298.532
 31
0.0
  0
LINE
  5
11CA
330
1481
100
AcDbEntity
  8
8
100
AcDbLine
 10
433.4529999999999
 20
298.532
 30
0.0
 11
435.953
 21
298.532
 31
0.0
  0
LINE
  5
11CB
330
1481
100
AcDbEntity
  8
8
100
AcDbLine
 10
311.267
 20
301.707
 30
0.0
 11
313.848
 21
301.707
 31
0.0
  0
LINE
  5
11CC
330
1481
100
AcDbEntity
  8
8
100
AcDbLine
 10
433.0569999999999
 20
301.707
 30
0.0
 11
435.639
 21
301.707
 31
0.0
  0
LINE
  5
11CD
330
1481
100
AcDbEntity
  8
8
100
AcDbLine
 10
312.17
 20
304.882
 30
0.0
 11
314.923
 21
304.882
 31
0.0
  0
LINE
  5
11CE
330
1481
100
AcDbEntity
  8
8
100
AcDbLine
 10
431.983
 20
304.882
 30
0.0
 11
434.735
 21
304.882
 31
0.0
  0
LINE
  5
11CF
330
1481
100
AcDbEntity
  8
8
100
AcDbLine
 10
313.779
 20
308.057
 30
0.0
 11
316.907
 21
308.057
 31
0.0
  0
LINE
  5
11D0
330
1481
100
AcDbEntity
  8
8
100
AcDbLine
 10
368.597
 20
308.057
 30
0.0
 11
378.309
 21
308.057
 31
0.0
  0
LINE
  5
11D1
330
1481
100
AcDbEntity
  8
8
100
AcDbLine
 10
429.999
 20
308.057
 30
0.0
 11
433.1269999999999
 21
308.057
 31
0.0
  0
LINE
  5
11D2
330
1481
100
AcDbEntity
  8
8
100
AcDbLine
 10
316.406
 20
311.232
 30
0.0
 11
320.559
 21
311.232
 31
0.0
  0
LINE
  5
11D3
330
1481
100
AcDbEntity
  8
8
100
AcDbLine
 10
365.838
 20
311.232
 30
0.0
 11
368.927
 21
311.232
 31
0.0
  0
LINE
  5
11D4
330
1481
100
AcDbEntity
  8
8
100
AcDbLine
 10
377.9790000000001
 20
311.232
 30
0.0
 11
381.0680000000001
 21
311.232
 31
0.0
  0
LINE
  5
11D5
330
1481
100
AcDbEntity
  8
8
100
AcDbLine
 10
426.3469999999999
 20
311.232
 30
0.0
 11
430.4999999999999
 21
311.232
 31
0.0
  0
LINE
  5
11D6
330
1481
100
AcDbEntity
  8
8
100
AcDbLine
 10
321.121
 20
314.407
 30
0.0
 11
337.716
 21
314.407
 31
0.0
  0
LINE
  5
11D7
330
1481
100
AcDbEntity
  8
8
100
AcDbLine
 10
364.002
 20
314.407
 30
0.0
 11
366.892
 21
314.407
 31
0.0
  0
LINE
  5
11D8
330
1481
100
AcDbEntity
  8
8
100
AcDbLine
 10
380.014
 20
314.407
 30
0.0
 11
382.904
 21
314.407
 31
0.0
  0
LINE
  5
11D9
330
1481
100
AcDbEntity
  8
8
100
AcDbLine
 10
409.1859999999999
 20
314.407
 30
0.0
 11
425.785
 21
314.407
 31
0.0
  0
LINE
  5
11DA
330
1481
100
AcDbEntity
  8
8
100
AcDbLine
 10
345.325
 20
317.582
 30
0.0
 11
364.634
 21
317.582
 31
0.0
  0
LINE
  5
11DB
330
1481
100
AcDbEntity
  8
8
100
AcDbLine
 10
382.272
 20
317.582
 30
0.0
 11
401.5799999999999
 21
317.582
 31
0.0
  0
ENDBLK
  5
11DC
330
1481
100
AcDbEntity
  8
0
100
AcDbBlockEnd
  0
BLOCK
  5
121D
330
1482
100
AcDbEntity
  8
0
100
AcDbBlockBegin
  2
*X4
 70
     1
 10
0.0
 20
0.0
 30
0.0
  3
*X4
  1

  0
LINE
  5
121E
330
1482
100
AcDbEntity
  8
8
100
AcDbLine
 10
328.358
 20
177.882
 30
0.0
 11
333.453
 21
177.882
 31
0.0
  0
LINE
  5
121F
330
1482
100
AcDbEntity
  8
8
100
AcDbLine
 10
330.244
 20
181.057
 30
0.0
 11
333.453
 21
181.057
 31
0.0
  0
LINE
  5
1220
330
1482
100
AcDbEntity
  8
8
100
AcDbLine
 10
329.989
 20
184.232
 30
0.0
 11
333.453
 21
184.232
 31
0.0
  0
LINE
  5
1221
330
1482
100
AcDbEntity
  8
8
100
AcDbLine
 10
328.503
 20
187.407
 30
0.0
 11
333.453
 21
187.407
 31
0.0
  0
LINE
  5
1222
330
1482
100
AcDbEntity
  8
8
100
AcDbLine
 10
328.453
 20
190.582
 30
0.0
 11
333.453
 21
190.582
 31
0.0
  0
LINE
  5
1223
330
1482
100
AcDbEntity
  8
8
100
AcDbLine
 10
328.892
 20
193.757
 30
0.0
 11
333.453
 21
193.757
 31
0.0
  0
LINE
  5
1224
330
1482
100
AcDbEntity
  8
8
100
AcDbLine
 10
330.379
 20
196.932
 30
0.0
 11
333.453
 21
196.932
 31
0.0
  0
LINE
  5
1225
330
1482
100
AcDbEntity
  8
8
100
AcDbLine
 10
330.224
 20
200.107
 30
0.0
 11
333.453
 21
200.107
 31
0.0
  0
LINE
  5
1226
330
1482
100
AcDbEntity
  8
8
100
AcDbLine
 10
324.996
 20
203.282
 30
0.0
 11
333.453
 21
203.282
 31
0.0
  0
LINE
  5
1227
330
1482
100
AcDbEntity
  8
8
100
AcDbLine
 10
330.076
 20
206.457
 30
0.0
 11
333.453
 21
206.457
 31
0.0
  0
LINE
  5
1228
330
1482
100
AcDbEntity
  8
8
100
AcDbLine
 10
330.205
 20
209.632
 30
0.0
 11
333.453
 21
209.632
 31
0.0
  0
LINE
  5
1229
330
1482
100
AcDbEntity
  8
8
100
AcDbLine
 10
313.052
 20
212.807
 30
0.0
 11
333.917
 21
212.807
 31
0.0
  0
LINE
  5
122A
330
1482
100
AcDbEntity
  8
8
100
AcDbLine
 10
324.453
 20
215.982
 30
0.0
 11
335.662
 21
215.982
 31
0.0
  0
LINE
  5
122B
330
1482
100
AcDbEntity
  8
8
100
AcDbLine
 10
334.586
 20
219.157
 30
0.0
 11
339.591
 21
219.157
 31
0.0
  0
LINE
  5
122C
330
1482
100
AcDbEntity
  8
8
100
AcDbLine
 10
339.78
 20
222.332
 30
0.0
 11
343.607
 21
222.332
 31
0.0
  0
LINE
  5
122D
330
1482
100
AcDbEntity
  8
8
100
AcDbLine
 10
343.172
 20
225.507
 30
0.0
 11
346.419
 21
225.507
 31
0.0
  0
LINE
  5
122E
330
1482
100
AcDbEntity
  8
8
100
AcDbLine
 10
345.6130000000001
 20
228.682
 30
0.0
 11
348.518
 21
228.682
 31
0.0
  0
LINE
  5
122F
330
1482
100
AcDbEntity
  8
8
100
AcDbLine
 10
347.311
 20
231.857
 30
0.0
 11
349.961
 21
231.857
 31
0.0
  0
LINE
  5
1230
330
1482
100
AcDbEntity
  8
8
100
AcDbLine
 10
348.449
 20
235.032
 30
0.0
 11
351.934
 21
235.032
 31
0.0
  0
LINE
  5
1231
330
1482
100
AcDbEntity
  8
8
100
AcDbLine
 10
349.139
 20
238.207
 30
0.0
 11
351.912
 21
238.207
 31
0.0
  0
LINE
  5
1232
330
1482
100
AcDbEntity
  8
8
100
AcDbLine
 10
349.399
 20
241.382
 30
0.0
 11
351.89
 21
241.382
 31
0.0
  0
LINE
  5
1233
330
1482
100
AcDbEntity
  8
8
100
AcDbLine
 10
349.4530000000001
 20
244.557
 30
0.0
 11
351.885
 21
244.557
 31
0.0
  0
LINE
  5
1234
330
1482
100
AcDbEntity
  8
8
100
AcDbLine
 10
349.4530000000001
 20
247.732
 30
0.0
 11
351.889
 21
247.732
 31
0.0
  0
LINE
  5
1235
330
1482
100
AcDbEntity
  8
8
100
AcDbLine
 10
349.4530000000001
 20
250.907
 30
0.0
 11
351.894
 21
250.907
 31
0.0
  0
LINE
  5
1236
330
1482
100
AcDbEntity
  8
8
100
AcDbLine
 10
349.4530000000001
 20
254.082
 30
0.0
 11
351.898
 21
254.082
 31
0.0
  0
LINE
  5
1237
330
1482
100
AcDbEntity
  8
8
100
AcDbLine
 10
349.4530000000001
 20
257.257
 30
0.0
 11
351.902
 21
257.257
 31
0.0
  0
LINE
  5
1238
330
1482
100
AcDbEntity
  8
8
100
AcDbLine
 10
349.4530000000001
 20
260.432
 30
0.0
 11
351.906
 21
260.432
 31
0.0
  0
LINE
  5
1239
330
1482
100
AcDbEntity
  8
8
100
AcDbLine
 10
349.4530000000001
 20
263.607
 30
0.0
 11
351.911
 21
263.607
 31
0.0
  0
LINE
  5
123A
330
1482
100
AcDbEntity
  8
8
100
AcDbLine
 10
349.4530000000001
 20
266.782
 30
0.0
 11
351.915
 21
266.782
 31
0.0
  0
LINE
  5
123B
330
1482
100
AcDbEntity
  8
8
100
AcDbLine
 10
349.4530000000001
 20
269.957
 30
0.0
 11
351.919
 21
269.957
 31
0.0
  0
LINE
  5
123C
330
1482
100
AcDbEntity
  8
8
100
AcDbLine
 10
349.4530000000001
 20
273.132
 30
0.0
 11
351.923
 21
273.132
 31
0.0
  0
LINE
  5
123D
330
1482
100
AcDbEntity
  8
8
100
AcDbLine
 10
349.4530000000001
 20
276.307
 30
0.0
 11
351.9280000000001
 21
276.307
 31
0.0
  0
LINE
  5
123E
330
1482
100
AcDbEntity
  8
8
100
AcDbLine
 10
349.4530000000001
 20
279.482
 30
0.0
 11
351.932
 21
279.482
 31
0.0
  0
LINE
  5
123F
330
1482
100
AcDbEntity
  8
8
100
AcDbLine
 10
349.4530000000001
 20
282.657
 30
0.0
 11
351.936
 21
282.657
 31
0.0
  0
LINE
  5
1240
330
1482
100
AcDbEntity
  8
8
100
AcDbLine
 10
349.4530000000001
 20
285.832
 30
0.0
 11
351.94
 21
285.832
 31
0.0
  0
LINE
  5
1241
330
1482
100
AcDbEntity
  8
8
100
AcDbLine
 10
349.4530000000001
 20
289.007
 30
0.0
 11
351.945
 21
289.007
 31
0.0
  0
LINE
  5
1242
330
1482
100
AcDbEntity
  8
8
100
AcDbLine
 10
349.4530000000001
 20
292.182
 30
0.0
 11
351.949
 21
292.182
 31
0.0
  0
ENDBLK
  5
1243
330
1482
100
AcDbEntity
  8
0
100
AcDbBlockEnd
  0
BLOCK
  5
1285
330
1483
100
AcDbEntity
  8
0
100
AcDbBlockBegin
  2
*X5
 70
     1
 10
0.0
 20
0.0
 30
0.0
  3
*X5
  1

  0
LINE
  5
1286
330
1483
100
AcDbEntity
  8
8
100
AcDbLine
 10
413.453
 20
177.882
 30
0.0
 11
418.689
 21
177.882
 31
0.0
  0
LINE
  5
1287
330
1483
100
AcDbEntity
  8
8
100
AcDbLine
 10
413.453
 20
181.057
 30
0.0
 11
416.603
 21
181.057
 31
0.0
  0
LINE
  5
1288
330
1483
100
AcDbEntity
  8
8
100
AcDbLine
 10
413.453
 20
184.232
 30
0.0
 11
416.8769999999999
 21
184.232
 31
0.0
  0
LINE
  5
1289
330
1483
100
AcDbEntity
  8
8
100
AcDbLine
 10
413.453
 20
187.407
 30
0.0
 11
418.4029999999999
 21
187.407
 31
0.0
  0
LINE
  5
128A
330
1483
100
AcDbEntity
  8
8
100
AcDbLine
 10
413.453
 20
190.582
 30
0.0
 11
418.453
 21
190.582
 31
0.0
  0
LINE
  5
128B
330
1483
100
AcDbEntity
  8
8
100
AcDbLine
 10
413.453
 20
193.757
 30
0.0
 11
418.0139999999999
 21
193.757
 31
0.0
  0
LINE
  5
128C
330
1483
100
AcDbEntity
  8
8
100
AcDbLine
 10
413.453
 20
196.932
 30
0.0
 11
416.5259999999999
 21
196.932
 31
0.0
  0
LINE
  5
128D
330
1483
100
AcDbEntity
  8
8
100
AcDbLine
 10
413.453
 20
200.107
 30
0.0
 11
416.6859999999999
 21
200.107
 31
0.0
  0
LINE
  5
128E
330
1483
100
AcDbEntity
  8
8
100
AcDbLine
 10
413.453
 20
203.282
 30
0.0
 11
421.9079999999999
 21
203.282
 31
0.0
  0
LINE
  5
128F
330
1483
100
AcDbEntity
  8
8
100
AcDbLine
 10
413.453
 20
206.457
 30
0.0
 11
416.8379999999999
 21
206.457
 31
0.0
  0
LINE
  5
1290
330
1483
100
AcDbEntity
  8
8
100
AcDbLine
 10
413.453
 20
209.632
 30
0.0
 11
416.708
 21
209.632
 31
0.0
  0
LINE
  5
1291
330
1483
100
AcDbEntity
  8
8
100
AcDbLine
 10
412.9819999999999
 20
212.807
 30
0.0
 11
433.854
 21
212.807
 31
0.0
  0
LINE
  5
1292
330
1483
100
AcDbEntity
  8
8
100
AcDbLine
 10
411.2359999999999
 20
215.982
 30
0.0
 11
422.453
 21
215.982
 31
0.0
  0
LINE
  5
1293
330
1483
100
AcDbEntity
  8
8
100
AcDbLine
 10
407.318
 20
219.157
 30
0.0
 11
412.3319999999999
 21
219.157
 31
0.0
  0
LINE
  5
1294
330
1483
100
AcDbEntity
  8
8
100
AcDbLine
 10
403.3069999999999
 20
222.332
 30
0.0
 11
407.1349999999999
 21
222.332
 31
0.0
  0
LINE
  5
1295
330
1483
100
AcDbEntity
  8
8
100
AcDbLine
 10
400.494
 20
225.507
 30
0.0
 11
403.7409999999999
 21
225.507
 31
0.0
  0
LINE
  5
1296
330
1483
100
AcDbEntity
  8
8
100
AcDbLine
 10
398.394
 20
228.682
 30
0.0
 11
401.299
 21
228.682
 31
0.0
  0
LINE
  5
1297
330
1483
100
AcDbEntity
  8
8
100
AcDbLine
 10
396.945
 20
231.857
 30
0.0
 11
399.602
 21
231.857
 31
0.0
  0
LINE
  5
1298
330
1483
100
AcDbEntity
  8
8
100
AcDbLine
 10
394.953
 20
235.032
 30
0.0
 11
398.456
 21
235.032
 31
0.0
  0
LINE
  5
1299
330
1483
100
AcDbEntity
  8
8
100
AcDbLine
 10
394.953
 20
238.207
 30
0.0
 11
397.772
 21
238.207
 31
0.0
  0
LINE
  5
129A
330
1483
100
AcDbEntity
  8
8
100
AcDbLine
 10
394.953
 20
241.382
 30
0.0
 11
397.5080000000001
 21
241.382
 31
0.0
  0
LINE
  5
129B
330
1483
100
AcDbEntity
  8
8
100
AcDbLine
 10
394.953
 20
244.557
 30
0.0
 11
397.4530000000001
 21
244.557
 31
0.0
  0
LINE
  5
129C
330
1483
100
AcDbEntity
  8
8
100
AcDbLine
 10
394.953
 20
247.732
 30
0.0
 11
397.4530000000001
 21
247.732
 31
0.0
  0
LINE
  5
129D
330
1483
100
AcDbEntity
  8
8
100
AcDbLine
 10
394.953
 20
250.907
 30
0.0
 11
397.4530000000001
 21
250.907
 31
0.0
  0
LINE
  5
129E
330
1483
100
AcDbEntity
  8
8
100
AcDbLine
 10
394.953
 20
254.082
 30
0.0
 11
397.4530000000001
 21
254.082
 31
0.0
  0
LINE
  5
129F
330
1483
100
AcDbEntity
  8
8
100
AcDbLine
 10
394.953
 20
257.257
 30
0.0
 11
397.4530000000001
 21
257.257
 31
0.0
  0
LINE
  5
12A0
330
1483
100
AcDbEntity
  8
8
100
AcDbLine
 10
394.953
 20
260.432
 30
0.0
 11
397.4530000000001
 21
260.432
 31
0.0
  0
LINE
  5
12A1
330
1483
100
AcDbEntity
  8
8
100
AcDbLine
 10
394.953
 20
263.607
 30
0.0
 11
397.4530000000001
 21
263.607
 31
0.0
  0
LINE
  5
12A2
330
1483
100
AcDbEntity
  8
8
100
AcDbLine
 10
394.953
 20
266.782
 30
0.0
 11
397.4530000000001
 21
266.782
 31
0.0
  0
LINE
  5
12A3
330
1483
100
AcDbEntity
  8
8
100
AcDbLine
 10
394.953
 20
269.957
 30
0.0
 11
397.4530000000001
 21
269.957
 31
0.0
  0
LINE
  5
12A4
330
1483
100
AcDbEntity
  8
8
100
AcDbLine
 10
394.953
 20
273.132
 30
0.0
 11
397.4530000000001
 21
273.132
 31
0.0
  0
LINE
  5
12A5
330
1483
100
AcDbEntity
  8
8
100
AcDbLine
 10
394.953
 20
276.307
 30
0.0
 11
397.4530000000001
 21
276.307
 31
0.0
  0
LINE
  5
12A6
330
1483
100
AcDbEntity
  8
8
100
AcDbLine
 10
394.953
 20
279.482
 30
0.0
 11
397.4530000000001
 21
279.482
 31
0.0
  0
LINE
  5
12A7
330
1483
100
AcDbEntity
  8
8
100
AcDbLine
 10
394.953
 20
282.657
 30
0.0
 11
397.4530000000001
 21
282.657
 31
0.0
  0
LINE
  5
12A8
330
1483
100
AcDbEntity
  8
8
100
AcDbLine
 10
394.953
 20
285.832
 30
0.0
 11
397.4530000000001
 21
285.832
 31
0.0
  0
LINE
  5
12A9
330
1483
100
AcDbEntity
  8
8
100
AcDbLine
 10
394.953
 20
289.007
 30
0.0
 11
397.4530000000001
 21
289.007
 31
0.0
  0
LINE
  5
12AA
330
1483
100
AcDbEntity
  8
8
100
AcDbLine
 10
394.953
 20
292.182
 30
0.0
 11
397.4530000000001
 21
292.182
 31
0.0
  0
ENDBLK
  5
12AB
330
1483
100
AcDbEntity
  8
0
100
AcDbBlockEnd
  0
BLOCK
  5
12C9
330
1484
100
AcDbEntity
  8
0
100
AcDbBlockBegin
  2
*X6
 70
     1
 10
0.0
 20
0.0
 30
0.0
  3
*X6
  1

  0
LINE
  5
12CA
330
1484
100
AcDbEntity
  8
8
100
AcDbLine
 10
419.3469999999999
 20
194.289
 30
0.0
 11
424.207
 21
199.149
 31
0.0
  0
LINE
  5
12CB
330
1484
100
AcDbEntity
  8
8
100
AcDbLine
 10
416.8849999999999
 20
196.317
 30
0.0
 11
422.179
 21
201.611
 31
0.0
  0
LINE
  5
12CC
330
1484
100
AcDbEntity
  8
8
100
AcDbLine
 10
424.0209999999999
 20
196.61
 30
0.0
 11
418.899
 21
201.732
 31
0.0
  0
LINE
  5
12CD
330
1484
100
AcDbEntity
  8
8
100
AcDbLine
 10
421.7299999999999
 20
194.41
 30
0.0
 11
416.699
 21
199.442
 31
0.0
  0
ENDBLK
  5
12CE
330
1484
100
AcDbEntity
  8
0
100
AcDbBlockEnd
  0
BLOCK
  5
12EC
330
1485
100
AcDbEntity
  8
0
100
AcDbBlockBegin
  2
*X7
 70
     1
 10
0.0
 20
0.0
 30
0.0
  3
*X7
  1

  0
LINE
  5
12ED
330
1485
100
AcDbEntity
  8
8
100
AcDbLine
 10
325.175
 20
194.41
 30
0.0
 11
330.2059999999999
 21
199.441
 31
0.0
  0
LINE
  5
12EE
330
1485
100
AcDbEntity
  8
8
100
AcDbLine
 10
322.884
 20
196.609
 30
0.0
 11
328.0069999999999
 21
201.732
 31
0.0
  0
LINE
  5
12EF
330
1485
100
AcDbEntity
  8
8
100
AcDbLine
 10
330.021
 20
196.318
 30
0.0
 11
324.727
 21
201.611
 31
0.0
  0
LINE
  5
12F0
330
1485
100
AcDbEntity
  8
8
100
AcDbLine
 10
327.559
 20
194.289
 30
0.0
 11
322.699
 21
199.149
 31
0.0
  0
ENDBLK
  5
12F1
330
1485
100
AcDbEntity
  8
0
100
AcDbBlockEnd
  0
BLOCK
  5
135E
330
148B
100
AcDbEntity
  8
0
100
AcDbBlockBegin
  2
*X8
 70
     1
 10
0.0
 20
0.0
 30
0.0
  3
*X8
  1

  0
LINE
  5
135F
330
148B
100
AcDbEntity
  8
8
100
AcDbLine
 10
318.614
 20
133.967
 30
0.0
 11
324.276
 21
139.629
 31
0.0
  0
LINE
  5
1360
330
148B
100
AcDbEntity
  8
8
100
AcDbLine
 10
318.471
 20
142.804
 30
0.0
 11
324.153
 21
148.486
 31
0.0
  0
LINE
  5
1361
330
148B
100
AcDbEntity
  8
8
100
AcDbLine
 10
318.328
 20
151.641
 30
0.0
 11
323.351
 21
156.665
 31
0.0
  0
LINE
  5
1362
330
148B
100
AcDbEntity
  8
8
100
AcDbLine
 10
318.184
 20
160.478
 30
0.0
 11
323.157
 21
165.451
 31
0.0
  0
LINE
  5
1363
330
148B
100
AcDbEntity
  8
8
100
AcDbLine
 10
318.041
 20
169.315
 30
0.0
 11
323.019
 21
174.293
 31
0.0
  0
LINE
  5
1364
330
148B
100
AcDbEntity
  8
8
100
AcDbLine
 10
317.898
 20
178.152
 30
0.0
 11
322.88
 21
183.135
 31
0.0
  0
LINE
  5
1365
330
148B
100
AcDbEntity
  8
8
100
AcDbLine
 10
317.754
 20
186.989
 30
0.0
 11
322.741
 21
191.976
 31
0.0
  0
LINE
  5
1366
330
148B
100
AcDbEntity
  8
8
100
AcDbLine
 10
317.611
 20
195.826
 30
0.0
 11
322.627
 21
200.842
 31
0.0
  0
LINE
  5
1367
330
148B
100
AcDbEntity
  8
8
100
AcDbLine
 10
315.9190000000001
 20
203.114
 30
0.0
 11
322.239
 21
209.435
 31
0.0
  0
LINE
  5
1368
330
148B
100
AcDbEntity
  8
8
100
AcDbLine
 10
312.013
 20
208.189
 30
0.0
 11
315.868
 21
212.043
 31
0.0
  0
LINE
  5
1369
330
148B
100
AcDbEntity
  8
8
100
AcDbLine
 10
306.302
 20
211.458
 30
0.0
 11
311.15
 21
216.306
 31
0.0
  0
LINE
  5
136A
330
148B
100
AcDbEntity
  8
8
100
AcDbLine
 10
298.2
 20
212.336
 30
0.0
 11
302.907
 21
217.043
 31
0.0
  0
LINE
  5
136B
330
148B
100
AcDbEntity
  8
8
100
AcDbLine
 10
290.693
 20
213.809
 30
0.0
 11
294.659
 21
217.775
 31
0.0
  0
LINE
  5
136C
330
148B
100
AcDbEntity
  8
8
100
AcDbLine
 10
284.433
 20
216.529
 30
0.0
 11
288.091
 21
220.188
 31
0.0
  0
LINE
  5
136D
330
148B
100
AcDbEntity
  8
8
100
AcDbLine
 10
279.074
 20
220.151
 30
0.0
 11
282.677
 21
223.753
 31
0.0
  0
LINE
  5
136E
330
148B
100
AcDbEntity
  8
8
100
AcDbLine
 10
274.513
 20
224.57
 30
0.0
 11
278.212
 21
228.269
 31
0.0
  0
LINE
  5
136F
330
148B
100
AcDbEntity
  8
8
100
AcDbLine
 10
270.887
 20
229.924
 30
0.0
 11
274.697
 21
233.734
 31
0.0
  0
LINE
  5
1370
330
148B
100
AcDbEntity
  8
8
100
AcDbLine
 10
268.198
 20
236.216
 30
0.0
 11
272.357
 21
240.375
 31
0.0
  0
LINE
  5
1371
330
148B
100
AcDbEntity
  8
8
100
AcDbLine
 10
266.754
 20
243.751
 30
0.0
 11
271.387
 21
248.385
 31
0.0
  0
LINE
  5
1372
330
148B
100
AcDbEntity
  8
8
100
AcDbLine
 10
265.795
 20
251.773
 30
0.0
 11
270.94
 21
256.918
 31
0.0
  0
LINE
  5
1373
330
148B
100
AcDbEntity
  8
8
100
AcDbLine
 10
261.667
 20
256.625
 30
0.0
 11
266.085
 21
261.043
 31
0.0
  0
LINE
  5
1374
330
148B
100
AcDbEntity
  8
8
100
AcDbLine
 10
254.842
 20
258.781
 30
0.0
 11
258.925
 21
262.863
 31
0.0
  0
LINE
  5
1375
330
148B
100
AcDbEntity
  8
8
100
AcDbLine
 10
247.76
 20
260.678
 30
0.0
 11
251.842
 21
264.761
 31
0.0
  0
LINE
  5
1376
330
148B
100
AcDbEntity
  8
8
100
AcDbLine
 10
240.677
 20
262.576
 30
0.0
 11
244.759
 21
266.659
 31
0.0
  0
LINE
  5
1377
330
148B
100
AcDbEntity
  8
8
100
AcDbLine
 10
233.595
 20
264.474
 30
0.0
 11
237.677
 21
268.556
 31
0.0
  0
LINE
  5
1378
330
148B
100
AcDbEntity
  8
8
100
AcDbLine
 10
226.512
 20
266.372
 30
0.0
 11
230.594
 21
270.454
 31
0.0
  0
LINE
  5
1379
330
148B
100
AcDbEntity
  8
8
100
AcDbLine
 10
219.43
 20
268.269
 30
0.0
 11
223.512
 21
272.352
 31
0.0
  0
LINE
  5
137A
330
148B
100
AcDbEntity
  8
8
100
AcDbLine
 10
212.347
 20
270.167
 30
0.0
 11
216.429
 21
274.25
 31
0.0
  0
LINE
  5
137B
330
148B
100
AcDbEntity
  8
8
100
AcDbLine
 10
205.264
 20
272.065
 30
0.0
 11
209.347
 21
276.147
 31
0.0
  0
LINE
  5
137C
330
148B
100
AcDbEntity
  8
8
100
AcDbLine
 10
198.182
 20
273.963
 30
0.0
 11
202.264
 21
278.045
 31
0.0
  0
LINE
  5
137D
330
148B
100
AcDbEntity
  8
8
100
AcDbLine
 10
189.782
 20
274.543
 30
0.0
 11
195.207
 21
279.968
 31
0.0
  0
LINE
  5
137E
330
148B
100
AcDbEntity
  8
8
100
AcDbLine
 10
180.802
 20
274.543
 30
0.0
 11
190.802
 21
284.543
 31
0.0
  0
LINE
  5
137F
330
148B
100
AcDbEntity
  8
8
100
AcDbLine
 10
171.822
 20
274.543
 30
0.0
 11
177.322
 21
280.043
 31
0.0
  0
LINE
  5
1380
330
148B
100
AcDbEntity
  8
8
100
AcDbLine
 10
162.842
 20
274.543
 30
0.0
 11
168.341
 21
280.043
 31
0.0
  0
LINE
  5
1381
330
148B
100
AcDbEntity
  8
8
100
AcDbLine
 10
158.453
 20
279.135
 30
0.0
 11
159.361
 21
280.043
 31
0.0
  0
ENDBLK
  5
1382
330
148B
100
AcDbEntity
  8
0
100
AcDbBlockEnd
  0
BLOCK
  5
139F
330
148C
100
AcDbEntity
  8
0
100
AcDbBlockBegin
  2
*X9
 70
     1
 10
0.0
 20
0.0
 30
0.0
  3
*X9
  1

  0
LINE
  5
13A0
330
148C
100
AcDbEntity
  8
8
100
AcDbLine
 10
263.499
 20
303.358
 30
0.0
 11
268.256
 21
308.116
 31
0.0
  0
LINE
  5
13A1
330
148C
100
AcDbEntity
  8
8
100
AcDbLine
 10
263.051
 20
311.891
 30
0.0
 11
267.809
 21
316.649
 31
0.0
  0
LINE
  5
13A2
330
148C
100
AcDbEntity
  8
8
100
AcDbLine
 10
262.6040000000001
 20
320.424
 30
0.0
 11
267.362
 21
325.182
 31
0.0
  0
LINE
  5
13A3
330
148C
100
AcDbEntity
  8
8
100
AcDbLine
 10
262.157
 20
328.957
 30
0.0
 11
266.914
 21
333.715
 31
0.0
  0
LINE
  5
13A4
330
148C
100
AcDbEntity
  8
8
100
AcDbLine
 10
259.753
 20
335.534
 30
0.0
 11
266.467
 21
342.2480000000001
 31
0.0
  0
LINE
  5
13A5
330
148C
100
AcDbEntity
  8
8
100
AcDbLine
 10
254.0
 20
338.761
 30
0.0
 11
262.282
 21
347.043
 31
0.0
  0
LINE
  5
13A6
330
148C
100
AcDbEntity
  8
8
100
AcDbLine
 10
245.302
 20
339.043
 30
0.0
 11
253.302
 21
347.043
 31
0.0
  0
LINE
  5
13A7
330
148C
100
AcDbEntity
  8
8
100
AcDbLine
 10
236.322
 20
339.043
 30
0.0
 11
244.322
 21
347.043
 31
0.0
  0
LINE
  5
13A8
330
148C
100
AcDbEntity
  8
8
100
AcDbLine
 10
227.342
 20
339.043
 30
0.0
 11
235.342
 21
347.043
 31
0.0
  0
LINE
  5
13A9
330
148C
100
AcDbEntity
  8
8
100
AcDbLine
 10
218.361
 20
339.043
 30
0.0
 11
226.361
 21
347.043
 31
0.0
  0
LINE
  5
13AA
330
148C
100
AcDbEntity
  8
8
100
AcDbLine
 10
209.381
 20
339.043
 30
0.0
 11
217.381
 21
347.043
 31
0.0
  0
LINE
  5
13AB
330
148C
100
AcDbEntity
  8
8
100
AcDbLine
 10
200.401
 20
339.043
 30
0.0
 11
208.401
 21
347.043
 31
0.0
  0
LINE
  5
13AC
330
148C
100
AcDbEntity
  8
8
100
AcDbLine
 10
187.447
 20
335.07
 30
0.0
 11
199.421
 21
347.043
 31
0.0
  0
LINE
  5
13AD
330
148C
100
AcDbEntity
  8
8
100
AcDbLine
 10
182.44
 20
339.043
 30
0.0
 11
190.44
 21
347.043
 31
0.0
  0
LINE
  5
13AE
330
148C
100
AcDbEntity
  8
8
100
AcDbLine
 10
173.46
 20
339.043
 30
0.0
 11
181.46
 21
347.043
 31
0.0
  0
LINE
  5
13AF
330
148C
100
AcDbEntity
  8
8
100
AcDbLine
 10
164.48
 20
339.043
 30
0.0
 11
172.48
 21
347.043
 31
0.0
  0
LINE
  5
13B0
330
148C
100
AcDbEntity
  8
8
100
AcDbLine
 10
158.616
 20
342.159
 30
0.0
 11
163.499
 21
347.043
 31
0.0
  0
ENDBLK
  5
13B1
330
148C
100
AcDbEntity
  8
0
100
AcDbBlockEnd
  0
BLOCK
  5
13E9
330
148D
100
AcDbEntity
  8
0
100
AcDbBlockBegin
  2
*X10
 70
     1
 10
0.0
 20
0.0
 30
0.0
  3
*X10
  1

  0
LINE
  5
13EA
330
148D
100
AcDbEntity
  8
8
100
AcDbLine
 10
422.496
 20
130.086
 30
0.0
 11
428.324
 21
135.915
 31
0.0
  0
LINE
  5
13EB
330
148D
100
AcDbEntity
  8
8
100
AcDbLine
 10
422.623
 20
139.194
 30
0.0
 11
428.472
 21
145.043
 31
0.0
  0
LINE
  5
13EC
330
148D
100
AcDbEntity
  8
8
100
AcDbLine
 10
422.75
 20
148.301
 30
0.0
 11
428.62
 21
154.171
 31
0.0
  0
LINE
  5
13ED
330
148D
100
AcDbEntity
  8
8
100
AcDbLine
 10
423.6359999999999
 20
158.167
 30
0.0
 11
428.768
 21
163.299
 31
0.0
  0
LINE
  5
13EE
330
148D
100
AcDbEntity
  8
8
100
AcDbLine
 10
423.795
 20
167.307
 30
0.0
 11
428.9159999999999
 21
172.427
 31
0.0
  0
LINE
  5
13EF
330
148D
100
AcDbEntity
  8
8
100
AcDbLine
 10
423.9549999999999
 20
176.446
 30
0.0
 11
429.064
 21
181.555
 31
0.0
  0
LINE
  5
13F0
330
148D
100
AcDbEntity
  8
8
100
AcDbLine
 10
466.389
 20
218.88
 30
0.0
 11
473.055
 21
225.547
 31
0.0
  0
LINE
  5
13F1
330
148D
100
AcDbEntity
  8
8
100
AcDbLine
 10
586.552
 20
339.043
 30
0.0
 11
588.3580000000001
 21
340.849
 31
0.0
  0
LINE
  5
13F2
330
148D
100
AcDbEntity
  8
8
100
AcDbLine
 10
424.114
 20
185.586
 30
0.0
 11
429.211
 21
190.683
 31
0.0
  0
LINE
  5
13F3
330
148D
100
AcDbEntity
  8
8
100
AcDbLine
 10
451.069
 20
212.541
 30
0.0
 11
458.65
 21
220.122
 31
0.0
  0
LINE
  5
13F4
330
148D
100
AcDbEntity
  8
8
100
AcDbLine
 10
472.165
 20
233.637
 30
0.0
 11
479.802
 21
241.273
 31
0.0
  0
LINE
  5
13F5
330
148D
100
AcDbEntity
  8
8
100
AcDbLine
 10
577.5719999999999
 20
339.043
 30
0.0
 11
585.365
 21
346.837
 31
0.0
  0
LINE
  5
13F6
330
148D
100
AcDbEntity
  8
8
100
AcDbLine
 10
424.274
 20
194.725
 30
0.0
 11
429.8769999999999
 21
200.329
 31
0.0
  0
LINE
  5
13F7
330
148D
100
AcDbEntity
  8
8
100
AcDbLine
 10
441.063
 20
211.515
 30
0.0
 11
446.733
 21
217.185
 31
0.0
  0
LINE
  5
13F8
330
148D
100
AcDbEntity
  8
8
100
AcDbLine
 10
475.3869999999999
 20
245.839
 30
0.0
 11
480.6709999999999
 21
251.122
 31
0.0
  0
LINE
  5
13F9
330
148D
100
AcDbEntity
  8
8
100
AcDbLine
 10
568.5909999999999
 20
339.043
 30
0.0
 11
576.5909999999999
 21
347.043
 31
0.0
  0
LINE
  5
13FA
330
148D
100
AcDbEntity
  8
8
100
AcDbLine
 10
424.433
 20
203.866
 30
0.0
 11
432.6109999999999
 21
212.043
 31
0.0
  0
LINE
  5
13FB
330
148D
100
AcDbEntity
  8
8
100
AcDbLine
 10
435.346
 20
214.778
 30
0.0
 11
437.6109999999999
 21
217.043
 31
0.0
  0
LINE
  5
13FC
330
148D
100
AcDbEntity
  8
8
100
AcDbLine
 10
475.883
 20
255.316
 30
0.0
 11
481.1669999999999
 21
260.599
 31
0.0
  0
LINE
  5
13FD
330
148D
100
AcDbEntity
  8
8
100
AcDbLine
 10
559.611
 20
339.043
 30
0.0
 11
567.611
 21
347.043
 31
0.0
  0
LINE
  5
13FE
330
148D
100
AcDbEntity
  8
8
100
AcDbLine
 10
476.3799999999999
 20
264.793
 30
0.0
 11
481.6639999999999
 21
270.076
 31
0.0
  0
LINE
  5
13FF
330
148D
100
AcDbEntity
  8
8
100
AcDbLine
 10
551.86
 20
340.272
 30
0.0
 11
558.631
 21
347.043
 31
0.0
  0
LINE
  5
1400
330
148D
100
AcDbEntity
  8
8
100
AcDbLine
 10
476.8769999999999
 20
274.269
 30
0.0
 11
482.1609999999999
 21
279.553
 31
0.0
  0
LINE
  5
1401
330
148D
100
AcDbEntity
  8
8
100
AcDbLine
 10
543.3469999999999
 20
340.74
 30
0.0
 11
549.65
 21
347.043
 31
0.0
  0
LINE
  5
1402
330
148D
100
AcDbEntity
  8
8
100
AcDbLine
 10
477.373
 20
283.746
 30
0.0
 11
482.657
 21
289.03
 31
0.0
  0
LINE
  5
1403
330
148D
100
AcDbEntity
  8
8
100
AcDbLine
 10
534.0419999999999
 20
340.415
 30
0.0
 11
540.6699999999999
 21
347.043
 31
0.0
  0
LINE
  5
1404
330
148D
100
AcDbEntity
  8
8
100
AcDbLine
 10
477.8699999999999
 20
293.223
 30
0.0
 11
483.154
 21
298.507
 31
0.0
  0
LINE
  5
1405
330
148D
100
AcDbEntity
  8
8
100
AcDbLine
 10
524.737
 20
340.09
 30
0.0
 11
531.69
 21
347.043
 31
0.0
  0
LINE
  5
1406
330
148D
100
AcDbEntity
  8
8
100
AcDbLine
 10
478.3669999999999
 20
302.7
 30
0.0
 11
483.651
 21
307.984
 31
0.0
  0
LINE
  5
1407
330
148D
100
AcDbEntity
  8
8
100
AcDbLine
 10
515.273
 20
339.607
 30
0.0
 11
522.71
 21
347.043
 31
0.0
  0
LINE
  5
1408
330
148D
100
AcDbEntity
  8
8
100
AcDbLine
 10
478.863
 20
312.177
 30
0.0
 11
484.147
 21
317.461
 31
0.0
  0
LINE
  5
1409
330
148D
100
AcDbEntity
  8
8
100
AcDbLine
 10
505.9689999999999
 20
339.282
 30
0.0
 11
513.729
 21
347.043
 31
0.0
  0
LINE
  5
140A
330
148D
100
AcDbEntity
  8
8
100
AcDbLine
 10
479.36
 20
321.654
 30
0.0
 11
484.644
 21
326.938
 31
0.0
  0
LINE
  5
140B
330
148D
100
AcDbEntity
  8
8
100
AcDbLine
 10
496.7919999999999
 20
339.086
 30
0.0
 11
504.749
 21
347.043
 31
0.0
  0
LINE
  5
140C
330
148D
100
AcDbEntity
  8
8
100
AcDbLine
 10
479.8569999999999
 20
331.131
 30
0.0
 11
495.769
 21
347.043
 31
0.0
  0
LINE
  5
140D
330
148D
100
AcDbEntity
  8
8
100
AcDbLine
 10
480.353
 20
340.608
 30
0.0
 11
486.789
 21
347.043
 31
0.0
  0
ENDBLK
  5
140E
330
148D
100
AcDbEntity
  8
0
100
AcDbBlockEnd
  0
BLOCK
  5
16B0
330
14A2
100
AcDbEntity
  8
0
100
AcDbBlockBegin
  2
*D11
 70
     1
 10
0.0
 20
0.0
 30
0.0
  3
*D11
  1

  0
LINE
  5
16B1
330
14A2
100
AcDbEntity
  8
0
  6
ByBlock
100
AcDbLine
 10
164.955707
 20
394.072962
 30
0.0
 11
164.955707
 21
538.794962
 31
0.0
  0
LINE
  5
16B2
330
14A2
100
AcDbEntity
  8
0
  6
ByBlock
100
AcDbLine
 10
594.9537069999999
 20
394.072962
 30
0.0
 11
594.9537069999999
 21
538.794962
 31
0.0
  0
LINE
  5
16B3
330
14A2
100
AcDbEntity
  8
0
  6
ByBlock
100
AcDbLine
 10
177.455707
 20
533.794962
 30
0.0
 11
582.4537069999999
 21
533.794962
 31
0.0
  0
SOLID
  5
16B4
330
14A2
100
AcDbEntity
  8
0
  6
ByBlock
100
AcDbTrace
 10
177.455707
 20
535.878296
 30
0.0
 11
177.455707
 21
531.711629
 31
0.0
 12
164.955707
 22
533.794962
 32
0.0
 13
164.955707
 23
533.794962
 33
0.0
  0
SOLID
  5
16B5
330
14A2
100
AcDbEntity
  8
0
  6
ByBlock
100
AcDbTrace
 10
582.4537069999999
 20
535.878296
 30
0.0
 11
582.4537069999999
 21
531.711629
 31
0.0
 12
594.9537069999999
 22
533.794962
 32
0.0
 13
594.9537069999999
 23
533.794962
 33
0.0
  0
MTEXT
  5
16B6
330
14A2
100
AcDbEntity
  8
0
  6
ByBlock
 62
     2
100
AcDbMText
 10
379.239707
 20
545.544962
 30
0.0
 40
17.5
 41
0.0
 71
     5
 72
     1
  1
\U+2205 430
 73
     1
 44
1.0
1001
ACAD
1000
MTEXTBEGIN
1070
    73
1070
     1
1070
    44
1040
1.0
1070
    74
1070
     0
1000
MTEXTEND
  0
POINT
  5
16B7
330
14A2
100
AcDbEntity
  8
DEFPOINTS
  6
ByBlock
 62
     0
100
AcDbPoint
 10
164.955707
 20
389.072962
 30
0.0
  0
POINT
  5
16B8
330
14A2
100
AcDbEntity
  8
DEFPOINTS
  6
ByBlock
 62
     0
100
AcDbPoint
 10
594.9537069999999
 20
389.072962
 30
0.0
  0
POINT
  5
16B9
330
14A2
100
AcDbEntity
  8
DEFPOINTS
  6
ByBlock
 62
     0
100
AcDbPoint
 10
594.9537069999999
 20
533.794962
 30
0.0
  0
ENDBLK
  5
16BA
330
14A2
100
AcDbEntity
  8
0
100
AcDbBlockEnd
  0
BLOCK
  5
14B3
330
14B2
100
AcDbEntity
  8
0
100
AcDbBlockBegin
  2
KATALOG_LEER
 70
     0
 10
0.0
 20
0.0
 30
0.0
  3
KATALOG_LEER
  1

  0
ENDBLK
  5
14B4
330
14B2
100
AcDbEntity
  8
0
100
AcDbBlockEnd
  0
BLOCK
  5
152A
330
151E
100
AcDbEntity
  8
0
100
AcDbBlockBegin
  2
*D14
 70
     1
 10
0.0
 20
0.0
 30
0.0
  3
*D14
  1

  0
LINE
  5
152B
330
151E
100
AcDbEntity
  8
0
  6
ByBlock
100
AcDbLine
 10
159.955707
 20
389.072962
 30
0.0
 11
76.207707
 21
389.072962
 31
0.0
  0
LINE
  5
152C
330
151E
100
AcDbEntity
  8
0
  6
ByBlock
100
AcDbLine
 10
159.954707
 20
330.072962
 30
0.0
 11
76.207707
 21
330.072962
 31
0.0
  0
LINE
  5
152D
330
151E
100
AcDbEntity
  8
0
  6
ByBlock
100
AcDbLine
 10
81.20770699999999
 20
376.572962
 30
0.0
 11
81.20770699999999
 21
342.572962
 31
0.0
  0
SOLID
  5
152E
330
151E
100
AcDbEntity
  8
0
  6
ByBlock
100
AcDbTrace
 10
79.124374
 20
376.572962
 30
0.0
 11
83.291041
 21
376.572962
 31
0.0
 12
81.20770699999999
 22
389.072962
 32
0.0
 13
81.20770699999999
 23
389.072962
 33
0.0
  0
SOLID
  5
152F
330
151E
100
AcDbEntity
  8
0
  6
ByBlock
100
AcDbTrace
 10
79.124374
 20
342.572962
 30
0.0
 11
83.291041
 21
342.572962
 31
0.0
 12
81.20770699999999
 22
330.072962
 32
0.0
 13
81.20770699999999
 23
330.072962
 33
0.0
  0
MTEXT
  5
1530
330
151E
100
AcDbEntity
  8
0
  6
ByBlock
 62
     2
100
AcDbMText
 10
69.457707
 20
359.572962
 30
0.0
 40
17.5
 41
0.0
 71
     5
 72
     1
  1
\U+2205 59
 11
0.0
 21
1.0
 31
0.0
 73
     1
 44
1.0
1001
ACAD
1000
MTEXTBEGIN
1070
    73
1070
     1
1070
    44
1040
1.0
1070
    74
1070
     0
1000
MTEXTEND
  0
POINT
  5
1531
330
151E
100
AcDbEntity
  8
DEFPOINTS
  6
ByBlock
 62
     0
100
AcDbPoint
 10
164.955707
 20
389.072962
 30
0.0
  0
POINT
  5
1532
330
151E
100
AcDbEntity
  8
DEFPOINTS
  6
ByBlock
 62
     0
100
AcDbPoint
 10
164.954707
 20
330.072962
 30
0.0
  0
POINT
  5
1533
330
151E
100
AcDbEntity
  8
DEFPOINTS
  6
ByBlock
 62
     0
100
AcDbPoint
 10
81.20770699999999
 20
330.072962
 30
0.0
  0
ENDBLK
  5
1534
330
151E
100
AcDbEntity
  8
0
100
AcDbBlockEnd
  0
BLOCK
  5
1542
330
1535
100
AcDbEntity
  8
0
100
AcDbBlockBegin
  2
*D15
 70
     1
 10
0.0
 20
0.0
 30
0.0
  3
*D15
  1

  0
LINE
  5
1543
330
1535
100
AcDbEntity
  8
0
  6
ByBlock
100
AcDbLine
 10
169.954707
 20
359.572962
 30
0.0
 11
259.808707
 21
359.572962
 31
0.0
  0
LINE
  5
1544
330
1535
100
AcDbEntity
  8
0
  6
ByBlock
100
AcDbLine
 10
229.808707
 20
397.072962
 30
0.0
 11
259.808707
 21
397.072962
 31
0.0
  0
LINE
  5
1545
330
1535
100
AcDbEntity
  8
0
  6
ByBlock
100
AcDbLine
 10
254.808707
 20
372.072962
 30
0.0
 11
254.808707
 21
384.572962
 31
0.0
  0
LINE
  5
1546
330
1535
100
AcDbEntity
  8
0
  6
ByBlock
100
AcDbLine
 10
254.808707
 20
397.072962
 30
0.0
 11
254.808707
 21
441.7039619999999
 31
0.0
  0
SOLID
  5
1547
330
1535
100
AcDbEntity
  8
0
  6
ByBlock
100
AcDbTrace
 10
252.725374
 20
372.072962
 30
0.0
 11
256.892041
 21
372.072962
 31
0.0
 12
254.808707
 22
359.572962
 32
0.0
 13
254.808707
 23
359.572962
 33
0.0
  0
SOLID
  5
1548
330
1535
100
AcDbEntity
  8
0
  6
ByBlock
100
AcDbTrace
 10
252.725374
 20
384.572962
 30
0.0
 11
256.892041
 21
384.572962
 31
0.0
 12
254.808707
 22
397.072962
 32
0.0
 13
254.808707
 23
397.072962
 33
0.0
  0
MTEXT
  5
1549
330
1535
100
AcDbEntity
  8
0
  6
ByBlock
 62
     2
100
AcDbMText
 10
243.058707
 20
429.0789619999999
 30
0.0
 40
17.5
 41
0.0
 71
     5
 72
     1
  1
38
 11
0.0
 21
1.0
 31
0.0
 73
     1
 44
1.0
1001
ACAD
1000
MTEXTBEGIN
1070
    73
1070
     1
1070
    44
1040
1.0
1070
    74
1070
     0
1000
MTEXTEND
  0
POINT
  5
154A
330
1535
100
AcDbEntity
  8
DEFPOINTS
  6
ByBlock
 62
     0
100
AcDbPoint
 10
164.954707
 20
359.572962
 30
0.0
  0
POINT
  5
154B
330
1535
100
AcDbEntity
  8
DEFPOINTS
  6
ByBlock
 62
     0
100
AcDbPoint
 10
224.808707
 20
397.072962
 30
0.0
  0
POINT
  5
154C
330
1535
100
AcDbEntity
  8
DEFPOINTS
  6
ByBlock
 62
     0
100
AcDbPoint
 10
254.808707
 20
397.072962
 30
0.0
  0
ENDBLK
  5
154D
330
1535
100
AcDbEntity
  8
0
100
AcDbBlockEnd
  0
BLOCK
  5
155C
330
154E
100
AcDbEntity
  8
0
100
AcDbBlockBegin
  2
*D16
 70
     1
 10
0.0
 20
0.0
 30
0.0
  3
*D16
  1

  0
LINE
  5
155D
330
154E
100
AcDbEntity
  8
0
  6
ByBlock
100
AcDbLine
 10
636.5267069999999
 20
397.072962
 30
0.0
 11
666.5267069999999
 21
397.072962
 31
0.0
  0
LINE
  5
155E
330
154E
100
AcDbEntity
  8
0
  6
ByBlock
100
AcDbLine
 10
599.953707
 20
389.072962
 30
0.0
 11
666.5267069999999
 21
389.072962
 31
0.0
  0
LINE
  5
155F
330
154E
100
AcDbEntity
  8
0
  6
ByBlock
100
AcDbLine
 10
661.5267069999999
 20
409.572962
 30
0.0
 11
661.5267069999999
 21
422.072962
 31
0.0
  0
LINE
  5
1560
330
154E
100
AcDbEntity
  8
0
  6
ByBlock
100
AcDbLine
 10
661.5267069999999
 20
376.572962
 30
0.0
 11
661.5267069999999
 21
351.072962
 31
0.0
  0
LINE
  5
1561
330
154E
100
AcDbEntity
  8
0
  6
ByBlock
100
AcDbLine
 10
661.5267069999999
 20
397.072962
 30
0.0
 11
661.5267069999999
 21
389.072962
 31
0.0
  0
SOLID
  5
1562
330
154E
100
AcDbEntity
  8
0
  6
ByBlock
100
AcDbTrace
 10
659.443374
 20
409.572962
 30
0.0
 11
663.610041
 21
409.572962
 31
0.0
 12
661.5267069999999
 22
397.072962
 32
0.0
 13
661.5267069999999
 23
397.072962
 33
0.0
  0
SOLID
  5
1563
330
154E
100
AcDbEntity
  8
0
  6
ByBlock
100
AcDbTrace
 10
659.443374
 20
376.572962
 30
0.0
 11
663.610041
 21
376.572962
 31
0.0
 12
661.5267069999999
 22
389.072962
 32
0.0
 13
661.5267069999999
 23
389.072962
 33
0.0
  0
MTEXT
  5
1564
330
154E
100
AcDbEntity
  8
0
  6
ByBlock
 62
     2
100
AcDbMText
 10
649.776707
 20
357.572962
 30
0.0
 40
17.5
 41
0.0
 71
     5
 72
     1
  1
8
 11
0.0
 21
1.0
 31
0.0
 73
     1
 44
1.0
1001
ACAD
1000
MTEXTBEGIN
1070
    73
1070
     1
1070
    44
1040
1.0
1070
    74
1070
     0
1000
MTEXTEND
  0
POINT
  5
1565
330
154E
100
AcDbEntity
  8
DEFPOINTS
  6
ByBlock
 62
     0
100
AcDbPoint
 10
631.5267069999999
 20
397.072962
 30
0.0
  0
POINT
  5
1566
330
154E
100
AcDbEntity
  8
DEFPOINTS
  6
ByBlock
 62
     0
100
AcDbPoint
 10
594.9537069999999
 20
389.072962
 30
0.0
  0
POINT
  5
1567
330
154E
100
AcDbEntity
  8
DEFPOINTS
  6
ByBlock
 62
     0
100
AcDbPoint
 10
661.5267069999999
 20
389.072962
 30
0.0
  0
ENDBLK
  5
1568
330
154E
100
AcDbEntity
  8
0
100
AcDbBlockEnd
  0
BLOCK
  5
1575
330
1569
100
AcDbEntity
  8
0
100
AcDbBlockBegin
  2
*D17
 70
     1
 10
0.0
 20
0.0
 30
0.0
  3
*D17
  1

  0
LINE
  5
1576
330
1569
100
AcDbEntity
  8
0
  6
ByBlock
100
AcDbLine
 10
265.953707
 20
407.0729619999999
 30
0.0
 11
265.953707
 21
495.141962
 31
0.0
  0
LINE
  5
1577
330
1569
100
AcDbEntity
  8
0
  6
ByBlock
100
AcDbLine
 10
493.954707
 20
407.0729619999999
 30
0.0
 11
493.954707
 21
495.141962
 31
0.0
  0
LINE
  5
1578
330
1569
100
AcDbEntity
  8
0
  6
ByBlock
100
AcDbLine
 10
278.453707
 20
490.141962
 30
0.0
 11
481.454707
 21
490.141962
 31
0.0
  0
SOLID
  5
1579
330
1569
100
AcDbEntity
  8
0
  6
ByBlock
100
AcDbTrace
 10
278.453707
 20
492.225296
 30
0.0
 11
278.453707
 21
488.058629
 31
0.0
 12
265.953707
 22
490.141962
 32
0.0
 13
265.953707
 23
490.141962
 33
0.0
  0
SOLID
  5
157A
330
1569
100
AcDbEntity
  8
0
  6
ByBlock
100
AcDbTrace
 10
481.454707
 20
492.225296
 30
0.0
 11
481.454707
 21
488.058629
 31
0.0
 12
493.954707
 22
490.141962
 32
0.0
 13
493.954707
 23
490.141962
 33
0.0
  0
MTEXT
  5
157B
330
1569
100
AcDbEntity
  8
0
  6
ByBlock
 62
     2
100
AcDbMText
 10
379.953707
 20
501.8936849999999
 30
0.0
 40
17.5
 41
0.0
 71
     5
 72
     1
  1
\U+2205 228
 73
     1
 44
1.0
1001
ACAD
1000
MTEXTBEGIN
1070
    73
1070
     1
1070
    44
1040
1.0
1070
    74
1070
     0
1000
MTEXTEND
  0
POINT
  5
157C
330
1569
100
AcDbEntity
  8
DEFPOINTS
  6
ByBlock
 62
     0
100
AcDbPoint
 10
265.953707
 20
402.072962
 30
0.0
  0
POINT
  5
157D
330
1569
100
AcDbEntity
  8
DEFPOINTS
  6
ByBlock
 62
     0
100
AcDbPoint
 10
493.954707
 20
402.072962
 30
0.0
  0
POINT
  5
157E
330
1569
100
AcDbEntity
  8
DEFPOINTS
  6
ByBlock
 62
     0
100
AcDbPoint
 10
493.954707
 20
490.141962
 30
0.0
  0
ENDBLK
  5
157F
330
1569
100
AcDbEntity
  8
0
100
AcDbBlockEnd
  0
BLOCK
  5
15A7
330
159B
100
AcDbEntity
  8
0
100
AcDbBlockBegin
  2
*D19
 70
     1
 10
0.0
 20
0.0
 30
0.0
  3
*D19
  1

  0
LINE
  5
15A8
330
159B
100
AcDbEntity
  8
0
  6
ByBlock
100
AcDbLine
 10
447.454707
 20
285.072962
 30
0.0
 11
569.493707
 21
285.072962
 31
0.0
  0
LINE
  5
15A9
330
159B
100
AcDbEntity
  8
0
  6
ByBlock
100
AcDbLine
 10
408.954707
 20
345.072962
 30
0.0
 11
569.493707
 21
345.072962
 31
0.0
  0
LINE
  5
15AA
330
159B
100
AcDbEntity
  8
0
  6
ByBlock
100
AcDbLine
 10
564.4937070000001
 20
297.572962
 30
0.0
 11
564.4937070000001
 21
332.572962
 31
0.0
  0
SOLID
  5
15AB
330
159B
100
AcDbEntity
  8
0
  6
ByBlock
100
AcDbTrace
 10
562.410374
 20
297.572962
 30
0.0
 11
566.577041
 21
297.572962
 31
0.0
 12
564.4937070000001
 22
285.072962
 32
0.0
 13
564.4937070000001
 23
285.072962
 33
0.0
  0
SOLID
  5
15AC
330
159B
100
AcDbEntity
  8
0
  6
ByBlock
100
AcDbTrace
 10
562.410374
 20
332.572962
 30
0.0
 11
566.577041
 21
332.572962
 31
0.0
 12
564.4937070000001
 22
345.072962
 32
0.0
 13
564.4937070000001
 23
345.072962
 33
0.0
  0
MTEXT
  5
15AD
330
159B
100
AcDbEntity
  8
0
  6
ByBlock
 62
     2
100
AcDbMText
 10
552.7437070000001
 20
321.596962
 30
0.0
 40
17.5
 41
0.0
 71
     5
 72
     1
  1
60
 11
0.0
 21
1.0
 31
0.0
 73
     1
 44
1.0
1001
ACAD
1000
MTEXTBEGIN
1070
    73
1070
     1
1070
    44
1040
1.0
1070
    74
1070
     0
1000
MTEXTEND
  0
POINT
  5
15AE
330
159B
100
AcDbEntity
  8
DEFPOINTS
  6
ByBlock
 62
     0
100
AcDbPoint
 10
442.454707
 20
285.072962
 30
0.0
  0
POINT
  5
15AF
330
159B
100
AcDbEntity
  8
DEFPOINTS
  6
ByBlock
 62
     0
100
AcDbPoint
 10
403.954707
 20
345.072962
 30
0.0
  0
POINT
  5
15B0
330
159B
100
AcDbEntity
  8
DEFPOINTS
  6
ByBlock
 62
     0
100
AcDbPoint
 10
564.4937070000001
 20
345.072962
 30
0.0
  0
ENDBLK
  5
15B1
330
159B
100
AcDbEntity
  8
0
100
AcDbBlockEnd
  0
BLOCK
  5
15BE
330
15B2
100
AcDbEntity
  8
0
100
AcDbBlockBegin
  2
*D20
 70
     1
 10
0.0
 20
0.0
 30
0.0
  3
*D20
  1

  0
LINE
  5
15BF
330
15B2
100
AcDbEntity
  8
0
  6
ByBlock
100
AcDbLine
 10
456.835707
 20
262.072962
 30
0.0
 11
569.493707
 21
262.072962
 31
0.0
  0
LINE
  5
15C0
330
15B2
100
AcDbEntity
  8
0
  6
ByBlock
100
AcDbLine
 10
539.4937070000001
 20
177.072962
 30
0.0
 11
569.493707
 21
177.072962
 31
0.0
  0
LINE
  5
15C1
330
15B2
100
AcDbEntity
  8
0
  6
ByBlock
100
AcDbLine
 10
564.4937070000001
 20
249.572962
 30
0.0
 11
564.4937070000001
 21
189.572962
 31
0.0
  0
SOLID
  5
15C2
330
15B2
100
AcDbEntity
  8
0
  6
ByBlock
100
AcDbTrace
 10
562.410374
 20
249.572962
 30
0.0
 11
566.577041
 21
249.572962
 31
0.0
 12
564.4937070000001
 22
262.072962
 32
0.0
 13
564.4937070000001
 23
262.072962
 33
0.0
  0
SOLID
  5
15C3
330
15B2
100
AcDbEntity
  8
0
  6
ByBlock
100
AcDbTrace
 10
562.410374
 20
189.572962
 30
0.0
 11
566.577041
 21
189.572962
 31
0.0
 12
564.4937070000001
 22
177.072962
 32
0.0
 13
564.4937070000001
 23
177.072962
 33
0.0
  0
MTEXT
  5
15C4
330
15B2
100
AcDbEntity
  8
0
  6
ByBlock
 62
     2
100
AcDbMText
 10
552.7437070000001
 20
222.156962
 30
0.0
 40
17.5
 41
0.0
 71
     5
 72
     1
  1
85
 11
0.0
 21
1.0
 31
0.0
 73
     1
 44
1.0
1001
ACAD
1000
MTEXTBEGIN
1070
    73
1070
     1
1070
    44
1040
1.0
1070
    74
1070
     0
1000
MTEXTEND
  0
POINT
  5
15C5
330
15B2
100
AcDbEntity
  8
DEFPOINTS
  6
ByBlock
 62
     0
100
AcDbPoint
 10
451.835707
 20
262.072962
 30
0.0
  0
POINT
  5
15C6
330
15B2
100
AcDbEntity
  8
DEFPOINTS
  6
ByBlock
 62
     0
100
AcDbPoint
 10
534.4937070000001
 20
177.072962
 30
0.0
  0
POINT
  5
15C7
330
15B2
100
AcDbEntity
  8
DEFPOINTS
  6
ByBlock
 62
     0
100
AcDbPoint
 10
564.4937070000001
 20
177.072962
 30
0.0
  0
ENDBLK
  5
15C8
330
15B2
100
AcDbEntity
  8
0
100
AcDbBlockEnd
  0
BLOCK
  5
15D5
330
15C9
100
AcDbEntity
  8
0
100
AcDbBlockBegin
  2
*D21
 70
     1
 10
0.0
 20
0.0
 30
0.0
  3
*D21
  1

  0
LINE
  5
15D6
330
15C9
100
AcDbEntity
  8
0
  6
ByBlock
100
AcDbLine
 10
439.682707
 20
177.072962
 30
0.0
 11
733.336707
 21
177.072962
 31
0.0
  0
LINE
  5
15D7
330
15C9
100
AcDbEntity
  8
0
  6
ByBlock
100
AcDbLine
 10
595.738707
 20
397.072962
 30
0.0
 11
733.336707
 21
397.072962
 31
0.0
  0
LINE
  5
15D8
330
15C9
100
AcDbEntity
  8
0
  6
ByBlock
100
AcDbLine
 10
728.336707
 20
189.572962
 30
0.0
 11
728.336707
 21
384.572962
 31
0.0
  0
SOLID
  5
15D9
330
15C9
100
AcDbEntity
  8
0
  6
ByBlock
100
AcDbTrace
 10
726.253374
 20
189.572962
 30
0.0
 11
730.4200409999999
 21
189.572962
 31
0.0
 12
728.336707
 22
177.072962
 32
0.0
 13
728.336707
 23
177.072962
 33
0.0
  0
SOLID
  5
15DA
330
15C9
100
AcDbEntity
  8
0
  6
ByBlock
100
AcDbTrace
 10
726.253374
 20
384.572962
 30
0.0
 11
730.4200409999999
 21
384.572962
 31
0.0
 12
728.336707
 22
397.072962
 32
0.0
 13
728.336707
 23
397.072962
 33
0.0
  0
MTEXT
  5
15DB
330
15C9
100
AcDbEntity
  8
0
  6
ByBlock
 62
     2
100
AcDbMText
 10
716.5849849999999
 20
276.519962
 30
0.0
 40
17.5
 41
0.0
 71
     5
 72
     1
  1
220
 11
0.0
 21
1.0
 31
0.0
 73
     1
 44
1.0
1001
ACAD
1000
MTEXTBEGIN
1070
    73
1070
     1
1070
    44
1040
1.0
1070
    74
1070
     0
1000
MTEXTEND
  0
POINT
  5
15DC
330
15C9
100
AcDbEntity
  8
DEFPOINTS
  6
ByBlock
 62
     0
100
AcDbPoint
 10
434.682707
 20
177.072962
 30
0.0
  0
POINT
  5
15DD
330
15C9
100
AcDbEntity
  8
DEFPOINTS
  6
ByBlock
 62
     0
100
AcDbPoint
 10
590.7387069999999
 20
397.072962
 30
0.0
  0
POINT
  5
15DE
330
15C9
100
AcDbEntity
  8
DEFPOINTS
  6
ByBlock
 62
     0
100
AcDbPoint
 10
728.336707
 20
397.072962
 30
0.0
  0
ENDBLK
  5
15DF
330
15C9
100
AcDbEntity
  8
0
100
AcDbBlockEnd
  0
BLOCK
  5
17D6
330
17D4
100
AcDbEntity
  8
0
100
AcDbBlockBegin
  2
GENAXEH
 70
     0
 10
0.0
 20
0.0
 30
0.0
  3
GENAXEH
  1

  0
LINE
  5
17D5
330
17D4
100
AcDbEntity
  8
0
100
AcDbLine
 10
-1.0
 20
0.0
 30
0.0
 11
1.0
 21
0.0
 31
0.0
  0
ENDBLK
  5
17D7
330
17D4
100
AcDbEntity
  8
0
100
AcDbBlockEnd
  0
ENDSEC
  0
SECTION
  2
ENTITIES
  0
POINT
  5
105D
330
1461
100
AcDbEntity
  8
PUNKTE
100
AcDbPoint
 10
379.954707
 20
402.072962
 30
0.0
  0
POINT
  5
105E
330
1461
100
AcDbEntity
  8
PUNKTE
100
AcDbPoint
 10
379.954707
 20
402.072962
 30
0.0
  0
POINT
  5
105F
330
1461
100
AcDbEntity
  8
PUNKTE
100
AcDbPoint
 10
539.216707
 20
389.072962
 30
0.0
  0
POINT
  5
1060
330
1461
100
AcDbEntity
  8
PUNKTE
100
AcDbPoint
 10
627.4547069999999
 20
397.072962
 30
0.0
  0
POINT
  5
1061
330
1461
100
AcDbEntity
  8
PUNKTE
100
AcDbPoint
 10
527.4547069999999
 20
397.072962
 30
0.0
  0
POINT
  5
1063
330
1461
100
AcDbEntity
  8
PUNKTE
100
AcDbPoint
 10
507.693707
 20
397.072962
 30
0.0
  0
POINT
  5
1064
330
1461
100
AcDbEntity
  8
PUNKTE
100
AcDbPoint
 10
519.567707
 20
389.711962
 30
0.0
  0
POINT
  5
1065
330
1461
100
AcDbEntity
  8
PUNKTE
100
AcDbPoint
 10
164.953707
 20
389.072962
 30
0.0
  0
POINT
  5
1066
330
1461
100
AcDbEntity
  8
PUNKTE
100
AcDbPoint
 10
164.954707
 20
359.572962
 30
0.0
  0
POINT
  5
1067
330
1461
100
AcDbEntity
  8
PUNKTE
100
AcDbPoint
 10
164.954707
 20
324.572962
 30
0.0
  0
POINT
  5
1068
330
1461
100
AcDbEntity
  8
PUNKTE
100
AcDbPoint
 10
193.954707
 20
359.572962
 30
0.0
  0
POINT
  5
1069
330
1461
100
AcDbEntity
  8
PUNKTE
100
AcDbPoint
 10
193.954707
 20
334.572962
 30
0.0
  0
POINT
  5
106A
330
1461
100
AcDbEntity
  8
PUNKTE
100
AcDbPoint
 10
193.954707
 20
384.572962
 30
0.0
  0
POINT
  5
106B
330
1461
100
AcDbEntity
  8
PUNKTE
100
AcDbPoint
 10
198.953707
 20
384.572962
 30
0.0
  0
POINT
  5
106C
330
1461
100
AcDbEntity
  8
PUNKTE
100
AcDbPoint
 10
198.954707
 20
334.572962
 30
0.0
  0
POINT
  5
106D
330
1461
100
AcDbEntity
  8
PUNKTE
100
AcDbPoint
 10
193.953707
 20
389.072962
 30
0.0
  0
POINT
  5
106E
330
1461
100
AcDbEntity
  8
PUNKTE
100
AcDbPoint
 10
268.626707
 20
379.596962
 30
0.0
  0
POINT
  5
106F
330
1461
100
AcDbEntity
  8
PUNKTE
100
AcDbPoint
 10
258.639707
 20
389.072962
 30
0.0
  0
POINT
  5
1070
330
1461
100
AcDbEntity
  8
PUNKTE
100
AcDbPoint
 10
258.639707
 20
379.072962
 30
0.0
  0
POINT
  5
1071
330
1461
100
AcDbEntity
  8
PUNKTE
100
AcDbPoint
 10
198.953707
 20
389.072962
 30
0.0
  0
POINT
  5
1072
330
1461
100
AcDbEntity
  8
PUNKTE
100
AcDbPoint
 10
198.953707
 20
389.072962
 30
0.0
  0
POINT
  5
1073
330
1461
100
AcDbEntity
  8
PUNKTE
100
AcDbPoint
 10
193.953707
 20
330.072962
 30
0.0
  0
POINT
  5
1074
330
1461
100
AcDbEntity
  8
PUNKTE
100
AcDbPoint
 10
164.954707
 20
330.072962
 30
0.0
  0
POINT
  5
1075
330
1461
100
AcDbEntity
  8
PUNKTE
100
AcDbPoint
 10
193.954707
 20
330.072962
 30
0.0
  0
POINT
  5
1076
330
1461
100
AcDbEntity
  8
PUNKTE
100
AcDbPoint
 10
204.954707
 20
324.572962
 30
0.0
  0
POINT
  5
1077
330
1461
100
AcDbEntity
  8
PUNKTE
100
AcDbPoint
 10
164.954707
 20
324.572962
 30
0.0
  0
POINT
  5
1078
330
1461
100
AcDbEntity
  8
PUNKTE
100
AcDbPoint
 10
272.4557069999999
 20
402.072962
 30
0.0
  0
POINT
  5
1079
330
1461
100
AcDbEntity
  8
PUNKTE
100
AcDbPoint
 10
272.217707
 20
311.072962
 30
0.0
  0
POINT
  5
107A
330
1461
100
AcDbEntity
  8
PUNKTE
100
AcDbPoint
 10
198.954707
 20
330.703962
 30
0.0
  0
POINT
  5
107B
330
1461
100
AcDbEntity
  8
PUNKTE
100
AcDbPoint
 10
272.493707
 20
305.822962
 30
0.0
  0
POINT
  5
107C
330
1461
100
AcDbEntity
  8
PUNKTE
100
AcDbPoint
 10
379.956707
 20
426.0719619999999
 30
0.0
  0
POINT
  5
107E
330
1461
100
AcDbEntity
  8
PUNKTE
100
AcDbPoint
 10
379.956707
 20
426.0719619999999
 30
0.0
  0
LINE
  5
1082
330
1461
100
AcDbEntity
  8
0
100
AcDbLine
 10
487.454707
 20
402.072962
 30
0.0
 11
481.8697069999999
 21
295.502962
 31
0.0
  0
LINE
  5
1083
330
1461
100
AcDbEntity
  8
0
100
AcDbLine
 10
428.954707
 20
267.072962
 30
0.0
 11
451.910707
 21
267.072962
 31
0.0
  0
LINE
  5
1084
330
1461
100
AcDbEntity
  8
0
100
AcDbLine
 10
491.2837070000001
 20
379.596962
 30
0.0
 11
486.862707
 21
295.240962
 31
0.0
  0
LINE
  5
1085
330
1461
100
AcDbEntity
  8
0
100
AcDbLine
 10
487.192707
 20
397.072962
 30
0.0
 11
590.7387069999999
 21
397.072962
 31
0.0
  0
ARC
  5
1086
330
1461
100
AcDbEntity
  8
0
100
AcDbCircle
 10
501.269707
 20
379.072962
 30
0.0
 40
10.0
100
AcDbArc
 50
90.0
 51
177.0
  0
LINE
  5
1087
330
1461
100
AcDbEntity
  8
0
100
AcDbLine
 10
594.9537069999999
 20
389.072962
 30
0.0
 11
594.7337069999999
 21
393.282962
 31
0.0
  0
ARC
  5
1088
330
1461
100
AcDbEntity
  8
0
100
AcDbCircle
 10
590.7387069999999
 20
393.072962
 30
0.0
 40
4.0
100
AcDbArc
 50
3.0
 51
90.0
  0
LINE
  5
1089
330
1461
100
AcDbEntity
  8
0
100
AcDbLine
 10
520.606707
 20
389.072962
 30
0.0
 11
594.9537069999999
 21
389.072962
 31
0.0
  0
ARC
  5
108A
330
1461
100
AcDbEntity
  8
0
100
AcDbCircle
 10
451.910707
 20
297.072962
 30
0.0
 40
30.0
100
AcDbArc
 50
270.0
 51
357.0
  0
ARC
  5
108B
330
1461
100
AcDbEntity
  8
0
100
AcDbCircle
 10
451.910707
 20
297.072962
 30
0.0
 40
35.0
100
AcDbArc
 50
269.877
 51
357.0
  0
LINE
  5
108C
330
1461
100
AcDbEntity
  8
0
100
AcDbLine
 10
441.114707
 20
262.072962
 30
0.0
 11
442.454707
 21
267.072962
 31
0.0
  0
LINE
  5
108D
330
1461
100
AcDbEntity
  8
0
100
AcDbLine
 10
430.117707
 20
207.072962
 30
0.0
 11
431.025707
 21
259.072962
 31
0.0
  0
LINE
  5
108E
330
1461
100
AcDbEntity
  8
0
100
AcDbLine
 10
434.682707
 20
177.072962
 30
0.0
 11
435.804707
 21
246.351962
 31
0.0
  0
ARC
  5
108F
330
1461
100
AcDbEntity
  8
0
100
AcDbCircle
 10
451.800707
 20
246.072962
 30
0.0
 40
16.0
100
AcDbArc
 50
89.87700000000002
 51
179.0
  0
LINE
  5
1090
330
1461
100
AcDbEntity
  8
0
100
AcDbLine
 10
431.024707
 20
259.073962
 30
0.0
 11
432.116707
 21
262.072962
 31
0.0
  0
LINE
  5
1091
330
1461
100
AcDbEntity
  8
0
100
AcDbLine
 10
428.9557069999999
 20
177.085962
 30
0.0
 11
429.304707
 21
202.072962
 31
0.0
  0
LINE
  5
1092
330
1461
100
AcDbEntity
  8
0
100
AcDbLine
 10
429.304707
 20
202.072962
 30
0.0
 11
430.117707
 21
207.072962
 31
0.0
  0
LINE
  5
1093
330
1461
100
AcDbEntity
  8
0
100
AcDbLine
 10
265.691707
 20
397.072962
 30
0.0
 11
265.953707
 21
402.072962
 31
0.0
  0
LINE
  5
1094
330
1461
100
AcDbEntity
  8
0
100
AcDbLine
 10
272.4557069999999
 20
402.072962
 30
0.0
 11
278.040707
 21
295.502962
 31
0.0
  0
LINE
  5
1095
330
1461
100
AcDbEntity
  8
0
100
AcDbLine
 10
272.873707
 20
298.567962
 30
0.0
 11
273.047707
 21
295.240962
 31
0.0
  0
LINE
  5
1096
330
1461
100
AcDbEntity
  8
0
100
AcDbLine
 10
272.717707
 20
397.072962
 30
0.0
 11
169.170707
 21
397.072962
 31
0.0
  0
LINE
  5
1097
330
1461
100
AcDbEntity
  8
0
100
AcDbLine
 10
164.953707
 20
389.072962
 30
0.0
 11
165.174707
 21
393.282962
 31
0.0
  0
ARC
  5
1098
330
1461
100
AcDbEntity
  8
0
100
AcDbCircle
 10
169.170707
 20
393.072962
 30
0.0
 40
4.0
100
AcDbArc
 50
90.0
 51
177.0
  0
ARC
  5
1099
330
1461
100
AcDbEntity
  8
0
100
AcDbCircle
 10
308.000707
 20
297.072962
 30
0.0
 40
30.0
100
AcDbArc
 50
183.0
 51
270.0
  0
ARC
  5
109A
330
1461
100
AcDbEntity
  8
0
100
AcDbCircle
 10
308.000707
 20
297.072962
 30
0.0
 40
35.0
100
AcDbArc
 50
183.0
 51
270.123
  0
LINE
  5
109B
330
1461
100
AcDbEntity
  8
0
100
AcDbLine
 10
318.793707
 20
262.072962
 30
0.0
 11
317.454707
 21
267.072962
 31
0.0
  0
LINE
  5
109C
330
1461
100
AcDbEntity
  8
0
100
AcDbLine
 10
434.682707
 20
177.072962
 30
0.0
 11
325.228707
 21
177.072962
 31
0.0
  0
LINE
  5
109D
330
1461
100
AcDbEntity
  8
0
100
AcDbLine
 10
329.790707
 20
207.072962
 30
0.0
 11
328.883707
 21
259.072962
 31
0.0
  0
LINE
  5
109E
330
1461
100
AcDbEntity
  8
0
100
AcDbLine
 10
325.226707
 20
177.072962
 30
0.0
 11
324.104707
 21
246.352962
 31
0.0
  0
ARC
  5
109F
330
1461
100
AcDbEntity
  8
0
100
AcDbCircle
 10
308.108707
 20
246.072962
 30
0.0
 40
16.0
100
AcDbArc
 50
1.0
 51
90.12299999999999
  0
LINE
  5
10A0
330
1461
100
AcDbEntity
  8
0
100
AcDbLine
 10
328.884707
 20
259.073962
 30
0.0
 11
327.792707
 21
262.072962
 31
0.0
  0
LINE
  5
10A1
330
1461
100
AcDbEntity
  8
0
100
AcDbLine
 10
330.953707
 20
177.085962
 30
0.0
 11
330.6047069999999
 21
202.072962
 31
0.0
  0
LINE
  5
10A2
330
1461
100
AcDbEntity
  8
0
100
AcDbLine
 10
330.605707
 20
202.072962
 30
0.0
 11
329.791707
 21
207.072962
 31
0.0
  0
ARC
  5
10A3
330
1461
100
AcDbEntity
  8
0
100
AcDbCircle
 10
507.692707
 20
379.072962
 30
0.0
 40
10.0
100
AcDbArc
 50
200.0
 51
339.994
  0
LINE
  5
10A4
330
1461
100
AcDbEntity
  8
0
100
AcDbLine
 10
498.295707
 20
375.652962
 30
0.0
 11
496.445707
 21
386.148962
 31
0.0
  0
LINE
  5
10A5
330
1461
100
AcDbEntity
  8
0
100
AcDbLine
 10
517.088707
 20
375.651962
 30
0.0
 11
519.005707
 21
386.521962
 31
0.0
  0
LINE
  5
10A6
330
1461
100
AcDbEntity
  8
0
100
AcDbLine
 10
500.920707
 20
389.060962
 30
0.0
 11
556.784707
 21
391.0119620000001
 31
0.0
  0
ARC
  5
10A7
330
1461
100
AcDbEntity
  8
0
100
AcDbCircle
 10
492.505707
 20
385.454962
 30
0.0
 40
4.0
100
AcDbArc
 50
10.0
 51
31.195
  0
LINE
  5
10A8
330
1461
100
AcDbEntity
  8
0
100
AcDbLine
 10
441.614707
 20
397.072962
 30
0.0
 11
424.294707
 21
397.072962
 31
0.0
  0
LINE
  5
10A9
330
1461
100
AcDbEntity
  8
0
100
AcDbLine
 10
330.954707
 20
267.072962
 30
0.0
 11
308.000707
 21
267.072962
 31
0.0
  0
LINE
  5
10AA
330
1461
100
AcDbEntity
  8
0
100
AcDbLine
 10
494.216707
 20
397.072962
 30
0.0
 11
493.954707
 21
402.072962
 31
0.0
  0
LINE
  5
10AB
330
1461
100
AcDbEntity
  8
0
100
AcDbLine
 10
493.954707
 20
402.072962
 30
0.0
 11
442.954707
 21
402.072962
 31
0.0
  0
LINE
  5
10AC
330
1461
100
AcDbEntity
  8
0
100
AcDbLine
 10
335.614707
 20
397.072962
 30
0.0
 11
336.954707
 21
402.072962
 31
0.0
  0
LINE
  5
10AD
330
1461
100
AcDbEntity
  8
0
100
AcDbLine
 10
441.614707
 20
397.072962
 30
0.0
 11
442.954707
 21
402.072962
 31
0.0
  0
LINE
  5
10AE
330
1461
100
AcDbEntity
  8
0
100
AcDbLine
 10
318.2947069999999
 20
397.072962
 30
0.0
 11
316.954707
 21
402.072962
 31
0.0
  0
LINE
  5
10AF
330
1461
100
AcDbEntity
  8
0
100
AcDbLine
 10
424.294707
 20
397.072962
 30
0.0
 11
422.954707
 21
402.072962
 31
0.0
  0
LINE
  5
10B0
330
1461
100
AcDbEntity
  8
0
100
AcDbLine
 10
332.509707
 20
397.072962
 30
0.0
 11
333.848707
 21
402.072962
 31
0.0
  0
LINE
  5
10B1
330
1461
100
AcDbEntity
  8
0
100
AcDbLine
 10
316.954707
 20
402.072962
 30
0.0
 11
265.953707
 21
402.072962
 31
0.0
  0
LINE
  5
10B2
330
1461
100
AcDbEntity
  8
0
100
AcDbLine
 10
427.400707
 20
397.072962
 30
0.0
 11
426.060707
 21
402.072962
 31
0.0
  0
LINE
  5
10B3
330
1461
100
AcDbEntity
  8
0
100
AcDbLine
 10
426.060707
 20
402.072962
 30
0.0
 11
333.848707
 21
402.072962
 31
0.0
  0
LINE
  5
10B4
330
1461
100
AcDbEntity
  8
0
100
AcDbLine
 10
335.614707
 20
397.072962
 30
0.0
 11
318.2947069999999
 21
397.072962
 31
0.0
  0
ARC
  5
10B5
330
1461
100
AcDbEntity
  8
0
100
AcDbCircle
 10
258.639707
 20
379.072962
 30
0.0
 40
10.0
100
AcDbArc
 50
3.0
 51
90.0
  0
LINE
  5
10B6
330
1461
100
AcDbEntity
  8
0
100
AcDbLine
 10
189.953707
 20
389.072962
 30
0.0
 11
164.955707
 21
389.072962
 31
0.0
  0
LINE
  5
10B7
330
1461
100
AcDbEntity
  8
0
100
AcDbLine
 10
427.454707
 20
224.072962
 30
0.0
 11
379.954707
 21
224.072962
 31
0.0
  0
LINE
  5
10B8
330
1461
100
AcDbEntity
  8
0
100
AcDbLine
 10
427.454707
 20
224.072962
 30
0.0
 11
427.454707
 21
227.072962
 31
0.0
  0
LINE
  5
10B9
330
1461
100
AcDbEntity
  8
0
100
AcDbLine
 10
419.954707
 20
259.742962
 30
0.0
 11
419.954707
 21
224.072962
 31
0.0
  0
LINE
  5
10BA
330
1461
100
AcDbEntity
  8
0
100
AcDbLine
 10
424.954707
 20
242.072962
 30
0.0
 11
424.954707
 21
237.729962
 31
0.0
  0
ARC
  5
10BB
330
1461
100
AcDbEntity
  8
0
100
AcDbCircle
 10
427.954707
 20
232.072962
 30
0.0
 40
5.0
100
AcDbArc
 50
141.058
 51
264.261
  0
ARC
  5
10BC
330
1461
100
AcDbEntity
  8
0
100
AcDbCircle
 10
420.954707
 20
237.729962
 30
0.0
 40
4.0
100
AcDbArc
 50
321.058
 51
0.0
  0
ARC
  5
10BD
330
1461
100
AcDbEntity
  8
0
100
AcDbCircle
 10
420.954707
 20
242.072962
 30
0.0
 40
4.0
100
AcDbArc
 50
0.0
 51
41.41
  0
ARC
  5
10BE
330
1461
100
AcDbEntity
  8
0
100
AcDbCircle
 10
426.954707
 20
247.364962
 30
0.0
 40
4.0
100
AcDbArc
 50
180.0
 51
221.41
  0
LINE
  5
10BF
330
1461
100
AcDbEntity
  8
0
100
AcDbLine
 10
441.114707
 20
262.072962
 30
0.0
 11
426.954707
 21
262.072962
 31
0.0
  0
ARC
  5
10C0
330
1461
100
AcDbEntity
  8
0
100
AcDbCircle
 10
426.954707
 20
258.072962
 30
0.0
 40
4.0
100
AcDbArc
 50
90.0
 51
180.0
  0
LINE
  5
10C1
330
1461
100
AcDbEntity
  8
0
100
AcDbLine
 10
440.954707
 20
265.072962
 30
0.0
 11
440.150707
 21
262.072962
 31
0.0
  0
LINE
  5
10C2
330
1461
100
AcDbEntity
  8
0
100
AcDbLine
 10
428.954707
 20
265.072962
 30
0.0
 11
440.954707
 21
265.072962
 31
0.0
  0
LINE
  5
10C3
330
1461
100
AcDbEntity
  8
0
100
AcDbLine
 10
428.954707
 20
267.072962
 30
0.0
 11
428.954707
 21
265.072962
 31
0.0
  0
LINE
  5
10C4
330
1461
100
AcDbEntity
  8
0
100
AcDbLine
 10
401.4547069999999
 20
345.072962
 30
0.0
 11
401.4547069999999
 21
282.412962
 31
0.0
  0
LINE
  5
10C5
330
1461
100
AcDbEntity
  8
0
100
AcDbLine
 10
403.954707
 20
345.072962
 30
0.0
 11
403.954707
 21
292.072962
 31
0.0
  0
ARC
  5
10C6
330
1461
100
AcDbEntity
  8
0
100
AcDbCircle
 10
428.954707
 20
292.072962
 30
0.0
 40
25.0
100
AcDbArc
 50
180.0
 51
270.0
  0
ARC
  5
10C7
330
1461
100
AcDbEntity
  8
0
100
AcDbCircle
 10
428.954707
 20
292.072962
 30
0.0
 40
27.5
100
AcDbArc
 50
200.566
 51
239.5729999999999
  0
ARC
  5
10C8
330
1461
100
AcDbEntity
  8
0
100
AcDbCircle
 10
409.9547069999999
 20
259.742962
 30
0.0
 40
10.0
100
AcDbArc
 50
0.0
 51
59.55799999999999
  0
LINE
  5
10C9
330
1461
100
AcDbEntity
  8
0
100
AcDbLine
 10
379.954707
 20
345.072962
 30
0.0
 11
403.954707
 21
345.072962
 31
0.0
  0
LINE
  5
10CA
330
1461
100
AcDbEntity
  8
0
100
AcDbLine
 10
442.454707
 20
285.072962
 30
0.0
 11
404.954707
 21
285.072962
 31
0.0
  0
LINE
  5
10CB
330
1461
100
AcDbEntity
  8
0
100
AcDbLine
 10
393.422707
 20
368.894962
 30
0.0
 11
426.479707
 21
366.002962
 31
0.0
  0
LINE
  5
10CC
330
1461
100
AcDbEntity
  8
0
100
AcDbLine
 10
442.454707
 20
285.072962
 30
0.0
 11
442.454707
 21
348.569962
 31
0.0
  0
ARC
  5
10CD
330
1461
100
AcDbEntity
  8
0
100
AcDbCircle
 10
424.954707
 20
348.569962
 30
0.0
 40
17.5
100
AcDbArc
 50
0.0
 51
85.0
  0
ARC
  5
10CE
330
1461
100
AcDbEntity
  8
0
100
AcDbCircle
 10
379.954707
 20
365.072962
 30
0.0
 40
5.0
100
AcDbArc
 50
270.0
 51
90.0
  0
LINE
  5
10CF
330
1461
100
AcDbEntity
  8
0
100
AcDbLine
 10
393.204707
 20
366.403962
 30
0.0
 11
426.2617070000001
 21
363.5119620000001
 31
0.0
  0
LINE
  5
10D0
330
1461
100
AcDbEntity
  8
0
100
AcDbLine
 10
439.954707
 20
285.072962
 30
0.0
 11
439.954707
 21
348.569962
 31
0.0
  0
ARC
  5
10D1
330
1461
100
AcDbEntity
  8
0
100
AcDbCircle
 10
424.954707
 20
348.569962
 30
0.0
 40
15.0
100
AcDbArc
 50
0.0
 51
85.0
  0
LINE
  5
10D2
330
1461
100
AcDbEntity
  8
0
100
AcDbLine
 10
379.954707
 20
378.072962
 30
0.0
 11
387.454707
 21
378.072962
 31
0.0
  0
LINE
  5
10D3
330
1461
100
AcDbEntity
  8
0
100
AcDbLine
 10
387.454707
 20
378.072962
 30
0.0
 11
402.9547069999999
 21
368.060962
 31
0.0
  0
ARC
  5
10D4
330
1461
100
AcDbEntity
  8
0
100
AcDbCircle
 10
440.954707
 20
286.072962
 30
0.0
 40
1.0
100
AcDbArc
 50
180.0
 51
270.0
  0
LINE
  5
10D5
330
1461
100
AcDbEntity
  8
0
100
AcDbLine
 10
332.454707
 20
224.072962
 30
0.0
 11
379.954707
 21
224.072962
 31
0.0
  0
LINE
  5
10D6
330
1461
100
AcDbEntity
  8
0
100
AcDbLine
 10
332.454707
 20
224.072962
 30
0.0
 11
332.454707
 21
227.072962
 31
0.0
  0
LINE
  5
10D7
330
1461
100
AcDbEntity
  8
0
100
AcDbLine
 10
339.954707
 20
259.742962
 30
0.0
 11
339.954707
 21
224.072962
 31
0.0
  0
LINE
  5
10D8
330
1461
100
AcDbEntity
  8
0
100
AcDbLine
 10
334.954707
 20
242.072962
 30
0.0
 11
334.954707
 21
237.729962
 31
0.0
  0
ARC
  5
10D9
330
1461
100
AcDbEntity
  8
0
100
AcDbCircle
 10
331.954707
 20
232.072962
 30
0.0
 40
5.0
100
AcDbArc
 50
275.739
 51
38.942
  0
ARC
  5
10DA
330
1461
100
AcDbEntity
  8
0
100
AcDbCircle
 10
338.954707
 20
237.729962
 30
0.0
 40
4.0
100
AcDbArc
 50
180.0
 51
218.942
  0
ARC
  5
10DB
330
1461
100
AcDbEntity
  8
0
100
AcDbCircle
 10
338.954707
 20
242.072962
 30
0.0
 40
4.0
100
AcDbArc
 50
138.59
 51
180.0
  0
ARC
  5
10DC
330
1461
100
AcDbEntity
  8
0
100
AcDbCircle
 10
332.954707
 20
247.364962
 30
0.0
 40
4.0
100
AcDbArc
 50
318.59
 51
0.0
  0
LINE
  5
10DD
330
1461
100
AcDbEntity
  8
0
100
AcDbLine
 10
318.793707
 20
262.072962
 30
0.0
 11
332.954707
 21
262.072962
 31
0.0
  0
ARC
  5
10DE
330
1461
100
AcDbEntity
  8
0
100
AcDbCircle
 10
332.954707
 20
258.072962
 30
0.0
 40
4.0
100
AcDbArc
 50
0.0
 51
90.0
  0
LINE
  5
10DF
330
1461
100
AcDbEntity
  8
0
100
AcDbLine
 10
318.954707
 20
265.072962
 30
0.0
 11
319.7587069999999
 21
262.072962
 31
0.0
  0
LINE
  5
10E0
330
1461
100
AcDbEntity
  8
0
100
AcDbLine
 10
330.954707
 20
265.072962
 30
0.0
 11
318.954707
 21
265.072962
 31
0.0
  0
LINE
  5
10E1
330
1461
100
AcDbEntity
  8
0
100
AcDbLine
 10
330.954707
 20
267.072962
 30
0.0
 11
330.954707
 21
265.072962
 31
0.0
  0
LINE
  5
10E2
330
1461
100
AcDbEntity
  8
0
100
AcDbLine
 10
358.454707
 20
345.072962
 30
0.0
 11
358.454707
 21
282.412962
 31
0.0
  0
LINE
  5
10E3
330
1461
100
AcDbEntity
  8
0
100
AcDbLine
 10
355.954707
 20
345.072962
 30
0.0
 11
355.954707
 21
292.072962
 31
0.0
  0
ARC
  5
10E4
330
1461
100
AcDbEntity
  8
0
100
AcDbCircle
 10
330.954707
 20
292.072962
 30
0.0
 40
25.0
100
AcDbArc
 50
270.0
 51
0.0
  0
ARC
  5
10E5
330
1461
100
AcDbEntity
  8
0
100
AcDbCircle
 10
330.954707
 20
292.072962
 30
0.0
 40
27.5
100
AcDbArc
 50
300.442
 51
339.434
  0
ARC
  5
10E6
330
1461
100
AcDbEntity
  8
0
100
AcDbCircle
 10
349.954707
 20
259.742962
 30
0.0
 40
10.0
100
AcDbArc
 50
120.442
 51
180.0
  0
LINE
  5
10E7
330
1461
100
AcDbEntity
  8
0
100
AcDbLine
 10
379.954707
 20
345.072962
 30
0.0
 11
355.954707
 21
345.072962
 31
0.0
  0
LINE
  5
10E8
330
1461
100
AcDbEntity
  8
0
100
AcDbLine
 10
317.454707
 20
285.072962
 30
0.0
 11
354.954707
 21
285.072962
 31
0.0
  0
LINE
  5
10E9
330
1461
100
AcDbEntity
  8
0
100
AcDbLine
 10
366.485707
 20
368.894962
 30
0.0
 11
333.429707
 21
366.002962
 31
0.0
  0
LINE
  5
10EA
330
1461
100
AcDbEntity
  8
0
100
AcDbLine
 10
317.454707
 20
285.072962
 30
0.0
 11
317.454707
 21
348.569962
 31
0.0
  0
ARC
  5
10EB
330
1461
100
AcDbEntity
  8
0
100
AcDbCircle
 10
334.954707
 20
348.569962
 30
0.0
 40
17.5
100
AcDbArc
 50
95.0
 51
180.0
  0
ARC
  5
10EC
330
1461
100
AcDbEntity
  8
0
100
AcDbCircle
 10
379.954707
 20
365.072962
 30
0.0
 40
5.0
100
AcDbArc
 50
90.0
 51
270.0
  0
LINE
  5
10ED
330
1461
100
AcDbEntity
  8
0
100
AcDbLine
 10
366.703707
 20
366.404962
 30
0.0
 11
333.646707
 21
363.512962
 31
0.0
  0
LINE
  5
10EE
330
1461
100
AcDbEntity
  8
0
100
AcDbLine
 10
319.954707
 20
285.072962
 30
0.0
 11
319.954707
 21
348.569962
 31
0.0
  0
ARC
  5
10EF
330
1461
100
AcDbEntity
  8
0
100
AcDbCircle
 10
334.954707
 20
348.569962
 30
0.0
 40
15.0
100
AcDbArc
 50
95.0
 51
180.0
  0
LINE
  5
10F0
330
1461
100
AcDbEntity
  8
0
100
AcDbLine
 10
379.954707
 20
378.072962
 30
0.0
 11
372.454707
 21
378.072962
 31
0.0
  0
LINE
  5
10F1
330
1461
100
AcDbEntity
  8
0
100
AcDbLine
 10
372.454707
 20
378.072962
 30
0.0
 11
356.954707
 21
368.060962
 31
0.0
  0
ARC
  5
10F2
330
1461
100
AcDbEntity
  8
0
100
AcDbCircle
 10
318.954707
 20
286.072962
 30
0.0
 40
1.0
100
AcDbArc
 50
270.0
 51
0.0
  0
LINE
  5
10F3
330
1461
100
AcDbEntity
  8
0
100
AcDbLine
 10
356.701707
 20
282.412962
 30
0.0
 11
403.2077069999999
 21
282.412962
 31
0.0
  0
LINE
  5
10F4
330
1461
100
AcDbEntity
  8
0
100
AcDbLine
 10
358.3837069999999
 20
292.5169620000001
 30
0.0
 11
401.4547069999999
 21
292.5169620000001
 31
0.0
  0
LINE
  5
10F5
330
1461
100
AcDbEntity
  8
4
100
AcDbLine
 10
344.934707
 20
262.682962
 30
0.0
 11
414.7357069999999
 21
262.682962
 31
0.0
  0
ARC
  5
10F6
330
1461
100
AcDbEntity
  8
0
100
AcDbCircle
 10
379.954707
 20
365.072962
 30
0.0
 40
6.0
100
AcDbArc
 50
210.0
 51
330.0
  0
ARC
  5
10F7
330
1461
100
AcDbEntity
  8
0
100
AcDbCircle
 10
379.954707
 20
365.072962
 30
0.0
 40
8.5
100
AcDbArc
 50
210.0
 51
330.0
  0
LINE
  5
10F8
330
1461
100
AcDbEntity
  8
0
100
AcDbLine
 10
385.150707
 20
362.072962
 30
0.0
 11
387.226707
 21
365.669962
 31
0.0
  0
LINE
  5
10F9
330
1461
100
AcDbEntity
  8
0
100
AcDbLine
 10
387.315707
 20
360.822962
 30
0.0
 11
389.391707
 21
364.419962
 31
0.0
  0
LINE
  5
10FA
330
1461
100
AcDbEntity
  8
0
100
AcDbLine
 10
374.758707
 20
362.072962
 30
0.0
 11
372.681707
 21
365.669962
 31
0.0
  0
LINE
  5
10FB
330
1461
100
AcDbEntity
  8
0
100
AcDbLine
 10
372.593707
 20
360.822962
 30
0.0
 11
370.516707
 21
364.419962
 31
0.0
  0
ARC
  5
10FC
330
1461
100
AcDbEntity
  8
0
100
AcDbCircle
 10
367.052707
 20
362.419962
 30
0.0
 40
4.0
100
AcDbArc
 50
30.0
 51
95.0
  0
ARC
  5
10FD
330
1461
100
AcDbEntity
  8
0
100
AcDbCircle
 10
392.856707
 20
362.419962
 30
0.0
 40
4.0
100
AcDbArc
 50
85.0
 51
150.0
  0
ARC
  5
10FE
330
1461
100
AcDbEntity
  8
0
100
AcDbCircle
 10
367.052707
 20
362.419962
 30
0.0
 40
6.5
100
AcDbArc
 50
30.0
 51
95.0
  0
ARC
  5
10FF
330
1461
100
AcDbEntity
  8
0
100
AcDbCircle
 10
392.856707
 20
362.419962
 30
0.0
 40
6.5
100
AcDbArc
 50
85.0
 51
150.0
  0
LINE
  5
1100
330
1461
100
AcDbEntity
  8
0
100
AcDbLine
 10
336.954707
 20
249.072962
 30
0.0
 11
336.954707
 21
247.364962
 31
0.0
  0
ARC
  5
1101
330
1461
100
AcDbEntity
  8
0
100
AcDbCircle
 10
333.954707
 20
249.072962
 30
0.0
 40
3.0
100
AcDbArc
 50
0.0
 51
90.0
  0
ARC
  5
1102
330
1461
100
AcDbEntity
  8
0
100
AcDbCircle
 10
333.954707
 20
258.072962
 30
0.0
 40
3.0
100
AcDbArc
 50
270.0
 51
0.0
  0
LINE
  5
1103
330
1461
100
AcDbEntity
  8
0
100
AcDbLine
 10
333.954707
 20
255.072962
 30
0.0
 11
332.954707
 21
255.072962
 31
0.0
  0
LINE
  5
1104
330
1461
100
AcDbEntity
  8
0
100
AcDbLine
 10
332.954707
 20
252.072962
 30
0.0
 11
333.954707
 21
252.072962
 31
0.0
  0
ARC
  5
1105
330
1461
100
AcDbEntity
  8
0
100
AcDbCircle
 10
332.954707
 20
253.572962
 30
0.0
 40
1.5
100
AcDbArc
 50
180.0
 51
270.0
  0
ARC
  5
1106
330
1461
100
AcDbEntity
  8
0
100
AcDbCircle
 10
332.954707
 20
253.572962
 30
0.0
 40
1.5
100
AcDbArc
 50
90.0
 51
180.0
  0
LINE
  5
1107
330
1461
100
AcDbEntity
  8
0
100
AcDbLine
 10
426.954707
 20
255.072962
 30
0.0
 11
425.954707
 21
255.072962
 31
0.0
  0
LINE
  5
1108
330
1461
100
AcDbEntity
  8
0
100
AcDbLine
 10
426.954707
 20
252.072962
 30
0.0
 11
425.954707
 21
252.072962
 31
0.0
  0
LINE
  5
1109
330
1461
100
AcDbEntity
  8
0
100
AcDbLine
 10
422.954707
 20
249.072962
 30
0.0
 11
422.954707
 21
247.364962
 31
0.0
  0
ARC
  5
110A
330
1461
100
AcDbEntity
  8
0
100
AcDbCircle
 10
426.954707
 20
253.572962
 30
0.0
 40
1.5
100
AcDbArc
 50
0.0
 51
90.0
  0
ARC
  5
110B
330
1461
100
AcDbEntity
  8
0
100
AcDbCircle
 10
426.954707
 20
253.572962
 30
0.0
 40
1.5
100
AcDbArc
 50
270.0
 51
0.0
  0
ARC
  5
110C
330
1461
100
AcDbEntity
  8
0
100
AcDbCircle
 10
425.954707
 20
258.072962
 30
0.0
 40
3.0
100
AcDbArc
 50
180.0
 51
270.0
  0
ARC
  5
110D
330
1461
100
AcDbEntity
  8
0
100
AcDbCircle
 10
425.954707
 20
249.072962
 30
0.0
 40
3.0
100
AcDbArc
 50
90.0
 51
180.0
  0
CIRCLE
  5
110E
330
1461
100
AcDbEntity
  8
0
100
AcDbCircle
 10
426.894707
 20
248.133962
 30
0.0
 40
3.939999999999999
  0
CIRCLE
  5
110F
330
1461
100
AcDbEntity
  8
0
100
AcDbCircle
 10
333.014707
 20
248.132962
 30
0.0
 40
3.939999999999999
  0
LINE
  5
1110
330
1461
100
AcDbEntity
  8
0
100
AcDbLine
 10
374.954707
 20
402.072962
 30
0.0
 11
374.955707
 21
414.572962
 31
0.0
  0
LINE
  5
1111
330
1461
100
AcDbEntity
  8
4
100
AcDbLine
 10
375.954707
 20
402.072962
 30
0.0
 11
375.955707
 21
414.572962
 31
0.0
  0
LINE
  5
1112
330
1461
100
AcDbEntity
  8
0
100
AcDbLine
 10
374.956707
 20
426.072962
 30
0.0
 11
375.956707
 21
427.072962
 31
0.0
  0
LINE
  5
1113
330
1461
100
AcDbEntity
  8
4
100
AcDbLine
 10
383.954707
 20
402.072962
 30
0.0
 11
383.954707
 21
414.572962
 31
0.0
  0
LINE
  5
1114
330
1461
100
AcDbEntity
  8
0
100
AcDbLine
 10
384.954707
 20
402.072962
 30
0.0
 11
384.954707
 21
414.572962
 31
0.0
  0
LINE
  5
1115
330
1461
100
AcDbEntity
  8
0
100
AcDbLine
 10
384.954707
 20
426.072962
 30
0.0
 11
383.954707
 21
427.072962
 31
0.0
  0
LINE
  5
1116
330
1461
100
AcDbEntity
  8
0
100
AcDbLine
 10
384.955707
 20
426.0719619999999
 30
0.0
 11
374.958707
 21
426.0719619999999
 31
0.0
  0
LINE
  5
1117
330
1461
100
AcDbEntity
  8
0
100
AcDbLine
 10
383.955707
 20
427.072962
 30
0.0
 11
375.958707
 21
427.072962
 31
0.0
  0
ARC
  5
1118
330
1461
100
AcDbEntity
  8
0
100
AcDbCircle
 10
379.954707
 20
408.397962
 30
0.0
 40
14.175
100
AcDbArc
 50
70.533
 51
109.461
  0
ARC
  5
1119
330
1461
100
AcDbEntity
  8
0
100
AcDbCircle
 10
379.956707
 20
428.747962
 30
0.0
 40
14.175
100
AcDbArc
 50
250.525
 51
289.46
  0
LINE
  5
111A
330
1461
100
AcDbEntity
  8
0
100
AcDbLine
 10
384.680707
 20
415.384962
 30
0.0
 11
384.680707
 21
421.760962
 31
0.0
  0
LINE
  5
111B
330
1461
100
AcDbEntity
  8
0
100
AcDbLine
 10
375.230707
 20
415.384962
 30
0.0
 11
375.230707
 21
421.760962
 31
0.0
  0
LINE
  5
111C
330
1461
100
AcDbEntity
  8
0
100
AcDbLine
 10
386.846707
 20
414.5719619999999
 30
0.0
 11
373.065707
 21
414.572962
 31
0.0
  0
LINE
  5
111D
330
1461
100
AcDbEntity
  8
0
100
AcDbLine
 10
387.043707
 20
422.5719619999999
 30
0.0
 11
373.066707
 21
422.572962
 31
0.0
  0
LINE
  5
111E
330
1461
100
AcDbEntity
  8
0
100
AcDbLine
 10
389.403707
 20
415.381962
 30
0.0
 11
388.491707
 21
414.855962
 31
0.0
  0
ARC
  5
111F
330
1461
100
AcDbEntity
  8
0
100
AcDbCircle
 10
387.042707
 20
418.419962
 30
0.0
 40
3.846999999999999
100
AcDbArc
 50
232.13
 51
292.11
  0
LINE
  5
1120
330
1461
100
AcDbEntity
  8
0
100
AcDbLine
 10
389.405707
 20
415.384962
 30
0.0
 11
389.405707
 21
421.760962
 31
0.0
  0
ARC
  5
1121
330
1461
100
AcDbEntity
  8
0
100
AcDbCircle
 10
387.042707
 20
418.724962
 30
0.0
 40
3.848
100
AcDbArc
 50
60.0
 51
127.859
  0
LINE
  5
1122
330
1461
100
AcDbEntity
  8
0
100
AcDbLine
 10
389.404707
 20
421.762962
 30
0.0
 11
388.493707
 21
422.288962
 31
0.0
  0
ARC
  5
1123
330
1461
100
AcDbEntity
  8
0
100
AcDbCircle
 10
372.867707
 20
418.420962
 30
0.0
 40
3.848
100
AcDbArc
 50
247.969
 51
307.857
  0
LINE
  5
1124
330
1461
100
AcDbEntity
  8
0
100
AcDbLine
 10
371.4247069999999
 20
414.853962
 30
0.0
 11
370.506707
 21
415.383962
 31
0.0
  0
LINE
  5
1125
330
1461
100
AcDbEntity
  8
0
100
AcDbLine
 10
370.505707
 20
415.386962
 30
0.0
 11
370.505707
 21
421.760962
 31
0.0
  0
LINE
  5
1126
330
1461
100
AcDbEntity
  8
0
100
AcDbLine
 10
371.422707
 20
422.290962
 30
0.0
 11
370.506707
 21
421.762962
 31
0.0
  0
ARC
  5
1127
330
1461
100
AcDbEntity
  8
0
100
AcDbCircle
 10
372.867707
 20
418.725962
 30
0.0
 40
3.848
100
AcDbArc
 50
52.138
 51
112.063
  0
LINE
  5
1128
330
1461
100
AcDbEntity
  8
0
100
AcDbLine
 10
374.955707
 20
422.572962
 30
0.0
 11
374.955707
 21
426.070962
 31
0.0
  0
LINE
  5
1129
330
1461
100
AcDbEntity
  8
4
100
AcDbLine
 10
375.955707
 20
421.9969619999999
 30
0.0
 11
375.955707
 21
427.0709619999999
 31
0.0
  0
LINE
  5
112A
330
1461
100
AcDbEntity
  8
4
100
AcDbLine
 10
383.955707
 20
422.572962
 30
0.0
 11
383.955707
 21
427.069962
 31
0.0
  0
LINE
  5
112B
330
1461
100
AcDbEntity
  8
0
100
AcDbLine
 10
384.955707
 20
422.572962
 30
0.0
 11
384.955707
 21
426.070962
 31
0.0
  0
LINE
  5
112C
330
1461
100
AcDbEntity
  8
MAßLINIEN
 62
     4
100
AcDbLine
 10
379.944707
 20
165.201959
 30
0.0
 11
379.956707
 21
358.635959
 31
0.0
  0
ARC
  5
1132
330
1461
100
AcDbEntity
  8
0
100
AcDbCircle
 10
522.9447069999999
 20
385.827962
 30
0.0
 40
4.0
100
AcDbArc
 50
92.0
 51
170.0
  0
ARC
  5
1133
330
1461
100
AcDbEntity
  8
0
100
AcDbCircle
 10
556.497707
 20
388.661962
 30
0.0
 40
2.5
100
AcDbArc
 50
9.463
 51
44.567
  0
ARC
  5
1134
330
1461
100
AcDbEntity
  8
0
100
AcDbCircle
 10
556.8537069999999
 20
389.012962
 30
0.0
 40
2.0
100
AcDbArc
 50
44.567
 51
92.0
  0
LINE
  5
1135
330
1461
100
AcDbEntity
  8
0
100
AcDbLine
 10
193.953707
 20
385.072962
 30
0.0
 11
193.954707
 21
334.072962
 31
0.0
  0
LINE
  5
1136
330
1461
100
AcDbEntity
  8
0
100
AcDbLine
 10
198.953707
 20
385.072962
 30
0.0
 11
198.954707
 21
333.772962
 31
0.0
  0
LINE
  5
1137
330
1461
100
AcDbEntity
  8
0
100
AcDbLine
 10
193.954707
 20
384.572962
 30
0.0
 11
198.953707
 21
384.572962
 31
0.0
  0
LINE
  5
1138
330
1461
100
AcDbEntity
  8
0
100
AcDbLine
 10
193.954707
 20
334.572962
 30
0.0
 11
198.954707
 21
334.572962
 31
0.0
  0
ARC
  5
1139
330
1461
100
AcDbEntity
  8
0
100
AcDbCircle
 10
189.953707
 20
385.072962
 30
0.0
 40
4.0
100
AcDbArc
 50
0.001
 51
90.0
  0
LINE
  5
113A
330
1461
100
AcDbEntity
  8
0
100
AcDbLine
 10
202.953707
 20
389.072962
 30
0.0
 11
258.639707
 21
389.072962
 31
0.0
  0
ARC
  5
113B
330
1461
100
AcDbEntity
  8
0
100
AcDbCircle
 10
202.953707
 20
385.072962
 30
0.0
 40
4.0
100
AcDbArc
 50
90.0
 51
180.001
  0
LINE
  5
113C
330
1461
100
AcDbEntity
  8
0
100
AcDbLine
 10
164.954707
 20
330.072962
 30
0.0
 11
189.954707
 21
330.072962
 31
0.0
  0
ARC
  5
113D
330
1461
100
AcDbEntity
  8
0
100
AcDbCircle
 10
189.954707
 20
334.072962
 30
0.0
 40
4.0
100
AcDbArc
 50
270.001
 51
0.001
  0
LINE
  5
113E
330
1461
100
AcDbEntity
  8
0
100
AcDbLine
 10
168.954707
 20
324.572962
 30
0.0
 11
202.516707
 21
324.572962
 31
0.0
  0
ARC
  5
113F
330
1461
100
AcDbEntity
  8
0
100
AcDbCircle
 10
168.954707
 20
328.572962
 30
0.0
 40
4.0
100
AcDbArc
 50
180.001
 51
270.0
  0
LINE
  5
1141
330
1461
100
AcDbEntity
  8
0
100
AcDbLine
 10
275.128707
 20
351.072962
 30
0.0
 11
270.121707
 21
351.072962
 31
0.0
  0
LINE
  5
1142
330
1461
100
AcDbEntity
  8
0
100
AcDbLine
 10
277.224707
 20
311.072962
 30
0.0
 11
272.217707
 21
311.072962
 31
0.0
  0
LINE
  5
1143
330
1461
100
AcDbEntity
  8
0
100
AcDbLine
 10
201.919707
 20
329.909962
 30
0.0
 11
272.217707
 21
311.072962
 31
0.0
  0
ARC
  5
1144
330
1461
100
AcDbEntity
  8
0
100
AcDbCircle
 10
202.954707
 20
333.772962
 30
0.0
 40
4.0
100
AcDbArc
 50
180.001
 51
255.0
  0
LINE
  5
1145
330
1461
100
AcDbEntity
  8
0
100
AcDbLine
 10
202.516707
 20
324.572962
 30
0.0
 11
265.475707
 21
307.702962
 31
0.0
  0
ARC
  5
1146
330
1461
100
AcDbEntity
  8
0
100
AcDbCircle
 10
262.887707
 20
298.043962
 30
0.0
 40
10.0
100
AcDbArc
 50
3.0
 51
75.0
  0
LINE
  5
1147
330
1461
100
AcDbEntity
  8
0
100
AcDbLine
 10
268.626707
 20
379.596962
 30
0.0
 11
272.217707
 21
311.072962
 31
0.0
  0
DIMENSION
  5
1153
330
1461
100
AcDbEntity
  8
5
100
AcDbDimension
  2
*D11
 10
594.9537069999999
 20
533.794962
 30
0.0
 11
379.239707
 21
533.794962
 31
0.0
 70
   160
  1
%%c 430
 71
     5
 42
-1.0
  3
GEN-ISO
100
AcDbAlignedDimension
 13
164.955707
 23
389.072962
 33
0.0
 14
594.9537069999999
 24
389.072962
 34
0.0
100
AcDbRotatedDimension
  0
DIMENSION
  5
115D
330
1461
100
AcDbEntity
  8
5
100
AcDbDimension
  2
*D21
 10
728.336707
 20
397.072962
 30
0.0
 11
728.336707
 21
276.519962
 31
0.0
 70
   160
  1
220
 71
     5
 42
-1.0
  3
GEN-ISO
100
AcDbAlignedDimension
 13
434.682707
 23
177.072962
 33
0.0
 14
590.7387069999999
 24
397.072962
 34
0.0
 50
90.0
100
AcDbRotatedDimension
  0
POLYLINE
  5
115E
330
1461
100
AcDbEntity
  8
SCHRAFFUR_RAND
100
AcDb2dPolyline
 66
     1
 10
0.0
 20
0.0
 30
0.0
 70
     1
  0
VERTEX
  5
115F
330
115E
100
AcDbEntity
  8
SCHRAFFUR_RAND
100
AcDbVertex
100
AcDb2dVertex
 10
440.954707
 20
285.072962
 30
0.0
  0
VERTEX
  5
1160
330
115E
100
AcDbEntity
  8
SCHRAFFUR_RAND
100
AcDbVertex
100
AcDb2dVertex
 10
442.454707
 20
285.072962
 30
0.0
  0
VERTEX
  5
1161
330
115E
100
AcDbEntity
  8
SCHRAFFUR_RAND
100
AcDbVertex
100
AcDb2dVertex
 10
442.454707
 20
348.569962
 30
0.0
  0
VERTEX
  5
1162
330
115E
100
AcDbEntity
  8
SCHRAFFUR_RAND
100
AcDbVertex
100
AcDb2dVertex
 10
442.027707
 20
352.878962
 30
0.0
  0
VERTEX
  5
1163
330
115E
100
AcDbEntity
  8
SCHRAFFUR_RAND
100
AcDbVertex
100
AcDb2dVertex
 10
440.4537069999999
 20
356.926962
 30
0.0
  0
VERTEX
  5
1164
330
115E
100
AcDbEntity
  8
SCHRAFFUR_RAND
100
AcDbVertex
100
AcDb2dVertex
 10
437.9367069999999
 20
360.465962
 30
0.0
  0
VERTEX
  5
1165
330
115E
100
AcDbEntity
  8
SCHRAFFUR_RAND
100
AcDbVertex
100
AcDb2dVertex
 10
434.630707
 20
363.281962
 30
0.0
  0
VERTEX
  5
1166
330
115E
100
AcDbEntity
  8
SCHRAFFUR_RAND
100
AcDbVertex
100
AcDb2dVertex
 10
430.7357070000001
 20
365.201962
 30
0.0
  0
VERTEX
  5
1167
330
115E
100
AcDbEntity
  8
SCHRAFFUR_RAND
100
AcDbVertex
100
AcDb2dVertex
 10
426.479707
 20
366.002962
 30
0.0
  0
VERTEX
  5
1168
330
115E
100
AcDbEntity
  8
SCHRAFFUR_RAND
100
AcDbVertex
100
AcDb2dVertex
 10
402.9547069999999
 20
368.060962
 30
0.0
  0
VERTEX
  5
1169
330
115E
100
AcDbEntity
  8
SCHRAFFUR_RAND
100
AcDbVertex
100
AcDb2dVertex
 10
393.422707
 20
368.894962
 30
0.0
  0
VERTEX
  5
116A
330
115E
100
AcDbEntity
  8
SCHRAFFUR_RAND
100
AcDbVertex
100
AcDb2dVertex
 10
390.960707
 20
368.750962
 30
0.0
  0
VERTEX
  5
116B
330
115E
100
AcDbEntity
  8
SCHRAFFUR_RAND
100
AcDbVertex
100
AcDb2dVertex
 10
388.757707
 20
367.603962
 30
0.0
  0
VERTEX
  5
116C
330
115E
100
AcDbEntity
  8
SCHRAFFUR_RAND
100
AcDbVertex
100
AcDb2dVertex
 10
387.226707
 20
365.669962
 30
0.0
  0
VERTEX
  5
116D
330
115E
100
AcDbEntity
  8
SCHRAFFUR_RAND
100
AcDbVertex
100
AcDb2dVertex
 10
385.150707
 20
362.072962
 30
0.0
  0
VERTEX
  5
116E
330
115E
100
AcDbEntity
  8
SCHRAFFUR_RAND
100
AcDbVertex
100
AcDb2dVertex
 10
383.544707
 20
360.130962
 30
0.0
  0
VERTEX
  5
116F
330
115E
100
AcDbEntity
  8
SCHRAFFUR_RAND
100
AcDbVertex
100
AcDb2dVertex
 10
381.224707
 20
359.097962
 30
0.0
  0
VERTEX
  5
1170
330
115E
100
AcDbEntity
  8
SCHRAFFUR_RAND
100
AcDbVertex
100
AcDb2dVertex
 10
378.684707
 20
359.097962
 30
0.0
  0
VERTEX
  5
1171
330
115E
100
AcDbEntity
  8
SCHRAFFUR_RAND
100
AcDbVertex
100
AcDb2dVertex
 10
376.363707
 20
360.130962
 30
0.0
  0
VERTEX
  5
1172
330
115E
100
AcDbEntity
  8
SCHRAFFUR_RAND
100
AcDbVertex
100
AcDb2dVertex
 10
374.758707
 20
362.072962
 30
0.0
  0
VERTEX
  5
1173
330
115E
100
AcDbEntity
  8
SCHRAFFUR_RAND
100
AcDbVertex
100
AcDb2dVertex
 10
372.681707
 20
365.669962
 30
0.0
  0
VERTEX
  5
1174
330
115E
100
AcDbEntity
  8
SCHRAFFUR_RAND
100
AcDbVertex
100
AcDb2dVertex
 10
371.151707
 20
367.603962
 30
0.0
  0
VERTEX
  5
1175
330
115E
100
AcDbEntity
  8
SCHRAFFUR_RAND
100
AcDbVertex
100
AcDb2dVertex
 10
368.947707
 20
368.750962
 30
0.0
  0
VERTEX
  5
1176
330
115E
100
AcDbEntity
  8
SCHRAFFUR_RAND
100
AcDbVertex
100
AcDb2dVertex
 10
366.485707
 20
368.894962
 30
0.0
  0
VERTEX
  5
1177
330
115E
100
AcDbEntity
  8
SCHRAFFUR_RAND
100
AcDbVertex
100
AcDb2dVertex
 10
356.954707
 20
368.060962
 30
0.0
  0
VERTEX
  5
1178
330
115E
100
AcDbEntity
  8
SCHRAFFUR_RAND
100
AcDbVertex
100
AcDb2dVertex
 10
333.429707
 20
366.002962
 30
0.0
  0
VERTEX
  5
1179
330
115E
100
AcDbEntity
  8
SCHRAFFUR_RAND
100
AcDbVertex
100
AcDb2dVertex
 10
329.173707
 20
365.201962
 30
0.0
  0
VERTEX
  5
117A
330
115E
100
AcDbEntity
  8
SCHRAFFUR_RAND
100
AcDbVertex
100
AcDb2dVertex
 10
325.278707
 20
363.281962
 30
0.0
  0
VERTEX
  5
117B
330
115E
100
AcDbEntity
  8
SCHRAFFUR_RAND
100
AcDbVertex
100
AcDb2dVertex
 10
321.971707
 20
360.465962
 30
0.0
  0
VERTEX
  5
117C
330
115E
100
AcDbEntity
  8
SCHRAFFUR_RAND
100
AcDbVertex
100
AcDb2dVertex
 10
319.455707
 20
356.926962
 30
0.0
  0
VERTEX
  5
117D
330
115E
100
AcDbEntity
  8
SCHRAFFUR_RAND
100
AcDbVertex
100
AcDb2dVertex
 10
317.881707
 20
352.878962
 30
0.0
  0
VERTEX
  5
117E
330
115E
100
AcDbEntity
  8
SCHRAFFUR_RAND
100
AcDbVertex
100
AcDb2dVertex
 10
317.454707
 20
348.569962
 30
0.0
  0
VERTEX
  5
117F
330
115E
100
AcDbEntity
  8
SCHRAFFUR_RAND
100
AcDbVertex
100
AcDb2dVertex
 10
317.454707
 20
285.072962
 30
0.0
  0
VERTEX
  5
1180
330
115E
100
AcDbEntity
  8
SCHRAFFUR_RAND
100
AcDbVertex
100
AcDb2dVertex
 10
318.954707
 20
285.072962
 30
0.0
  0
VERTEX
  5
1181
330
115E
100
AcDbEntity
  8
SCHRAFFUR_RAND
100
AcDbVertex
100
AcDb2dVertex
 10
319.661707
 20
285.365962
 30
0.0
  0
VERTEX
  5
1182
330
115E
100
AcDbEntity
  8
SCHRAFFUR_RAND
100
AcDbVertex
100
AcDb2dVertex
 10
319.954707
 20
286.072962
 30
0.0
  0
VERTEX
  5
1183
330
115E
100
AcDbEntity
  8
SCHRAFFUR_RAND
100
AcDbVertex
100
AcDb2dVertex
 10
319.954707
 20
348.569962
 30
0.0
  0
VERTEX
  5
1184
330
115E
100
AcDbEntity
  8
SCHRAFFUR_RAND
100
AcDbVertex
100
AcDb2dVertex
 10
320.505707
 20
352.986962
 30
0.0
  0
VERTEX
  5
1185
330
115E
100
AcDbEntity
  8
SCHRAFFUR_RAND
100
AcDbVertex
100
AcDb2dVertex
 10
322.428707
 20
357.018962
 30
0.0
  0
VERTEX
  5
1186
330
115E
100
AcDbEntity
  8
SCHRAFFUR_RAND
100
AcDbVertex
100
AcDb2dVertex
 10
325.446707
 20
360.310962
 30
0.0
  0
VERTEX
  5
1187
330
115E
100
AcDbEntity
  8
SCHRAFFUR_RAND
100
AcDbVertex
100
AcDb2dVertex
 10
329.294707
 20
362.577962
 30
0.0
  0
VERTEX
  5
1188
330
115E
100
AcDbEntity
  8
SCHRAFFUR_RAND
100
AcDbVertex
100
AcDb2dVertex
 10
333.647707
 20
363.512962
 30
0.0
  0
VERTEX
  5
1189
330
115E
100
AcDbEntity
  8
SCHRAFFUR_RAND
100
AcDbVertex
100
AcDb2dVertex
 10
366.703707
 20
366.404962
 30
0.0
  0
VERTEX
  5
118A
330
115E
100
AcDbEntity
  8
SCHRAFFUR_RAND
100
AcDbVertex
100
AcDb2dVertex
 10
368.230707
 20
366.355962
 30
0.0
  0
VERTEX
  5
118B
330
115E
100
AcDbEntity
  8
SCHRAFFUR_RAND
100
AcDbVertex
100
AcDb2dVertex
 10
369.600707
 20
365.642962
 30
0.0
  0
VERTEX
  5
118C
330
115E
100
AcDbEntity
  8
SCHRAFFUR_RAND
100
AcDbVertex
100
AcDb2dVertex
 10
370.516707
 20
364.419962
 30
0.0
  0
VERTEX
  5
118D
330
115E
100
AcDbEntity
  8
SCHRAFFUR_RAND
100
AcDbVertex
100
AcDb2dVertex
 10
372.593707
 20
360.822962
 30
0.0
  0
VERTEX
  5
118E
330
115E
100
AcDbEntity
  8
SCHRAFFUR_RAND
100
AcDbVertex
100
AcDb2dVertex
 10
374.420707
 20
358.478962
 30
0.0
  0
VERTEX
  5
118F
330
115E
100
AcDbEntity
  8
SCHRAFFUR_RAND
100
AcDbVertex
100
AcDb2dVertex
 10
377.009707
 20
356.983962
 30
0.0
  0
VERTEX
  5
1190
330
115E
100
AcDbEntity
  8
SCHRAFFUR_RAND
100
AcDbVertex
100
AcDb2dVertex
 10
379.954707
 20
356.464962
 30
0.0
  0
VERTEX
  5
1191
330
115E
100
AcDbEntity
  8
SCHRAFFUR_RAND
100
AcDbVertex
100
AcDb2dVertex
 10
382.898707
 20
356.983962
 30
0.0
  0
VERTEX
  5
1192
330
115E
100
AcDbEntity
  8
SCHRAFFUR_RAND
100
AcDbVertex
100
AcDb2dVertex
 10
385.487707
 20
358.478962
 30
0.0
  0
VERTEX
  5
1193
330
115E
100
AcDbEntity
  8
SCHRAFFUR_RAND
100
AcDbVertex
100
AcDb2dVertex
 10
387.315707
 20
360.822962
 30
0.0
  0
VERTEX
  5
1194
330
115E
100
AcDbEntity
  8
SCHRAFFUR_RAND
100
AcDbVertex
100
AcDb2dVertex
 10
389.391707
 20
364.419962
 30
0.0
  0
VERTEX
  5
1195
330
115E
100
AcDbEntity
  8
SCHRAFFUR_RAND
100
AcDbVertex
100
AcDb2dVertex
 10
390.307707
 20
365.642962
 30
0.0
  0
VERTEX
  5
1196
330
115E
100
AcDbEntity
  8
SCHRAFFUR_RAND
100
AcDbVertex
100
AcDb2dVertex
 10
391.677707
 20
366.355962
 30
0.0
  0
VERTEX
  5
1197
330
115E
100
AcDbEntity
  8
SCHRAFFUR_RAND
100
AcDbVertex
100
AcDb2dVertex
 10
393.204707
 20
366.403962
 30
0.0
  0
VERTEX
  5
1198
330
115E
100
AcDbEntity
  8
SCHRAFFUR_RAND
100
AcDbVertex
100
AcDb2dVertex
 10
426.2617070000001
 20
363.5119620000001
 30
0.0
  0
VERTEX
  5
1199
330
115E
100
AcDbEntity
  8
SCHRAFFUR_RAND
100
AcDbVertex
100
AcDb2dVertex
 10
430.614707
 20
362.577962
 30
0.0
  0
VERTEX
  5
119A
330
115E
100
AcDbEntity
  8
SCHRAFFUR_RAND
100
AcDbVertex
100
AcDb2dVertex
 10
434.462707
 20
360.310962
 30
0.0
  0
VERTEX
  5
119B
330
115E
100
AcDbEntity
  8
SCHRAFFUR_RAND
100
AcDbVertex
100
AcDb2dVertex
 10
437.4807070000001
 20
357.018962
 30
0.0
  0
VERTEX
  5
119C
330
115E
100
AcDbEntity
  8
SCHRAFFUR_RAND
100
AcDbVertex
100
AcDb2dVertex
 10
439.4027069999999
 20
352.986962
 30
0.0
  0
VERTEX
  5
119D
330
115E
100
AcDbEntity
  8
SCHRAFFUR_RAND
100
AcDbVertex
100
AcDb2dVertex
 10
439.954707
 20
348.569962
 30
0.0
  0
VERTEX
  5
119E
330
115E
100
AcDbEntity
  8
SCHRAFFUR_RAND
100
AcDbVertex
100
AcDb2dVertex
 10
439.954707
 20
286.072962
 30
0.0
  0
VERTEX
  5
119F
330
115E
100
AcDbEntity
  8
SCHRAFFUR_RAND
100
AcDbVertex
100
AcDb2dVertex
 10
440.247707
 20
285.365962
 30
0.0
  0
VERTEX
  5
11A0
330
115E
100
AcDbEntity
  8
SCHRAFFUR_RAND
100
AcDbVertex
100
AcDb2dVertex
 10
440.954707
 20
285.072962
 30
0.0
  0
SEQEND
  5
11A1
330
115E
100
AcDbEntity
  8
SCHRAFFUR_RAND
  0
INSERT
  5
11DD
330
1461
100
AcDbEntity
  8
8
100
AcDbBlockReference
  2
*X3
 10
6.501706999999999
 20
50.029962
 30
0.0
1001
ACAD
1000
HATCH
1002
{
1070
    19
1000
ANSI31,_I
1040
3.174999999999999
1040
0.0
1002
}
  0
POLYLINE
  5
11DE
330
1461
100
AcDbEntity
  8
SCHRAFFUR_RAND
100
AcDb2dPolyline
 66
     1
 10
0.0
 20
0.0
 30
0.0
 70
     1
  0
VERTEX
  5
11DF
330
11DE
100
AcDbEntity
  8
SCHRAFFUR_RAND
100
AcDbVertex
100
AcDb2dVertex
 10
354.954707
 20
285.072962
 30
0.0
  0
VERTEX
  5
11E0
330
11DE
100
AcDbEntity
  8
SCHRAFFUR_RAND
100
AcDbVertex
100
AcDb2dVertex
 10
354.126707
 20
282.474962
 30
0.0
  0
VERTEX
  5
11E1
330
11DE
100
AcDbEntity
  8
SCHRAFFUR_RAND
100
AcDbVertex
100
AcDb2dVertex
 10
351.808707
 20
278.138962
 30
0.0
  0
VERTEX
  5
11E2
330
11DE
100
AcDbEntity
  8
SCHRAFFUR_RAND
100
AcDbVertex
100
AcDb2dVertex
 10
348.689707
 20
274.337962
 30
0.0
  0
VERTEX
  5
11E3
330
11DE
100
AcDbEntity
  8
SCHRAFFUR_RAND
100
AcDbVertex
100
AcDb2dVertex
 10
344.888707
 20
271.218962
 30
0.0
  0
VERTEX
  5
11E4
330
11DE
100
AcDbEntity
  8
SCHRAFFUR_RAND
100
AcDbVertex
100
AcDb2dVertex
 10
340.552707
 20
268.900962
 30
0.0
  0
VERTEX
  5
11E5
330
11DE
100
AcDbEntity
  8
SCHRAFFUR_RAND
100
AcDbVertex
100
AcDb2dVertex
 10
335.847707
 20
267.473962
 30
0.0
  0
VERTEX
  5
11E6
330
11DE
100
AcDbEntity
  8
SCHRAFFUR_RAND
100
AcDbVertex
100
AcDb2dVertex
 10
330.954707
 20
267.072962
 30
0.0
  0
VERTEX
  5
11E7
330
11DE
100
AcDbEntity
  8
SCHRAFFUR_RAND
100
AcDbVertex
100
AcDb2dVertex
 10
330.954707
 20
265.072962
 30
0.0
  0
VERTEX
  5
11E8
330
11DE
100
AcDbEntity
  8
SCHRAFFUR_RAND
100
AcDbVertex
100
AcDb2dVertex
 10
318.954707
 20
265.072962
 30
0.0
  0
VERTEX
  5
11E9
330
11DE
100
AcDbEntity
  8
SCHRAFFUR_RAND
100
AcDbVertex
100
AcDb2dVertex
 10
319.7587069999999
 20
262.072962
 30
0.0
  0
VERTEX
  5
11EA
330
11DE
100
AcDbEntity
  8
SCHRAFFUR_RAND
100
AcDbVertex
100
AcDb2dVertex
 10
332.954707
 20
262.072962
 30
0.0
  0
VERTEX
  5
11EB
330
11DE
100
AcDbEntity
  8
SCHRAFFUR_RAND
100
AcDbVertex
100
AcDb2dVertex
 10
334.516707
 20
261.843962
 30
0.0
  0
VERTEX
  5
11EC
330
11DE
100
AcDbEntity
  8
SCHRAFFUR_RAND
100
AcDbVertex
100
AcDb2dVertex
 10
335.840707
 20
260.958962
 30
0.0
  0
VERTEX
  5
11ED
330
11DE
100
AcDbEntity
  8
SCHRAFFUR_RAND
100
AcDbVertex
100
AcDb2dVertex
 10
336.724707
 20
259.634962
 30
0.0
  0
VERTEX
  5
11EE
330
11DE
100
AcDbEntity
  8
SCHRAFFUR_RAND
100
AcDbVertex
100
AcDb2dVertex
 10
336.954707
 20
258.072962
 30
0.0
  0
VERTEX
  5
11EF
330
11DE
100
AcDbEntity
  8
SCHRAFFUR_RAND
100
AcDbVertex
100
AcDb2dVertex
 10
336.622707
 20
256.532962
 30
0.0
  0
VERTEX
  5
11F0
330
11DE
100
AcDbEntity
  8
SCHRAFFUR_RAND
100
AcDbVertex
100
AcDb2dVertex
 10
335.494707
 20
255.404962
 30
0.0
  0
VERTEX
  5
11F1
330
11DE
100
AcDbEntity
  8
SCHRAFFUR_RAND
100
AcDbVertex
100
AcDb2dVertex
 10
333.954707
 20
255.072962
 30
0.0
  0
VERTEX
  5
11F2
330
11DE
100
AcDbEntity
  8
SCHRAFFUR_RAND
100
AcDbVertex
100
AcDb2dVertex
 10
332.954707
 20
255.072962
 30
0.0
  0
VERTEX
  5
11F3
330
11DE
100
AcDbEntity
  8
SCHRAFFUR_RAND
100
AcDbVertex
100
AcDb2dVertex
 10
332.163707
 20
254.942962
 30
0.0
  0
VERTEX
  5
11F4
330
11DE
100
AcDbEntity
  8
SCHRAFFUR_RAND
100
AcDbVertex
100
AcDb2dVertex
 10
331.584707
 20
254.363962
 30
0.0
  0
VERTEX
  5
11F5
330
11DE
100
AcDbEntity
  8
SCHRAFFUR_RAND
100
AcDbVertex
100
AcDb2dVertex
 10
331.454707
 20
253.572962
 30
0.0
  0
VERTEX
  5
11F6
330
11DE
100
AcDbEntity
  8
SCHRAFFUR_RAND
100
AcDbVertex
100
AcDb2dVertex
 10
331.584707
 20
252.782962
 30
0.0
  0
VERTEX
  5
11F7
330
11DE
100
AcDbEntity
  8
SCHRAFFUR_RAND
100
AcDbVertex
100
AcDb2dVertex
 10
332.163707
 20
252.203962
 30
0.0
  0
VERTEX
  5
11F8
330
11DE
100
AcDbEntity
  8
SCHRAFFUR_RAND
100
AcDbVertex
100
AcDb2dVertex
 10
332.954707
 20
252.072962
 30
0.0
  0
VERTEX
  5
11F9
330
11DE
100
AcDbEntity
  8
SCHRAFFUR_RAND
100
AcDbVertex
100
AcDb2dVertex
 10
333.954707
 20
252.072962
 30
0.0
  0
VERTEX
  5
11FA
330
11DE
100
AcDbEntity
  8
SCHRAFFUR_RAND
100
AcDbVertex
100
AcDb2dVertex
 10
335.494707
 20
251.741962
 30
0.0
  0
VERTEX
  5
11FB
330
11DE
100
AcDbEntity
  8
SCHRAFFUR_RAND
100
AcDbVertex
100
AcDb2dVertex
 10
336.622707
 20
250.613962
 30
0.0
  0
VERTEX
  5
11FC
330
11DE
100
AcDbEntity
  8
SCHRAFFUR_RAND
100
AcDbVertex
100
AcDb2dVertex
 10
336.954707
 20
249.072962
 30
0.0
  0
VERTEX
  5
11FD
330
11DE
100
AcDbEntity
  8
SCHRAFFUR_RAND
100
AcDbVertex
100
AcDb2dVertex
 10
336.954707
 20
247.364962
 30
0.0
  0
VERTEX
  5
11FE
330
11DE
100
AcDbEntity
  8
SCHRAFFUR_RAND
100
AcDbVertex
100
AcDb2dVertex
 10
336.695707
 20
245.950962
 30
0.0
  0
VERTEX
  5
11FF
330
11DE
100
AcDbEntity
  8
SCHRAFFUR_RAND
100
AcDbVertex
100
AcDb2dVertex
 10
335.954707
 20
244.718962
 30
0.0
  0
VERTEX
  5
1200
330
11DE
100
AcDbEntity
  8
SCHRAFFUR_RAND
100
AcDbVertex
100
AcDb2dVertex
 10
335.212707
 20
243.487962
 30
0.0
  0
VERTEX
  5
1201
330
11DE
100
AcDbEntity
  8
SCHRAFFUR_RAND
100
AcDbVertex
100
AcDb2dVertex
 10
334.954707
 20
242.072962
 30
0.0
  0
VERTEX
  5
1202
330
11DE
100
AcDbEntity
  8
SCHRAFFUR_RAND
100
AcDbVertex
100
AcDb2dVertex
 10
334.954707
 20
237.729962
 30
0.0
  0
VERTEX
  5
1203
330
11DE
100
AcDbEntity
  8
SCHRAFFUR_RAND
100
AcDbVertex
100
AcDb2dVertex
 10
335.183707
 20
236.396962
 30
0.0
  0
VERTEX
  5
1204
330
11DE
100
AcDbEntity
  8
SCHRAFFUR_RAND
100
AcDbVertex
100
AcDb2dVertex
 10
335.843707
 20
235.215962
 30
0.0
  0
VERTEX
  5
1205
330
11DE
100
AcDbEntity
  8
SCHRAFFUR_RAND
100
AcDbVertex
100
AcDb2dVertex
 10
336.453707
 20
234.434962
 30
0.0
  0
VERTEX
  5
1206
330
11DE
100
AcDbEntity
  8
SCHRAFFUR_RAND
100
AcDbVertex
100
AcDb2dVertex
 10
336.954707
 20
232.072962
 30
0.0
  0
VERTEX
  5
1207
330
11DE
100
AcDbEntity
  8
SCHRAFFUR_RAND
100
AcDbVertex
100
AcDb2dVertex
 10
336.453707
 20
229.711962
 30
0.0
  0
VERTEX
  5
1208
330
11DE
100
AcDbEntity
  8
SCHRAFFUR_RAND
100
AcDbVertex
100
AcDb2dVertex
 10
334.840707
 20
227.891962
 30
0.0
  0
VERTEX
  5
1209
330
11DE
100
AcDbEntity
  8
SCHRAFFUR_RAND
100
AcDbVertex
100
AcDb2dVertex
 10
332.454707
 20
227.072962
 30
0.0
  0
VERTEX
  5
120A
330
11DE
100
AcDbEntity
  8
SCHRAFFUR_RAND
100
AcDbVertex
100
AcDb2dVertex
 10
332.454707
 20
224.072962
 30
0.0
  0
VERTEX
  5
120B
330
11DE
100
AcDbEntity
  8
SCHRAFFUR_RAND
100
AcDbVertex
100
AcDb2dVertex
 10
339.954707
 20
224.072962
 30
0.0
  0
VERTEX
  5
120C
330
11DE
100
AcDbEntity
  8
SCHRAFFUR_RAND
100
AcDbVertex
100
AcDb2dVertex
 10
339.954707
 20
259.742962
 30
0.0
  0
VERTEX
  5
120D
330
11DE
100
AcDbEntity
  8
SCHRAFFUR_RAND
100
AcDbVertex
100
AcDb2dVertex
 10
340.211707
 20
262.332962
 30
0.0
  0
VERTEX
  5
120E
330
11DE
100
AcDbEntity
  8
SCHRAFFUR_RAND
100
AcDbVertex
100
AcDb2dVertex
 10
341.204707
 20
264.749962
 30
0.0
  0
VERTEX
  5
120F
330
11DE
100
AcDbEntity
  8
SCHRAFFUR_RAND
100
AcDbVertex
100
AcDb2dVertex
 10
342.784707
 20
266.829962
 30
0.0
  0
VERTEX
  5
1210
330
11DE
100
AcDbEntity
  8
SCHRAFFUR_RAND
100
AcDbVertex
100
AcDb2dVertex
 10
344.887707
 20
268.364962
 30
0.0
  0
VERTEX
  5
1211
330
11DE
100
AcDbEntity
  8
SCHRAFFUR_RAND
100
AcDbVertex
100
AcDb2dVertex
 10
348.753707
 20
271.003962
 30
0.0
  0
VERTEX
  5
1212
330
11DE
100
AcDbEntity
  8
SCHRAFFUR_RAND
100
AcDbVertex
100
AcDb2dVertex
 10
352.063707
 20
274.321962
 30
0.0
  0
VERTEX
  5
1213
330
11DE
100
AcDbEntity
  8
SCHRAFFUR_RAND
100
AcDbVertex
100
AcDb2dVertex
 10
354.764707
 20
278.151962
 30
0.0
  0
VERTEX
  5
1214
330
11DE
100
AcDbEntity
  8
SCHRAFFUR_RAND
100
AcDbVertex
100
AcDb2dVertex
 10
356.701707
 20
282.412962
 30
0.0
  0
VERTEX
  5
1215
330
11DE
100
AcDbEntity
  8
SCHRAFFUR_RAND
100
AcDbVertex
100
AcDb2dVertex
 10
358.454707
 20
282.412962
 30
0.0
  0
VERTEX
  5
1216
330
11DE
100
AcDbEntity
  8
SCHRAFFUR_RAND
100
AcDbVertex
100
AcDb2dVertex
 10
358.3837069999999
 20
292.5169620000001
 30
0.0
  0
VERTEX
  5
1217
330
11DE
100
AcDbEntity
  8
SCHRAFFUR_RAND
100
AcDbVertex
100
AcDb2dVertex
 10
358.454707
 20
345.072962
 30
0.0
  0
VERTEX
  5
1218
330
11DE
100
AcDbEntity
  8
SCHRAFFUR_RAND
100
AcDbVertex
100
AcDb2dVertex
 10
355.954707
 20
345.072962
 30
0.0
  0
VERTEX
  5
1219
330
11DE
100
AcDbEntity
  8
SCHRAFFUR_RAND
100
AcDbVertex
100
AcDb2dVertex
 10
355.954707
 20
292.072962
 30
0.0
  0
VERTEX
  5
121A
330
11DE
100
AcDbEntity
  8
SCHRAFFUR_RAND
100
AcDbVertex
100
AcDb2dVertex
 10
355.553707
 20
287.179962
 30
0.0
  0
VERTEX
  5
121B
330
11DE
100
AcDbEntity
  8
SCHRAFFUR_RAND
100
AcDbVertex
100
AcDb2dVertex
 10
354.954707
 20
285.072962
 30
0.0
  0
SEQEND
  5
121C
330
11DE
100
AcDbEntity
  8
SCHRAFFUR_RAND
  0
INSERT
  5
1244
330
1461
100
AcDbEntity
  8
8
100
AcDbBlockReference
  2
*X4
 10
6.501706999999999
 20
50.029962
 30
0.0
1001
ACAD
1000
HATCH
1002
{
1070
    19
1000
ANSI31,_I
1040
3.174999999999999
1040
0.0
1002
}
  0
POLYLINE
  5
1245
330
1461
100
AcDbEntity
  8
SCHRAFFUR_RAND
100
AcDb2dPolyline
 66
     1
 10
0.0
 20
0.0
 30
0.0
 70
     1
  0
VERTEX
  5
1246
330
1245
100
AcDbEntity
  8
SCHRAFFUR_RAND
100
AcDbVertex
100
AcDb2dVertex
 10
419.954707
 20
224.072962
 30
0.0
  0
VERTEX
  5
1247
330
1245
100
AcDbEntity
  8
SCHRAFFUR_RAND
100
AcDbVertex
100
AcDb2dVertex
 10
427.454707
 20
224.072962
 30
0.0
  0
VERTEX
  5
1248
330
1245
100
AcDbEntity
  8
SCHRAFFUR_RAND
100
AcDbVertex
100
AcDb2dVertex
 10
427.454707
 20
227.072962
 30
0.0
  0
VERTEX
  5
1249
330
1245
100
AcDbEntity
  8
SCHRAFFUR_RAND
100
AcDbVertex
100
AcDb2dVertex
 10
426.824707
 20
227.124962
 30
0.0
  0
VERTEX
  5
124A
330
1245
100
AcDbEntity
  8
SCHRAFFUR_RAND
100
AcDbVertex
100
AcDb2dVertex
 10
424.789707
 20
228.104962
 30
0.0
  0
VERTEX
  5
124B
330
1245
100
AcDbEntity
  8
SCHRAFFUR_RAND
100
AcDbVertex
100
AcDb2dVertex
 10
423.3817069999999
 20
229.870962
 30
0.0
  0
VERTEX
  5
124C
330
1245
100
AcDbEntity
  8
SCHRAFFUR_RAND
100
AcDbVertex
100
AcDb2dVertex
 10
422.879707
 20
232.072962
 30
0.0
  0
VERTEX
  5
124D
330
1245
100
AcDbEntity
  8
SCHRAFFUR_RAND
100
AcDbVertex
100
AcDb2dVertex
 10
423.3817069999999
 20
234.274962
 30
0.0
  0
VERTEX
  5
124E
330
1245
100
AcDbEntity
  8
SCHRAFFUR_RAND
100
AcDbVertex
100
AcDb2dVertex
 10
424.065707
 20
235.215962
 30
0.0
  0
VERTEX
  5
124F
330
1245
100
AcDbEntity
  8
SCHRAFFUR_RAND
100
AcDbVertex
100
AcDb2dVertex
 10
424.725707
 20
236.396962
 30
0.0
  0
VERTEX
  5
1250
330
1245
100
AcDbEntity
  8
SCHRAFFUR_RAND
100
AcDbVertex
100
AcDb2dVertex
 10
424.954707
 20
237.729962
 30
0.0
  0
VERTEX
  5
1251
330
1245
100
AcDbEntity
  8
SCHRAFFUR_RAND
100
AcDbVertex
100
AcDb2dVertex
 10
424.954707
 20
242.072962
 30
0.0
  0
VERTEX
  5
1252
330
1245
100
AcDbEntity
  8
SCHRAFFUR_RAND
100
AcDbVertex
100
AcDb2dVertex
 10
424.696707
 20
243.487962
 30
0.0
  0
VERTEX
  5
1253
330
1245
100
AcDbEntity
  8
SCHRAFFUR_RAND
100
AcDbVertex
100
AcDb2dVertex
 10
423.954707
 20
244.718962
 30
0.0
  0
VERTEX
  5
1254
330
1245
100
AcDbEntity
  8
SCHRAFFUR_RAND
100
AcDbVertex
100
AcDb2dVertex
 10
423.212707
 20
245.950962
 30
0.0
  0
VERTEX
  5
1255
330
1245
100
AcDbEntity
  8
SCHRAFFUR_RAND
100
AcDbVertex
100
AcDb2dVertex
 10
422.954707
 20
247.364962
 30
0.0
  0
VERTEX
  5
1256
330
1245
100
AcDbEntity
  8
SCHRAFFUR_RAND
100
AcDbVertex
100
AcDb2dVertex
 10
422.954707
 20
249.072962
 30
0.0
  0
VERTEX
  5
1257
330
1245
100
AcDbEntity
  8
SCHRAFFUR_RAND
100
AcDbVertex
100
AcDb2dVertex
 10
423.291707
 20
250.610962
 30
0.0
  0
VERTEX
  5
1258
330
1245
100
AcDbEntity
  8
SCHRAFFUR_RAND
100
AcDbVertex
100
AcDb2dVertex
 10
424.416707
 20
251.736962
 30
0.0
  0
VERTEX
  5
1259
330
1245
100
AcDbEntity
  8
SCHRAFFUR_RAND
100
AcDbVertex
100
AcDb2dVertex
 10
425.954707
 20
252.072962
 30
0.0
  0
VERTEX
  5
125A
330
1245
100
AcDbEntity
  8
SCHRAFFUR_RAND
100
AcDbVertex
100
AcDb2dVertex
 10
426.954707
 20
252.072962
 30
0.0
  0
VERTEX
  5
125B
330
1245
100
AcDbEntity
  8
SCHRAFFUR_RAND
100
AcDbVertex
100
AcDb2dVertex
 10
427.742707
 20
252.208962
 30
0.0
  0
VERTEX
  5
125C
330
1245
100
AcDbEntity
  8
SCHRAFFUR_RAND
100
AcDbVertex
100
AcDb2dVertex
 10
428.318707
 20
252.785962
 30
0.0
  0
VERTEX
  5
125D
330
1245
100
AcDbEntity
  8
SCHRAFFUR_RAND
100
AcDbVertex
100
AcDb2dVertex
 10
428.454707
 20
253.572962
 30
0.0
  0
VERTEX
  5
125E
330
1245
100
AcDbEntity
  8
SCHRAFFUR_RAND
100
AcDbVertex
100
AcDb2dVertex
 10
428.318707
 20
254.360962
 30
0.0
  0
VERTEX
  5
125F
330
1245
100
AcDbEntity
  8
SCHRAFFUR_RAND
100
AcDbVertex
100
AcDb2dVertex
 10
427.742707
 20
254.937962
 30
0.0
  0
VERTEX
  5
1260
330
1245
100
AcDbEntity
  8
SCHRAFFUR_RAND
100
AcDbVertex
100
AcDb2dVertex
 10
426.954707
 20
255.072962
 30
0.0
  0
VERTEX
  5
1261
330
1245
100
AcDbEntity
  8
SCHRAFFUR_RAND
100
AcDbVertex
100
AcDb2dVertex
 10
425.954707
 20
255.072962
 30
0.0
  0
VERTEX
  5
1262
330
1245
100
AcDbEntity
  8
SCHRAFFUR_RAND
100
AcDbVertex
100
AcDb2dVertex
 10
424.416707
 20
255.409962
 30
0.0
  0
VERTEX
  5
1263
330
1245
100
AcDbEntity
  8
SCHRAFFUR_RAND
100
AcDbVertex
100
AcDb2dVertex
 10
423.291707
 20
256.535962
 30
0.0
  0
VERTEX
  5
1264
330
1245
100
AcDbEntity
  8
SCHRAFFUR_RAND
100
AcDbVertex
100
AcDb2dVertex
 10
422.954707
 20
258.072962
 30
0.0
  0
VERTEX
  5
1265
330
1245
100
AcDbEntity
  8
SCHRAFFUR_RAND
100
AcDbVertex
100
AcDb2dVertex
 10
423.189707
 20
259.632962
 30
0.0
  0
VERTEX
  5
1266
330
1245
100
AcDbEntity
  8
SCHRAFFUR_RAND
100
AcDbVertex
100
AcDb2dVertex
 10
424.072707
 20
260.954962
 30
0.0
  0
VERTEX
  5
1267
330
1245
100
AcDbEntity
  8
SCHRAFFUR_RAND
100
AcDbVertex
100
AcDb2dVertex
 10
425.394707
 20
261.837962
 30
0.0
  0
VERTEX
  5
1268
330
1245
100
AcDbEntity
  8
SCHRAFFUR_RAND
100
AcDbVertex
100
AcDb2dVertex
 10
426.954707
 20
262.072962
 30
0.0
  0
VERTEX
  5
1269
330
1245
100
AcDbEntity
  8
SCHRAFFUR_RAND
100
AcDbVertex
100
AcDb2dVertex
 10
440.150707
 20
262.072962
 30
0.0
  0
VERTEX
  5
126A
330
1245
100
AcDbEntity
  8
SCHRAFFUR_RAND
100
AcDbVertex
100
AcDb2dVertex
 10
440.954707
 20
265.072962
 30
0.0
  0
VERTEX
  5
126B
330
1245
100
AcDbEntity
  8
SCHRAFFUR_RAND
100
AcDbVertex
100
AcDb2dVertex
 10
428.954707
 20
265.072962
 30
0.0
  0
VERTEX
  5
126C
330
1245
100
AcDbEntity
  8
SCHRAFFUR_RAND
100
AcDbVertex
100
AcDb2dVertex
 10
428.954707
 20
267.072962
 30
0.0
  0
VERTEX
  5
126D
330
1245
100
AcDbEntity
  8
SCHRAFFUR_RAND
100
AcDbVertex
100
AcDb2dVertex
 10
424.062707
 20
267.479962
 30
0.0
  0
VERTEX
  5
126E
330
1245
100
AcDbEntity
  8
SCHRAFFUR_RAND
100
AcDbVertex
100
AcDb2dVertex
 10
419.3587069999999
 20
268.906962
 30
0.0
  0
VERTEX
  5
126F
330
1245
100
AcDbEntity
  8
SCHRAFFUR_RAND
100
AcDbVertex
100
AcDb2dVertex
 10
415.023707
 20
271.223962
 30
0.0
  0
VERTEX
  5
1270
330
1245
100
AcDbEntity
  8
SCHRAFFUR_RAND
100
AcDbVertex
100
AcDb2dVertex
 10
411.2237069999999
 20
274.341962
 30
0.0
  0
VERTEX
  5
1271
330
1245
100
AcDbEntity
  8
SCHRAFFUR_RAND
100
AcDbVertex
100
AcDb2dVertex
 10
408.1057069999999
 20
278.141962
 30
0.0
  0
VERTEX
  5
1272
330
1245
100
AcDbEntity
  8
SCHRAFFUR_RAND
100
AcDbVertex
100
AcDb2dVertex
 10
405.7877069999999
 20
282.476962
 30
0.0
  0
VERTEX
  5
1273
330
1245
100
AcDbEntity
  8
SCHRAFFUR_RAND
100
AcDbVertex
100
AcDb2dVertex
 10
404.954707
 20
285.072962
 30
0.0
  0
VERTEX
  5
1274
330
1245
100
AcDbEntity
  8
SCHRAFFUR_RAND
100
AcDbVertex
100
AcDb2dVertex
 10
404.360707
 20
287.180962
 30
0.0
  0
VERTEX
  5
1275
330
1245
100
AcDbEntity
  8
SCHRAFFUR_RAND
100
AcDbVertex
100
AcDb2dVertex
 10
403.954707
 20
292.072962
 30
0.0
  0
VERTEX
  5
1276
330
1245
100
AcDbEntity
  8
SCHRAFFUR_RAND
100
AcDbVertex
100
AcDb2dVertex
 10
403.954707
 20
345.072962
 30
0.0
  0
VERTEX
  5
1277
330
1245
100
AcDbEntity
  8
SCHRAFFUR_RAND
100
AcDbVertex
100
AcDb2dVertex
 10
401.4547069999999
 20
345.072962
 30
0.0
  0
VERTEX
  5
1278
330
1245
100
AcDbEntity
  8
SCHRAFFUR_RAND
100
AcDbVertex
100
AcDb2dVertex
 10
401.4547069999999
 20
292.5169620000001
 30
0.0
  0
VERTEX
  5
1279
330
1245
100
AcDbEntity
  8
SCHRAFFUR_RAND
100
AcDbVertex
100
AcDb2dVertex
 10
401.4547069999999
 20
282.412962
 30
0.0
  0
VERTEX
  5
127A
330
1245
100
AcDbEntity
  8
SCHRAFFUR_RAND
100
AcDbVertex
100
AcDb2dVertex
 10
403.2077069999999
 20
282.412962
 30
0.0
  0
VERTEX
  5
127B
330
1245
100
AcDbEntity
  8
SCHRAFFUR_RAND
100
AcDbVertex
100
AcDb2dVertex
 10
405.150707
 20
278.153962
 30
0.0
  0
VERTEX
  5
127C
330
1245
100
AcDbEntity
  8
SCHRAFFUR_RAND
100
AcDbVertex
100
AcDb2dVertex
 10
407.851707
 20
274.322962
 30
0.0
  0
VERTEX
  5
127D
330
1245
100
AcDbEntity
  8
SCHRAFFUR_RAND
100
AcDbVertex
100
AcDb2dVertex
 10
411.1637069999999
 20
271.004962
 30
0.0
  0
VERTEX
  5
127E
330
1245
100
AcDbEntity
  8
SCHRAFFUR_RAND
100
AcDbVertex
100
AcDb2dVertex
 10
415.0277069999999
 20
268.360962
 30
0.0
  0
VERTEX
  5
127F
330
1245
100
AcDbEntity
  8
SCHRAFFUR_RAND
100
AcDbVertex
100
AcDb2dVertex
 10
417.1197069999999
 20
266.825962
 30
0.0
  0
VERTEX
  5
1280
330
1245
100
AcDbEntity
  8
SCHRAFFUR_RAND
100
AcDbVertex
100
AcDb2dVertex
 10
418.699707
 20
264.746962
 30
0.0
  0
VERTEX
  5
1281
330
1245
100
AcDbEntity
  8
SCHRAFFUR_RAND
100
AcDbVertex
100
AcDb2dVertex
 10
419.691707
 20
262.331962
 30
0.0
  0
VERTEX
  5
1282
330
1245
100
AcDbEntity
  8
SCHRAFFUR_RAND
100
AcDbVertex
100
AcDb2dVertex
 10
419.954707
 20
259.742962
 30
0.0
  0
VERTEX
  5
1283
330
1245
100
AcDbEntity
  8
SCHRAFFUR_RAND
100
AcDbVertex
100
AcDb2dVertex
 10
419.954707
 20
224.072962
 30
0.0
  0
SEQEND
  5
1284
330
1245
100
AcDbEntity
  8
SCHRAFFUR_RAND
  0
INSERT
  5
12AC
330
1461
100
AcDbEntity
  8
8
100
AcDbBlockReference
  2
*X5
 10
6.501706999999999
 20
50.029962
 30
0.0
1001
ACAD
1000
HATCH
1002
{
1070
    19
1000
ANSI31,_I
1040
3.174999999999999
1040
0.0
1002
}
  0
POLYLINE
  5
12AD
330
1461
100
AcDbEntity
  8
SCHRAFFUR_RAND
100
AcDb2dPolyline
 66
     1
 10
0.0
 20
0.0
 30
0.0
 70
     1
  0
VERTEX
  5
12AE
330
12AD
100
AcDbEntity
  8
SCHRAFFUR_RAND
100
AcDbVertex
100
AcDb2dVertex
 10
430.834707
 20
248.133962
 30
0.0
  0
VERTEX
  5
12AF
330
12AD
100
AcDbEntity
  8
SCHRAFFUR_RAND
100
AcDbVertex
100
AcDb2dVertex
 10
430.717707
 20
249.157962
 30
0.0
  0
VERTEX
  5
12B0
330
12AD
100
AcDbEntity
  8
SCHRAFFUR_RAND
100
AcDbVertex
100
AcDb2dVertex
 10
430.321707
 20
250.112962
 30
0.0
  0
VERTEX
  5
12B1
330
12AD
100
AcDbEntity
  8
SCHRAFFUR_RAND
100
AcDbVertex
100
AcDb2dVertex
 10
429.692707
 20
250.932962
 30
0.0
  0
VERTEX
  5
12B2
330
12AD
100
AcDbEntity
  8
SCHRAFFUR_RAND
100
AcDbVertex
100
AcDb2dVertex
 10
428.873707
 20
251.561962
 30
0.0
  0
VERTEX
  5
12B3
330
12AD
100
AcDbEntity
  8
SCHRAFFUR_RAND
100
AcDbVertex
100
AcDb2dVertex
 10
427.918707
 20
251.956962
 30
0.0
  0
VERTEX
  5
12B4
330
12AD
100
AcDbEntity
  8
SCHRAFFUR_RAND
100
AcDbVertex
100
AcDb2dVertex
 10
426.954707
 20
252.072962
 30
0.0
  0
VERTEX
  5
12B5
330
12AD
100
AcDbEntity
  8
SCHRAFFUR_RAND
100
AcDbVertex
100
AcDb2dVertex
 10
426.894707
 20
252.091962
 30
0.0
  0
VERTEX
  5
12B6
330
12AD
100
AcDbEntity
  8
SCHRAFFUR_RAND
100
AcDbVertex
100
AcDb2dVertex
 10
425.869707
 20
251.956962
 30
0.0
  0
VERTEX
  5
12B7
330
12AD
100
AcDbEntity
  8
SCHRAFFUR_RAND
100
AcDbVertex
100
AcDb2dVertex
 10
424.915707
 20
251.561962
 30
0.0
  0
VERTEX
  5
12B8
330
12AD
100
AcDbEntity
  8
SCHRAFFUR_RAND
100
AcDbVertex
100
AcDb2dVertex
 10
424.095707
 20
250.932962
 30
0.0
  0
VERTEX
  5
12B9
330
12AD
100
AcDbEntity
  8
SCHRAFFUR_RAND
100
AcDbVertex
100
AcDb2dVertex
 10
423.466707
 20
250.112962
 30
0.0
  0
VERTEX
  5
12BA
330
12AD
100
AcDbEntity
  8
SCHRAFFUR_RAND
100
AcDbVertex
100
AcDb2dVertex
 10
423.0717069999999
 20
249.157962
 30
0.0
  0
VERTEX
  5
12BB
330
12AD
100
AcDbEntity
  8
SCHRAFFUR_RAND
100
AcDbVertex
100
AcDb2dVertex
 10
422.936707
 20
248.133962
 30
0.0
  0
VERTEX
  5
12BC
330
12AD
100
AcDbEntity
  8
SCHRAFFUR_RAND
100
AcDbVertex
100
AcDb2dVertex
 10
423.0717069999999
 20
247.108962
 30
0.0
  0
VERTEX
  5
12BD
330
12AD
100
AcDbEntity
  8
SCHRAFFUR_RAND
100
AcDbVertex
100
AcDb2dVertex
 10
423.466707
 20
246.154962
 30
0.0
  0
VERTEX
  5
12BE
330
12AD
100
AcDbEntity
  8
SCHRAFFUR_RAND
100
AcDbVertex
100
AcDb2dVertex
 10
424.095707
 20
245.334962
 30
0.0
  0
VERTEX
  5
12BF
330
12AD
100
AcDbEntity
  8
SCHRAFFUR_RAND
100
AcDbVertex
100
AcDb2dVertex
 10
424.915707
 20
244.705962
 30
0.0
  0
VERTEX
  5
12C0
330
12AD
100
AcDbEntity
  8
SCHRAFFUR_RAND
100
AcDbVertex
100
AcDb2dVertex
 10
425.869707
 20
244.310962
 30
0.0
  0
VERTEX
  5
12C1
330
12AD
100
AcDbEntity
  8
SCHRAFFUR_RAND
100
AcDbVertex
100
AcDb2dVertex
 10
426.894707
 20
244.175962
 30
0.0
  0
VERTEX
  5
12C2
330
12AD
100
AcDbEntity
  8
SCHRAFFUR_RAND
100
AcDbVertex
100
AcDb2dVertex
 10
427.918707
 20
244.310962
 30
0.0
  0
VERTEX
  5
12C3
330
12AD
100
AcDbEntity
  8
SCHRAFFUR_RAND
100
AcDbVertex
100
AcDb2dVertex
 10
428.873707
 20
244.705962
 30
0.0
  0
VERTEX
  5
12C4
330
12AD
100
AcDbEntity
  8
SCHRAFFUR_RAND
100
AcDbVertex
100
AcDb2dVertex
 10
429.692707
 20
245.334962
 30
0.0
  0
VERTEX
  5
12C5
330
12AD
100
AcDbEntity
  8
SCHRAFFUR_RAND
100
AcDbVertex
100
AcDb2dVertex
 10
430.321707
 20
246.154962
 30
0.0
  0
VERTEX
  5
12C6
330
12AD
100
AcDbEntity
  8
SCHRAFFUR_RAND
100
AcDbVertex
100
AcDb2dVertex
 10
430.717707
 20
247.108962
 30
0.0
  0
VERTEX
  5
12C7
330
12AD
100
AcDbEntity
  8
SCHRAFFUR_RAND
100
AcDbVertex
100
AcDb2dVertex
 10
430.834707
 20
248.133962
 30
0.0
  0
SEQEND
  5
12C8
330
12AD
100
AcDbEntity
  8
SCHRAFFUR_RAND
  0
INSERT
  5
12CF
330
1461
100
AcDbEntity
  8
8
100
AcDbBlockReference
  2
*X6
 10
6.501706999999999
 20
50.029962
 30
0.0
1001
ACAD
1000
HATCH
1002
{
1070
    19
1000
ANSI37,_I
1040
3.174999999999999
1040
3.926999999999999
1002
}
  0
POLYLINE
  5
12D0
330
1461
100
AcDbEntity
  8
SCHRAFFUR_RAND
100
AcDb2dPolyline
 66
     1
 10
0.0
 20
0.0
 30
0.0
 70
     1
  0
VERTEX
  5
12D1
330
12D0
100
AcDbEntity
  8
SCHRAFFUR_RAND
100
AcDbVertex
100
AcDb2dVertex
 10
329.056707
 20
248.132962
 30
0.0
  0
VERTEX
  5
12D2
330
12D0
100
AcDbEntity
  8
SCHRAFFUR_RAND
100
AcDbVertex
100
AcDb2dVertex
 10
329.191707
 20
247.108962
 30
0.0
  0
VERTEX
  5
12D3
330
12D0
100
AcDbEntity
  8
SCHRAFFUR_RAND
100
AcDbVertex
100
AcDb2dVertex
 10
329.586707
 20
246.153962
 30
0.0
  0
VERTEX
  5
12D4
330
12D0
100
AcDbEntity
  8
SCHRAFFUR_RAND
100
AcDbVertex
100
AcDb2dVertex
 10
330.215707
 20
245.334962
 30
0.0
  0
VERTEX
  5
12D5
330
12D0
100
AcDbEntity
  8
SCHRAFFUR_RAND
100
AcDbVertex
100
AcDb2dVertex
 10
331.035707
 20
244.705962
 30
0.0
  0
VERTEX
  5
12D6
330
12D0
100
AcDbEntity
  8
SCHRAFFUR_RAND
100
AcDbVertex
100
AcDb2dVertex
 10
331.990707
 20
244.309962
 30
0.0
  0
VERTEX
  5
12D7
330
12D0
100
AcDbEntity
  8
SCHRAFFUR_RAND
100
AcDbVertex
100
AcDb2dVertex
 10
333.014707
 20
244.174962
 30
0.0
  0
VERTEX
  5
12D8
330
12D0
100
AcDbEntity
  8
SCHRAFFUR_RAND
100
AcDbVertex
100
AcDb2dVertex
 10
334.038707
 20
244.309962
 30
0.0
  0
VERTEX
  5
12D9
330
12D0
100
AcDbEntity
  8
SCHRAFFUR_RAND
100
AcDbVertex
100
AcDb2dVertex
 10
334.993707
 20
244.705962
 30
0.0
  0
VERTEX
  5
12DA
330
12D0
100
AcDbEntity
  8
SCHRAFFUR_RAND
100
AcDbVertex
100
AcDb2dVertex
 10
335.813707
 20
245.334962
 30
0.0
  0
VERTEX
  5
12DB
330
12D0
100
AcDbEntity
  8
SCHRAFFUR_RAND
100
AcDbVertex
100
AcDb2dVertex
 10
336.442707
 20
246.153962
 30
0.0
  0
VERTEX
  5
12DC
330
12D0
100
AcDbEntity
  8
SCHRAFFUR_RAND
100
AcDbVertex
100
AcDb2dVertex
 10
336.837707
 20
247.108962
 30
0.0
  0
VERTEX
  5
12DD
330
12D0
100
AcDbEntity
  8
SCHRAFFUR_RAND
100
AcDbVertex
100
AcDb2dVertex
 10
336.954707
 20
248.132962
 30
0.0
  0
VERTEX
  5
12DE
330
12D0
100
AcDbEntity
  8
SCHRAFFUR_RAND
100
AcDbVertex
100
AcDb2dVertex
 10
336.837707
 20
249.157962
 30
0.0
  0
VERTEX
  5
12DF
330
12D0
100
AcDbEntity
  8
SCHRAFFUR_RAND
100
AcDbVertex
100
AcDb2dVertex
 10
336.442707
 20
250.111962
 30
0.0
  0
VERTEX
  5
12E0
330
12D0
100
AcDbEntity
  8
SCHRAFFUR_RAND
100
AcDbVertex
100
AcDb2dVertex
 10
335.813707
 20
250.931962
 30
0.0
  0
VERTEX
  5
12E1
330
12D0
100
AcDbEntity
  8
SCHRAFFUR_RAND
100
AcDbVertex
100
AcDb2dVertex
 10
334.993707
 20
251.560962
 30
0.0
  0
VERTEX
  5
12E2
330
12D0
100
AcDbEntity
  8
SCHRAFFUR_RAND
100
AcDbVertex
100
AcDb2dVertex
 10
334.038707
 20
251.956962
 30
0.0
  0
VERTEX
  5
12E3
330
12D0
100
AcDbEntity
  8
SCHRAFFUR_RAND
100
AcDbVertex
100
AcDb2dVertex
 10
333.014707
 20
252.090962
 30
0.0
  0
VERTEX
  5
12E4
330
12D0
100
AcDbEntity
  8
SCHRAFFUR_RAND
100
AcDbVertex
100
AcDb2dVertex
 10
332.954707
 20
252.072962
 30
0.0
  0
VERTEX
  5
12E5
330
12D0
100
AcDbEntity
  8
SCHRAFFUR_RAND
100
AcDbVertex
100
AcDb2dVertex
 10
331.990707
 20
251.956962
 30
0.0
  0
VERTEX
  5
12E6
330
12D0
100
AcDbEntity
  8
SCHRAFFUR_RAND
100
AcDbVertex
100
AcDb2dVertex
 10
331.035707
 20
251.560962
 30
0.0
  0
VERTEX
  5
12E7
330
12D0
100
AcDbEntity
  8
SCHRAFFUR_RAND
100
AcDbVertex
100
AcDb2dVertex
 10
330.215707
 20
250.931962
 30
0.0
  0
VERTEX
  5
12E8
330
12D0
100
AcDbEntity
  8
SCHRAFFUR_RAND
100
AcDbVertex
100
AcDb2dVertex
 10
329.586707
 20
250.111962
 30
0.0
  0
VERTEX
  5
12E9
330
12D0
100
AcDbEntity
  8
SCHRAFFUR_RAND
100
AcDbVertex
100
AcDb2dVertex
 10
329.191707
 20
249.157962
 30
0.0
  0
VERTEX
  5
12EA
330
12D0
100
AcDbEntity
  8
SCHRAFFUR_RAND
100
AcDbVertex
100
AcDb2dVertex
 10
329.056707
 20
248.132962
 30
0.0
  0
SEQEND
  5
12EB
330
12D0
100
AcDbEntity
  8
SCHRAFFUR_RAND
  0
INSERT
  5
12F2
330
1461
100
AcDbEntity
  8
8
100
AcDbBlockReference
  2
*X7
 10
6.501706999999999
 20
50.029962
 30
0.0
1001
ACAD
1000
HATCH
1002
{
1070
    19
1000
ANSI37,_I
1040
3.174999999999999
1040
3.926999999999999
1002
}
  0
DIMENSION
  5
12FB
330
1461
100
AcDbEntity
  8
5
100
AcDbDimension
  2
*D20
 10
564.4937070000001
 20
177.072962
 30
0.0
 11
564.4937070000001
 21
222.156962
 31
0.0
 70
   160
  1
85
 71
     5
 42
-1.0
  3
GEN-ISO
100
AcDbAlignedDimension
 13
451.835707
 23
262.072962
 33
0.0
 14
534.4937070000001
 24
177.072962
 34
0.0
 50
270.0
100
AcDbRotatedDimension
  0
DIMENSION
  5
1305
330
1461
100
AcDbEntity
  8
5
100
AcDbDimension
  2
*D19
 10
564.4937070000001
 20
345.072962
 30
0.0
 11
564.4937070000001
 21
321.596962
 31
0.0
 70
   160
  1
60
 71
     5
 42
-1.0
  3
GEN-ISO
100
AcDbAlignedDimension
 13
442.454707
 23
285.072962
 33
0.0
 14
403.954707
 24
345.072962
 34
0.0
 50
90.0
100
AcDbRotatedDimension
  0
DIMENSION
  5
131A
330
1461
100
AcDbEntity
  8
5
100
AcDbDimension
  2
*D17
 10
493.954707
 20
490.141962
 30
0.0
 11
379.953707
 21
490.141962
 31
0.0
 70
   160
  1
%%c 228
 71
     5
 42
-1.0
  3
GEN-ISO
100
AcDbAlignedDimension
 13
265.953707
 23
402.072962
 33
0.0
 14
493.954707
 24
402.072962
 34
0.0
100
AcDbRotatedDimension
  0
DIMENSION
  5
1324
330
1461
100
AcDbEntity
  8
5
100
AcDbDimension
  2
*D16
 10
661.5267069999999
 20
389.072962
 30
0.0
 11
661.5267069999999
 21
357.572962
 31
0.0
 70
   160
  1
8
 71
     5
 42
-1.0
  3
GEN-ISO
100
AcDbAlignedDimension
 13
631.5267069999999
 23
397.072962
 33
0.0
 14
594.9537069999999
 24
389.072962
 34
0.0
 50
270.0
100
AcDbRotatedDimension
  0
POLYLINE
  5
1325
330
1461
100
AcDbEntity
  8
SCHRAFFUR_RAND
100
AcDb2dPolyline
 66
     1
 10
0.0
 20
0.0
 30
0.0
 70
     1
  0
VERTEX
  5
1326
330
1325
100
AcDbEntity
  8
SCHRAFFUR_RAND
100
AcDbVertex
100
AcDb2dVertex
 10
164.954707
 20
330.072962
 30
0.0
  0
VERTEX
  5
1327
330
1325
100
AcDbEntity
  8
SCHRAFFUR_RAND
100
AcDbVertex
100
AcDb2dVertex
 10
164.954707
 20
328.572962
 30
0.0
  0
VERTEX
  5
1328
330
1325
100
AcDbEntity
  8
SCHRAFFUR_RAND
100
AcDbVertex
100
AcDb2dVertex
 10
165.358707
 20
326.496962
 30
0.0
  0
VERTEX
  5
1329
330
1325
100
AcDbEntity
  8
SCHRAFFUR_RAND
100
AcDbVertex
100
AcDb2dVertex
 10
166.878707
 20
324.976962
 30
0.0
  0
VERTEX
  5
132A
330
1325
100
AcDbEntity
  8
SCHRAFFUR_RAND
100
AcDbVertex
100
AcDb2dVertex
 10
168.954707
 20
324.572962
 30
0.0
  0
VERTEX
  5
132B
330
1325
100
AcDbEntity
  8
SCHRAFFUR_RAND
100
AcDbVertex
100
AcDb2dVertex
 10
202.516707
 20
324.572962
 30
0.0
  0
VERTEX
  5
132C
330
1325
100
AcDbEntity
  8
SCHRAFFUR_RAND
100
AcDbVertex
100
AcDb2dVertex
 10
265.475707
 20
307.702962
 30
0.0
  0
VERTEX
  5
132D
330
1325
100
AcDbEntity
  8
SCHRAFFUR_RAND
100
AcDbVertex
100
AcDb2dVertex
 10
268.416707
 20
306.558962
 30
0.0
  0
VERTEX
  5
132E
330
1325
100
AcDbEntity
  8
SCHRAFFUR_RAND
100
AcDbVertex
100
AcDb2dVertex
 10
270.777707
 20
304.432962
 30
0.0
  0
VERTEX
  5
132F
330
1325
100
AcDbEntity
  8
SCHRAFFUR_RAND
100
AcDbVertex
100
AcDb2dVertex
 10
272.365707
 20
301.682962
 30
0.0
  0
VERTEX
  5
1330
330
1325
100
AcDbEntity
  8
SCHRAFFUR_RAND
100
AcDbVertex
100
AcDb2dVertex
 10
272.873707
 20
298.567962
 30
0.0
  0
VERTEX
  5
1331
330
1325
100
AcDbEntity
  8
SCHRAFFUR_RAND
100
AcDbVertex
100
AcDb2dVertex
 10
273.047707
 20
295.240962
 30
0.0
  0
VERTEX
  5
1332
330
1325
100
AcDbEntity
  8
SCHRAFFUR_RAND
100
AcDbVertex
100
AcDb2dVertex
 10
274.117707
 20
287.710962
 30
0.0
  0
VERTEX
  5
1333
330
1325
100
AcDbEntity
  8
SCHRAFFUR_RAND
100
AcDbVertex
100
AcDb2dVertex
 10
276.931707
 20
280.627962
 30
0.0
  0
VERTEX
  5
1334
330
1325
100
AcDbEntity
  8
SCHRAFFUR_RAND
100
AcDbVertex
100
AcDb2dVertex
 10
281.205707
 20
274.318962
 30
0.0
  0
VERTEX
  5
1335
330
1325
100
AcDbEntity
  8
SCHRAFFUR_RAND
100
AcDbVertex
100
AcDb2dVertex
 10
286.739707
 20
269.078962
 30
0.0
  0
VERTEX
  5
1336
330
1325
100
AcDbEntity
  8
SCHRAFFUR_RAND
100
AcDbVertex
100
AcDb2dVertex
 10
293.272707
 20
265.154962
 30
0.0
  0
VERTEX
  5
1337
330
1325
100
AcDbEntity
  8
SCHRAFFUR_RAND
100
AcDbVertex
100
AcDb2dVertex
 10
300.497707
 20
262.7309620000001
 30
0.0
  0
VERTEX
  5
1338
330
1325
100
AcDbEntity
  8
SCHRAFFUR_RAND
100
AcDbVertex
100
AcDb2dVertex
 10
308.075707
 20
262.072962
 30
0.0
  0
VERTEX
  5
1339
330
1325
100
AcDbEntity
  8
SCHRAFFUR_RAND
100
AcDbVertex
100
AcDb2dVertex
 10
313.0207069999999
 20
261.460962
 30
0.0
  0
VERTEX
  5
133A
330
1325
100
AcDbEntity
  8
SCHRAFFUR_RAND
100
AcDbVertex
100
AcDb2dVertex
 10
317.494707
 20
259.218962
 30
0.0
  0
VERTEX
  5
133B
330
1325
100
AcDbEntity
  8
SCHRAFFUR_RAND
100
AcDbVertex
100
AcDb2dVertex
 10
321.068707
 20
255.714962
 30
0.0
  0
VERTEX
  5
133C
330
1325
100
AcDbEntity
  8
SCHRAFFUR_RAND
100
AcDbVertex
100
AcDb2dVertex
 10
323.397707
 20
251.284962
 30
0.0
  0
VERTEX
  5
133D
330
1325
100
AcDbEntity
  8
SCHRAFFUR_RAND
100
AcDbVertex
100
AcDb2dVertex
 10
324.104707
 20
246.352962
 30
0.0
  0
VERTEX
  5
133E
330
1325
100
AcDbEntity
  8
SCHRAFFUR_RAND
100
AcDbVertex
100
AcDb2dVertex
 10
325.228707
 20
177.072962
 30
0.0
  0
VERTEX
  5
133F
330
1325
100
AcDbEntity
  8
SCHRAFFUR_RAND
100
AcDbVertex
100
AcDb2dVertex
 10
330.953707
 20
177.085962
 30
0.0
  0
VERTEX
  5
1340
330
1325
100
AcDbEntity
  8
SCHRAFFUR_RAND
100
AcDbVertex
100
AcDb2dVertex
 10
330.6047069999999
 20
202.072962
 30
0.0
  0
VERTEX
  5
1341
330
1325
100
AcDbEntity
  8
SCHRAFFUR_RAND
100
AcDbVertex
100
AcDb2dVertex
 10
329.790707
 20
207.072962
 30
0.0
  0
VERTEX
  5
1342
330
1325
100
AcDbEntity
  8
SCHRAFFUR_RAND
100
AcDbVertex
100
AcDb2dVertex
 10
329.168707
 20
246.733962
 30
0.0
  0
VERTEX
  5
1343
330
1325
100
AcDbEntity
  8
SCHRAFFUR_RAND
100
AcDbVertex
100
AcDb2dVertex
 10
329.168707
 20
249.532962
 30
0.0
  0
VERTEX
  5
1344
330
1325
100
AcDbEntity
  8
SCHRAFFUR_RAND
100
AcDbVertex
100
AcDb2dVertex
 10
328.883707
 20
259.072962
 30
0.0
  0
VERTEX
  5
1345
330
1325
100
AcDbEntity
  8
SCHRAFFUR_RAND
100
AcDbVertex
100
AcDb2dVertex
 10
327.792707
 20
262.072962
 30
0.0
  0
VERTEX
  5
1346
330
1325
100
AcDbEntity
  8
SCHRAFFUR_RAND
100
AcDbVertex
100
AcDb2dVertex
 10
319.7587069999999
 20
262.072962
 30
0.0
  0
VERTEX
  5
1347
330
1325
100
AcDbEntity
  8
SCHRAFFUR_RAND
100
AcDbVertex
100
AcDb2dVertex
 10
318.794707
 20
262.072962
 30
0.0
  0
VERTEX
  5
1348
330
1325
100
AcDbEntity
  8
SCHRAFFUR_RAND
100
AcDbVertex
100
AcDb2dVertex
 10
317.454707
 20
267.072962
 30
0.0
  0
VERTEX
  5
1349
330
1325
100
AcDbEntity
  8
SCHRAFFUR_RAND
100
AcDbVertex
100
AcDb2dVertex
 10
308.000707
 20
267.072962
 30
0.0
  0
VERTEX
  5
134A
330
1325
100
AcDbEntity
  8
SCHRAFFUR_RAND
100
AcDbVertex
100
AcDb2dVertex
 10
300.450707
 20
267.880962
 30
0.0
  0
VERTEX
  5
134B
330
1325
100
AcDbEntity
  8
SCHRAFFUR_RAND
100
AcDbVertex
100
AcDb2dVertex
 10
293.381707
 20
270.700962
 30
0.0
  0
VERTEX
  5
134C
330
1325
100
AcDbEntity
  8
SCHRAFFUR_RAND
100
AcDbVertex
100
AcDb2dVertex
 10
287.244707
 20
275.200962
 30
0.0
  0
VERTEX
  5
134D
330
1325
100
AcDbEntity
  8
SCHRAFFUR_RAND
100
AcDbVertex
100
AcDb2dVertex
 10
282.429707
 20
281.094962
 30
0.0
  0
VERTEX
  5
134E
330
1325
100
AcDbEntity
  8
SCHRAFFUR_RAND
100
AcDbVertex
100
AcDb2dVertex
 10
279.243707
 20
288.005962
 30
0.0
  0
VERTEX
  5
134F
330
1325
100
AcDbEntity
  8
SCHRAFFUR_RAND
100
AcDbVertex
100
AcDb2dVertex
 10
278.040707
 20
295.502962
 30
0.0
  0
VERTEX
  5
1350
330
1325
100
AcDbEntity
  8
SCHRAFFUR_RAND
100
AcDbVertex
100
AcDb2dVertex
 10
277.224707
 20
311.072962
 30
0.0
  0
VERTEX
  5
1351
330
1325
100
AcDbEntity
  8
SCHRAFFUR_RAND
100
AcDbVertex
100
AcDb2dVertex
 10
272.217707
 20
311.072962
 30
0.0
  0
VERTEX
  5
1352
330
1325
100
AcDbEntity
  8
SCHRAFFUR_RAND
100
AcDbVertex
100
AcDb2dVertex
 10
201.919707
 20
329.909962
 30
0.0
  0
VERTEX
  5
1353
330
1325
100
AcDbEntity
  8
SCHRAFFUR_RAND
100
AcDbVertex
100
AcDb2dVertex
 10
200.285707
 20
330.591962
 30
0.0
  0
VERTEX
  5
1354
330
1325
100
AcDbEntity
  8
SCHRAFFUR_RAND
100
AcDbVertex
100
AcDb2dVertex
 10
199.190707
 20
332.017962
 30
0.0
  0
VERTEX
  5
1355
330
1325
100
AcDbEntity
  8
SCHRAFFUR_RAND
100
AcDbVertex
100
AcDb2dVertex
 10
198.954707
 20
333.772962
 30
0.0
  0
VERTEX
  5
1356
330
1325
100
AcDbEntity
  8
SCHRAFFUR_RAND
100
AcDbVertex
100
AcDb2dVertex
 10
198.954707
 20
334.572962
 30
0.0
  0
VERTEX
  5
1357
330
1325
100
AcDbEntity
  8
SCHRAFFUR_RAND
100
AcDbVertex
100
AcDb2dVertex
 10
193.954707
 20
334.572962
 30
0.0
  0
VERTEX
  5
1358
330
1325
100
AcDbEntity
  8
SCHRAFFUR_RAND
100
AcDbVertex
100
AcDb2dVertex
 10
193.954707
 20
334.072962
 30
0.0
  0
VERTEX
  5
1359
330
1325
100
AcDbEntity
  8
SCHRAFFUR_RAND
100
AcDbVertex
100
AcDb2dVertex
 10
193.550707
 20
331.996962
 30
0.0
  0
VERTEX
  5
135A
330
1325
100
AcDbEntity
  8
SCHRAFFUR_RAND
100
AcDbVertex
100
AcDb2dVertex
 10
192.030707
 20
330.476962
 30
0.0
  0
VERTEX
  5
135B
330
1325
100
AcDbEntity
  8
SCHRAFFUR_RAND
100
AcDbVertex
100
AcDb2dVertex
 10
189.954707
 20
330.072962
 30
0.0
  0
VERTEX
  5
135C
330
1325
100
AcDbEntity
  8
SCHRAFFUR_RAND
100
AcDbVertex
100
AcDb2dVertex
 10
164.954707
 20
330.072962
 30
0.0
  0
SEQEND
  5
135D
330
1325
100
AcDbEntity
  8
SCHRAFFUR_RAND
  0
INSERT
  5
1383
330
1461
100
AcDbEntity
  8
8
100
AcDbBlockReference
  2
*X8
 10
6.501706999999999
 20
50.029962
 30
0.0
1001
ACAD
1000
HATCH
1002
{
1070
    19
1000
ANSI31,_I
1040
6.349999999999999
1040
0.7850000000000001
1002
}
  0
POLYLINE
  5
1384
330
1461
100
AcDbEntity
  8
SCHRAFFUR_RAND
100
AcDb2dPolyline
 66
     1
 10
0.0
 20
0.0
 30
0.0
 70
     1
  0
VERTEX
  5
1385
330
1384
100
AcDbEntity
  8
SCHRAFFUR_RAND
100
AcDbVertex
100
AcDb2dVertex
 10
265.691707
 20
397.072962
 30
0.0
  0
VERTEX
  5
1386
330
1384
100
AcDbEntity
  8
SCHRAFFUR_RAND
100
AcDbVertex
100
AcDb2dVertex
 10
169.170707
 20
397.072962
 30
0.0
  0
VERTEX
  5
1387
330
1384
100
AcDbEntity
  8
SCHRAFFUR_RAND
100
AcDbVertex
100
AcDb2dVertex
 10
167.157707
 20
396.704962
 30
0.0
  0
VERTEX
  5
1388
330
1384
100
AcDbEntity
  8
SCHRAFFUR_RAND
100
AcDbVertex
100
AcDb2dVertex
 10
165.649707
 20
395.273962
 30
0.0
  0
VERTEX
  5
1389
330
1384
100
AcDbEntity
  8
SCHRAFFUR_RAND
100
AcDbVertex
100
AcDb2dVertex
 10
165.174707
 20
393.282962
 30
0.0
  0
VERTEX
  5
138A
330
1384
100
AcDbEntity
  8
SCHRAFFUR_RAND
100
AcDbVertex
100
AcDb2dVertex
 10
164.953707
 20
389.072962
 30
0.0
  0
VERTEX
  5
138B
330
1384
100
AcDbEntity
  8
SCHRAFFUR_RAND
100
AcDbVertex
100
AcDb2dVertex
 10
189.953707
 20
389.072962
 30
0.0
  0
VERTEX
  5
138C
330
1384
100
AcDbEntity
  8
SCHRAFFUR_RAND
100
AcDbVertex
100
AcDb2dVertex
 10
192.030707
 20
388.668962
 30
0.0
  0
VERTEX
  5
138D
330
1384
100
AcDbEntity
  8
SCHRAFFUR_RAND
100
AcDbVertex
100
AcDb2dVertex
 10
193.549707
 20
387.149962
 30
0.0
  0
VERTEX
  5
138E
330
1384
100
AcDbEntity
  8
SCHRAFFUR_RAND
100
AcDbVertex
100
AcDb2dVertex
 10
193.953707
 20
385.072962
 30
0.0
  0
VERTEX
  5
138F
330
1384
100
AcDbEntity
  8
SCHRAFFUR_RAND
100
AcDbVertex
100
AcDb2dVertex
 10
193.954707
 20
384.572962
 30
0.0
  0
VERTEX
  5
1390
330
1384
100
AcDbEntity
  8
SCHRAFFUR_RAND
100
AcDbVertex
100
AcDb2dVertex
 10
198.953707
 20
384.572962
 30
0.0
  0
VERTEX
  5
1391
330
1384
100
AcDbEntity
  8
SCHRAFFUR_RAND
100
AcDbVertex
100
AcDb2dVertex
 10
198.953707
 20
385.072962
 30
0.0
  0
VERTEX
  5
1392
330
1384
100
AcDbEntity
  8
SCHRAFFUR_RAND
100
AcDbVertex
100
AcDb2dVertex
 10
199.357707
 20
387.148962
 30
0.0
  0
VERTEX
  5
1393
330
1384
100
AcDbEntity
  8
SCHRAFFUR_RAND
100
AcDbVertex
100
AcDb2dVertex
 10
200.877707
 20
388.668962
 30
0.0
  0
VERTEX
  5
1394
330
1384
100
AcDbEntity
  8
SCHRAFFUR_RAND
100
AcDbVertex
100
AcDb2dVertex
 10
202.953707
 20
389.072962
 30
0.0
  0
VERTEX
  5
1395
330
1384
100
AcDbEntity
  8
SCHRAFFUR_RAND
100
AcDbVertex
100
AcDb2dVertex
 10
258.639707
 20
389.072962
 30
0.0
  0
VERTEX
  5
1396
330
1384
100
AcDbEntity
  8
SCHRAFFUR_RAND
100
AcDbVertex
100
AcDb2dVertex
 10
262.402707
 20
388.502962
 30
0.0
  0
VERTEX
  5
1397
330
1384
100
AcDbEntity
  8
SCHRAFFUR_RAND
100
AcDbVertex
100
AcDb2dVertex
 10
265.628707
 20
386.437962
 30
0.0
  0
VERTEX
  5
1398
330
1384
100
AcDbEntity
  8
SCHRAFFUR_RAND
100
AcDbVertex
100
AcDb2dVertex
 10
267.8597069999999
 20
383.323962
 30
0.0
  0
VERTEX
  5
1399
330
1384
100
AcDbEntity
  8
SCHRAFFUR_RAND
100
AcDbVertex
100
AcDb2dVertex
 10
268.626707
 20
379.595962
 30
0.0
  0
VERTEX
  5
139A
330
1384
100
AcDbEntity
  8
SCHRAFFUR_RAND
100
AcDbVertex
100
AcDb2dVertex
 10
270.121707
 20
351.072962
 30
0.0
  0
VERTEX
  5
139B
330
1384
100
AcDbEntity
  8
SCHRAFFUR_RAND
100
AcDbVertex
100
AcDb2dVertex
 10
275.128707
 20
351.072962
 30
0.0
  0
VERTEX
  5
139C
330
1384
100
AcDbEntity
  8
SCHRAFFUR_RAND
100
AcDbVertex
100
AcDb2dVertex
 10
272.717707
 20
397.072962
 30
0.0
  0
VERTEX
  5
139D
330
1384
100
AcDbEntity
  8
SCHRAFFUR_RAND
100
AcDbVertex
100
AcDb2dVertex
 10
265.691707
 20
397.072962
 30
0.0
  0
SEQEND
  5
139E
330
1384
100
AcDbEntity
  8
SCHRAFFUR_RAND
  0
INSERT
  5
13B2
330
1461
100
AcDbEntity
  8
8
100
AcDbBlockReference
  2
*X9
 10
6.501706999999999
 20
50.029962
 30
0.0
1001
ACAD
1000
HATCH
1002
{
1070
    19
1000
ANSI31,_I
1040
6.349999999999999
1040
0.7850000000000001
1002
}
  0
POLYLINE
  5
13B3
330
1461
100
AcDbEntity
  8
SCHRAFFUR_RAND
100
AcDb2dPolyline
 66
     1
 10
0.0
 20
0.0
 30
0.0
 70
     1
  0
VERTEX
  5
13B4
330
13B3
100
AcDbEntity
  8
SCHRAFFUR_RAND
100
AcDbVertex
100
AcDb2dVertex
 10
487.192707
 20
397.072962
 30
0.0
  0
VERTEX
  5
13B5
330
13B3
100
AcDbEntity
  8
SCHRAFFUR_RAND
100
AcDbVertex
100
AcDb2dVertex
 10
481.8697069999999
 20
295.502962
 30
0.0
  0
VERTEX
  5
13B6
330
13B3
100
AcDbEntity
  8
SCHRAFFUR_RAND
100
AcDbVertex
100
AcDb2dVertex
 10
480.667707
 20
288.005962
 30
0.0
  0
VERTEX
  5
13B7
330
13B3
100
AcDbEntity
  8
SCHRAFFUR_RAND
100
AcDbVertex
100
AcDb2dVertex
 10
477.480707
 20
281.094962
 30
0.0
  0
VERTEX
  5
13B8
330
13B3
100
AcDbEntity
  8
SCHRAFFUR_RAND
100
AcDbVertex
100
AcDb2dVertex
 10
472.665707
 20
275.200962
 30
0.0
  0
VERTEX
  5
13B9
330
13B3
100
AcDbEntity
  8
SCHRAFFUR_RAND
100
AcDbVertex
100
AcDb2dVertex
 10
466.528707
 20
270.700962
 30
0.0
  0
VERTEX
  5
13BA
330
13B3
100
AcDbEntity
  8
SCHRAFFUR_RAND
100
AcDbVertex
100
AcDb2dVertex
 10
459.459707
 20
267.880962
 30
0.0
  0
VERTEX
  5
13BB
330
13B3
100
AcDbEntity
  8
SCHRAFFUR_RAND
100
AcDbVertex
100
AcDb2dVertex
 10
451.910707
 20
267.072962
 30
0.0
  0
VERTEX
  5
13BC
330
13B3
100
AcDbEntity
  8
SCHRAFFUR_RAND
100
AcDbVertex
100
AcDb2dVertex
 10
442.454707
 20
267.072962
 30
0.0
  0
VERTEX
  5
13BD
330
13B3
100
AcDbEntity
  8
SCHRAFFUR_RAND
100
AcDbVertex
100
AcDb2dVertex
 10
441.114707
 20
262.072962
 30
0.0
  0
VERTEX
  5
13BE
330
13B3
100
AcDbEntity
  8
SCHRAFFUR_RAND
100
AcDbVertex
100
AcDb2dVertex
 10
440.150707
 20
262.072962
 30
0.0
  0
VERTEX
  5
13BF
330
13B3
100
AcDbEntity
  8
SCHRAFFUR_RAND
100
AcDbVertex
100
AcDb2dVertex
 10
432.116707
 20
262.072962
 30
0.0
  0
VERTEX
  5
13C0
330
13B3
100
AcDbEntity
  8
SCHRAFFUR_RAND
100
AcDbVertex
100
AcDb2dVertex
 10
431.025707
 20
259.072962
 30
0.0
  0
VERTEX
  5
13C1
330
13B3
100
AcDbEntity
  8
SCHRAFFUR_RAND
100
AcDbVertex
100
AcDb2dVertex
 10
430.834707
 20
248.133962
 30
0.0
  0
VERTEX
  5
13C2
330
13B3
100
AcDbEntity
  8
SCHRAFFUR_RAND
100
AcDbVertex
100
AcDb2dVertex
 10
430.117707
 20
207.072962
 30
0.0
  0
VERTEX
  5
13C3
330
13B3
100
AcDbEntity
  8
SCHRAFFUR_RAND
100
AcDbVertex
100
AcDb2dVertex
 10
429.304707
 20
202.072962
 30
0.0
  0
VERTEX
  5
13C4
330
13B3
100
AcDbEntity
  8
SCHRAFFUR_RAND
100
AcDbVertex
100
AcDb2dVertex
 10
428.9557069999999
 20
177.085962
 30
0.0
  0
VERTEX
  5
13C5
330
13B3
100
AcDbEntity
  8
SCHRAFFUR_RAND
100
AcDbVertex
100
AcDb2dVertex
 10
434.682707
 20
177.072962
 30
0.0
  0
VERTEX
  5
13C6
330
13B3
100
AcDbEntity
  8
SCHRAFFUR_RAND
100
AcDbVertex
100
AcDb2dVertex
 10
435.804707
 20
246.351962
 30
0.0
  0
VERTEX
  5
13C7
330
13B3
100
AcDbEntity
  8
SCHRAFFUR_RAND
100
AcDbVertex
100
AcDb2dVertex
 10
436.5117070000001
 20
251.284962
 30
0.0
  0
VERTEX
  5
13C8
330
13B3
100
AcDbEntity
  8
SCHRAFFUR_RAND
100
AcDbVertex
100
AcDb2dVertex
 10
438.840707
 20
255.714962
 30
0.0
  0
VERTEX
  5
13C9
330
13B3
100
AcDbEntity
  8
SCHRAFFUR_RAND
100
AcDbVertex
100
AcDb2dVertex
 10
442.414707
 20
259.218962
 30
0.0
  0
VERTEX
  5
13CA
330
13B3
100
AcDbEntity
  8
SCHRAFFUR_RAND
100
AcDbVertex
100
AcDb2dVertex
 10
446.888707
 20
261.460962
 30
0.0
  0
VERTEX
  5
13CB
330
13B3
100
AcDbEntity
  8
SCHRAFFUR_RAND
100
AcDbVertex
100
AcDb2dVertex
 10
451.835707
 20
262.072962
 30
0.0
  0
VERTEX
  5
13CC
330
13B3
100
AcDbEntity
  8
SCHRAFFUR_RAND
100
AcDbVertex
100
AcDb2dVertex
 10
459.4127069999999
 20
262.7309620000001
 30
0.0
  0
VERTEX
  5
13CD
330
13B3
100
AcDbEntity
  8
SCHRAFFUR_RAND
100
AcDbVertex
100
AcDb2dVertex
 10
466.6387069999999
 20
265.154962
 30
0.0
  0
VERTEX
  5
13CE
330
13B3
100
AcDbEntity
  8
SCHRAFFUR_RAND
100
AcDbVertex
100
AcDb2dVertex
 10
473.170707
 20
269.078962
 30
0.0
  0
VERTEX
  5
13CF
330
13B3
100
AcDbEntity
  8
SCHRAFFUR_RAND
100
AcDbVertex
100
AcDb2dVertex
 10
478.704707
 20
274.318962
 30
0.0
  0
VERTEX
  5
13D0
330
13B3
100
AcDbEntity
  8
SCHRAFFUR_RAND
100
AcDbVertex
100
AcDb2dVertex
 10
482.979707
 20
280.627962
 30
0.0
  0
VERTEX
  5
13D1
330
13B3
100
AcDbEntity
  8
SCHRAFFUR_RAND
100
AcDbVertex
100
AcDb2dVertex
 10
485.793707
 20
287.710962
 30
0.0
  0
VERTEX
  5
13D2
330
13B3
100
AcDbEntity
  8
SCHRAFFUR_RAND
100
AcDbVertex
100
AcDb2dVertex
 10
486.862707
 20
295.240962
 30
0.0
  0
VERTEX
  5
13D3
330
13B3
100
AcDbEntity
  8
SCHRAFFUR_RAND
100
AcDbVertex
100
AcDb2dVertex
 10
491.2837070000001
 20
379.596962
 30
0.0
  0
VERTEX
  5
13D4
330
13B3
100
AcDbEntity
  8
SCHRAFFUR_RAND
100
AcDbVertex
100
AcDb2dVertex
 10
492.049707
 20
383.323962
 30
0.0
  0
VERTEX
  5
13D5
330
13B3
100
AcDbEntity
  8
SCHRAFFUR_RAND
100
AcDbVertex
100
AcDb2dVertex
 10
494.2807069999999
 20
386.437962
 30
0.0
  0
VERTEX
  5
13D6
330
13B3
100
AcDbEntity
  8
SCHRAFFUR_RAND
100
AcDbVertex
100
AcDb2dVertex
 10
495.926707
 20
387.526962
 30
0.0
  0
VERTEX
  5
13D7
330
13B3
100
AcDbEntity
  8
SCHRAFFUR_RAND
100
AcDbVertex
100
AcDb2dVertex
 10
497.507707
 20
388.502962
 30
0.0
  0
VERTEX
  5
13D8
330
13B3
100
AcDbEntity
  8
SCHRAFFUR_RAND
100
AcDbVertex
100
AcDb2dVertex
 10
500.920707
 20
389.060962
 30
0.0
  0
VERTEX
  5
13D9
330
13B3
100
AcDbEntity
  8
SCHRAFFUR_RAND
100
AcDbVertex
100
AcDb2dVertex
 10
501.269707
 20
389.072962
 30
0.0
  0
VERTEX
  5
13DA
330
13B3
100
AcDbEntity
  8
SCHRAFFUR_RAND
100
AcDbVertex
100
AcDb2dVertex
 10
520.995707
 20
389.493962
 30
0.0
  0
VERTEX
  5
13DB
330
13B3
100
AcDbEntity
  8
SCHRAFFUR_RAND
100
AcDbVertex
100
AcDb2dVertex
 10
522.805707
 20
389.8249620000001
 30
0.0
  0
VERTEX
  5
13DC
330
13B3
100
AcDbEntity
  8
SCHRAFFUR_RAND
100
AcDbVertex
100
AcDb2dVertex
 10
556.784707
 20
391.0119620000001
 30
0.0
  0
VERTEX
  5
13DD
330
13B3
100
AcDbEntity
  8
SCHRAFFUR_RAND
100
AcDbVertex
100
AcDb2dVertex
 10
557.593707
 20
390.870962
 30
0.0
  0
VERTEX
  5
13DE
330
13B3
100
AcDbEntity
  8
SCHRAFFUR_RAND
100
AcDbVertex
100
AcDb2dVertex
 10
558.2787070000001
 20
390.416962
 30
0.0
  0
VERTEX
  5
13DF
330
13B3
100
AcDbEntity
  8
SCHRAFFUR_RAND
100
AcDbVertex
100
AcDb2dVertex
 10
558.724707
 20
389.797962
 30
0.0
  0
VERTEX
  5
13E0
330
13B3
100
AcDbEntity
  8
SCHRAFFUR_RAND
100
AcDbVertex
100
AcDb2dVertex
 10
558.963707
 20
389.072962
 30
0.0
  0
VERTEX
  5
13E1
330
13B3
100
AcDbEntity
  8
SCHRAFFUR_RAND
100
AcDbVertex
100
AcDb2dVertex
 10
594.9537069999999
 20
389.072962
 30
0.0
  0
VERTEX
  5
13E2
330
13B3
100
AcDbEntity
  8
SCHRAFFUR_RAND
100
AcDbVertex
100
AcDb2dVertex
 10
594.7337069999999
 20
393.282962
 30
0.0
  0
VERTEX
  5
13E3
330
13B3
100
AcDbEntity
  8
SCHRAFFUR_RAND
100
AcDbVertex
100
AcDb2dVertex
 10
594.259707
 20
395.273962
 30
0.0
  0
VERTEX
  5
13E4
330
13B3
100
AcDbEntity
  8
SCHRAFFUR_RAND
100
AcDbVertex
100
AcDb2dVertex
 10
592.751707
 20
396.704962
 30
0.0
  0
VERTEX
  5
13E5
330
13B3
100
AcDbEntity
  8
SCHRAFFUR_RAND
100
AcDbVertex
100
AcDb2dVertex
 10
590.7387069999999
 20
397.072962
 30
0.0
  0
VERTEX
  5
13E6
330
13B3
100
AcDbEntity
  8
SCHRAFFUR_RAND
100
AcDbVertex
100
AcDb2dVertex
 10
494.216707
 20
397.072962
 30
0.0
  0
VERTEX
  5
13E7
330
13B3
100
AcDbEntity
  8
SCHRAFFUR_RAND
100
AcDbVertex
100
AcDb2dVertex
 10
487.192707
 20
397.072962
 30
0.0
  0
SEQEND
  5
13E8
330
13B3
100
AcDbEntity
  8
SCHRAFFUR_RAND
  0
INSERT
  5
140F
330
1461
100
AcDbEntity
  8
8
100
AcDbBlockReference
  2
*X10
 10
6.501706999999999
 20
50.029962
 30
0.0
1001
ACAD
1000
HATCH
1002
{
1070
    19
1000
ANSI31,_I
1040
6.349999999999999
1040
0.7850000000000001
1002
}
  0
DIMENSION
  5
1419
330
1461
100
AcDbEntity
  8
5
100
AcDbDimension
  2
*D15
 10
254.808707
 20
397.072962
 30
0.0
 11
254.808707
 21
429.0789619999999
 31
0.0
 70
   160
  1
38
 71
     5
 42
-1.0
  3
GEN-ISO
100
AcDbAlignedDimension
 13
164.954707
 23
359.572962
 33
0.0
 14
224.808707
 24
397.072962
 34
0.0
 50
90.0
100
AcDbRotatedDimension
  0
DIMENSION
  5
1424
330
1461
100
AcDbEntity
  8
5
100
AcDbDimension
  2
*D14
 10
81.20770699999999
 20
330.072962
 30
0.0
 11
81.20770699999999
 21
359.572962
 31
0.0
 70
   160
  1
%%c 59
 71
     5
 42
-1.0
  3
GEN-ISO
100
AcDbAlignedDimension
 13
164.955707
 23
389.072962
 33
0.0
 14
164.954707
 24
330.072962
 34
0.0
 50
270.0
100
AcDbRotatedDimension
  0
INSERT
  5
1511
330
1461
100
AcDbEntity
  8
0
100
AcDbBlockReference
  2
KATALOG_LEER
 10
251.839706
 20
11.304483
 30
0.0
 41
5.0
 42
5.0
 43
5.0
1001
GENIUS_GENOREF_13
1005
1512
  0
POINT
  5
1512
330
1461
100
AcDbEntity
  8
0
 60
     1
100
AcDbPoint
 10
0.0
 20
0.0
 30
0.0
1001
GENIUS_GENOBJ-N-TIT_13
1002
{
1000
OWNER
1000
GEN
1002
}
1001
GENIUS_GENOENT_13
1002
{
1000
MYREF
1005
1512
1002
}
1002
{
1000
GRP
1005
0
1002
}
1001
GENIUS_GENOLIS_13
1002
{
1000
ENT
1005
1511
1002
}
1001
GENIUS_GENTITLE_13
1002
{
1000
SCALE
1000
1:5
1002
}
1002
{
1000
BORDER
1000
KATALOG
1002
}
1002
{
1000
TITLE
1000
KATALOG_LEER
1002
}
1002
{
1000
UNCHG
1002
{
1000
GEN-TITLE-SCA
1000
GEN-TITLE-SIZ
1002
}
1002
}
1002
{
1000
HRA
1005
150A
1002
}
1002
{
1000
HTIT
1005
1511
1002
}
1002
{
1000
GENIUSID
1005
1512
1002
}
1001
GENIUS_GENODEF_13
1002
{
1000
HIER
1070
     1
1002
}
1002
{
1000
MANEDIT
1070
     1
1002
}
1002
{
1000
NOSEL
1070
     0
1002
}
1002
{
1000
BEHIND
1070
     0
1002
}
1002
{
1000
REACTOR
1002
}
  0
LINE
  5
1697
330
1461
100
AcDbEntity
  8
5
100
AcDbLine
 10
388.280803
 20
419.8644059999999
 30
0.0
 11
436.644275
 21
476.3536379999999
 31
0.0
  0
LINE
  5
1698
330
1461
100
AcDbEntity
  8
5
100
AcDbLine
 10
519.6745329999999
 20
579.171595
 30
0.0
 11
531.7649119999999
 21
579.171595
 31
0.0
  0
LINE
  5
1699
330
1461
100
AcDbEntity
  8
5
100
AcDbLine
 10
516.82303
 20
583.7254780000001
 30
0.0
 11
534.616415
 21
583.7254780000001
 31
0.0
  0
LINE
  5
169A
330
1461
100
AcDbEntity
  8
5
100
AcDbLine
 10
522.4119759999999
 20
574.799865
 30
0.0
 11
529.027468
 21
574.799865
 31
0.0
  0
LINE
  5
169B
330
1461
100
AcDbEntity
  8
5
100
AcDbLine
 10
525.7197219999999
 20
583.7254780000001
 30
0.0
 11
525.7197219999999
 21
592.286784
 31
0.0
  0
LINE
  5
169C
330
1461
100
AcDbEntity
  8
5
100
AcDbLine
 10
496.184736
 20
545.8977519999999
 30
0.0
 11
513.097782
 21
565.6524329999999
 31
0.0
  0
LINE
  5
169D
330
1461
100
AcDbEntity
  8
5
100
AcDbLine
 10
457.5138289999999
 20
500.7295769999999
 30
0.0
 11
477.492142
 21
524.0645329999999
 31
0.0
  0
INSERT
  5
17ED
330
1461
100
AcDbEntity
  8
8
100
AcDbBlockReference
  2
*X0
 10
164.954707
 20
359.572962
 30
0.0
1001
ACAD
1000
HATCH
1002
{
1070
    19
1000
ANSI37,_I
1040
3.174999999999999
1040
3.926999999999999
1002
}
  0
POLYLINE
  5
17EE
330
1461
100
AcDbEntity
  8
SCHRAFFUR_RAND
100
AcDb2dPolyline
 66
     1
 10
0.0
 20
0.0
 30
0.0
 70
     1
  0
VERTEX
  5
17EF
330
17EE
100
AcDbEntity
  8
SCHRAFFUR_RAND
100
AcDbVertex
100
AcDb2dVertex
 10
164.954707
 20
328.572962
 30
0.0
  0
VERTEX
  5
17F0
330
17EE
100
AcDbEntity
  8
SCHRAFFUR_RAND
100
AcDbVertex
100
AcDb2dVertex
 10
164.954707
 20
330.072962
 30
0.0
  0
VERTEX
  5
17F1
330
17EE
100
AcDbEntity
  8
SCHRAFFUR_RAND
100
AcDbVertex
100
AcDb2dVertex
 10
182.999707
 20
330.072962
 30
0.0
  0
VERTEX
  5
17F2
330
17EE
100
AcDbEntity
  8
SCHRAFFUR_RAND
100
AcDbVertex
100
AcDb2dVertex
 10
183.954707
 20
340.572962
 30
0.0
  0
VERTEX
  5
17F3
330
17EE
100
AcDbEntity
  8
SCHRAFFUR_RAND
100
AcDbVertex
100
AcDb2dVertex
 10
178.954707
 20
332.072962
 30
0.0
  0
VERTEX
  5
17F4
330
17EE
100
AcDbEntity
  8
SCHRAFFUR_RAND
100
AcDbVertex
100
AcDb2dVertex
 10
168.954707
 20
332.072962
 30
0.0
  0
VERTEX
  5
17F5
330
17EE
100
AcDbEntity
  8
SCHRAFFUR_RAND
100
AcDbVertex
100
AcDb2dVertex
 10
171.954707
 20
337.572962
 30
0.0
  0
VERTEX
  5
17F6
330
17EE
100
AcDbEntity
  8
SCHRAFFUR_RAND
100
AcDbVertex
100
AcDb2dVertex
 10
170.454707
 20
337.572962
 30
0.0
  0
VERTEX
  5
17F7
330
17EE
100
AcDbEntity
  8
SCHRAFFUR_RAND
100
AcDbVertex
100
AcDb2dVertex
 10
164.954707
 20
332.072962
 30
0.0
  0
VERTEX
  5
17F8
330
17EE
100
AcDbEntity
  8
SCHRAFFUR_RAND
100
AcDbVertex
100
AcDb2dVertex
 10
160.954707
 20
332.072962
 30
0.0
  0
VERTEX
  5
17F9
330
17EE
100
AcDbEntity
  8
SCHRAFFUR_RAND
100
AcDbVertex
100
AcDb2dVertex
 10
160.954707
 20
326.572962
 30
0.0
  0
VERTEX
  5
17FA
330
17EE
100
AcDbEntity
  8
SCHRAFFUR_RAND
100
AcDbVertex
100
AcDb2dVertex
 10
164.954707
 20
326.572962
 30
0.0
  0
VERTEX
  5
17FB
330
17EE
100
AcDbEntity
  8
SCHRAFFUR_RAND
100
AcDbVertex
100
AcDb2dVertex
 10
164.954707
 20
328.572962
 30
0.0
  0
SEQEND
  5
17FC
330
17EE
100
AcDbEntity
  8
SCHRAFFUR_RAND
  0
INSERT
  5
17FD
330
1461
100
AcDbEntity
  8
8
100
AcDbBlockReference
  2
*X1
 10
164.954707
 20
359.572962
 30
0.0
1001
ACAD
1000
HATCH
1002
{
1070
    19
1000
ANSI37,_I
1040
3.174999999999999
1040
3.926999999999999
1002
}
  0
POLYLINE
  5
17FE
330
1461
100
AcDbEntity
  8
SCHRAFFUR_RAND
100
AcDb2dPolyline
 66
     1
 10
0.0
 20
0.0
 30
0.0
 70
     1
  0
VERTEX
  5
17FF
330
17FE
100
AcDbEntity
  8
SCHRAFFUR_RAND
100
AcDbVertex
100
AcDb2dVertex
 10
183.000707
 20
389.072962
 30
0.0
  0
VERTEX
  5
1800
330
17FE
100
AcDbEntity
  8
SCHRAFFUR_RAND
100
AcDbVertex
100
AcDb2dVertex
 10
164.954707
 20
389.072962
 30
0.0
  0
VERTEX
  5
1801
330
17FE
100
AcDbEntity
  8
SCHRAFFUR_RAND
100
AcDbVertex
100
AcDb2dVertex
 10
164.954707
 20
392.572962
 30
0.0
  0
VERTEX
  5
1802
330
17FE
100
AcDbEntity
  8
SCHRAFFUR_RAND
100
AcDbVertex
100
AcDb2dVertex
 10
160.954707
 20
392.572962
 30
0.0
  0
VERTEX
  5
1803
330
17FE
100
AcDbEntity
  8
SCHRAFFUR_RAND
100
AcDbVertex
100
AcDb2dVertex
 10
160.954707
 20
387.072962
 30
0.0
  0
VERTEX
  5
1804
330
17FE
100
AcDbEntity
  8
SCHRAFFUR_RAND
100
AcDbVertex
100
AcDb2dVertex
 10
164.954707
 20
387.072962
 30
0.0
  0
VERTEX
  5
1805
330
17FE
100
AcDbEntity
  8
SCHRAFFUR_RAND
100
AcDbVertex
100
AcDb2dVertex
 10
170.454707
 20
381.572962
 30
0.0
  0
VERTEX
  5
1806
330
17FE
100
AcDbEntity
  8
SCHRAFFUR_RAND
100
AcDbVertex
100
AcDb2dVertex
 10
171.954707
 20
381.572962
 30
0.0
  0
VERTEX
  5
1807
330
17FE
100
AcDbEntity
  8
SCHRAFFUR_RAND
100
AcDbVertex
100
AcDb2dVertex
 10
168.954707
 20
387.072962
 30
0.0
  0
VERTEX
  5
1808
330
17FE
100
AcDbEntity
  8
SCHRAFFUR_RAND
100
AcDbVertex
100
AcDb2dVertex
 10
178.954707
 20
387.072962
 30
0.0
  0
VERTEX
  5
1809
330
17FE
100
AcDbEntity
  8
SCHRAFFUR_RAND
100
AcDbVertex
100
AcDb2dVertex
 10
183.954707
 20
378.572962
 30
0.0
  0
VERTEX
  5
180A
330
17FE
100
AcDbEntity
  8
SCHRAFFUR_RAND
100
AcDbVertex
100
AcDb2dVertex
 10
183.000707
 20
389.072962
 30
0.0
  0
SEQEND
  5
180B
330
17FE
100
AcDbEntity
  8
SCHRAFFUR_RAND
  0
POINT
  5
180C
330
1461
100
AcDbEntity
  8
PUNKTE
100
AcDbPoint
 10
164.954707
 20
359.572962
 30
0.0
  0
LINE
  5
180D
330
1461
100
AcDbEntity
  8
0
100
AcDbLine
 10
160.954707
 20
392.572962
 30
0.0
 11
160.954707
 21
326.572962
 31
0.0
  0
LINE
  5
180E
330
1461
100
AcDbEntity
  8
MAßLINIEN
 62
     4
 48
0.55
100
AcDbLine
 10
155.244707
 20
359.572962
 30
0.0
 11
203.644707
 21
359.572962
 31
0.0
  0
LINE
  5
180F
330
1461
100
AcDbEntity
  8
0
100
AcDbLine
 10
160.954707
 20
392.572962
 30
0.0
 11
164.954707
 21
392.572962
 31
0.0
  0
LINE
  5
1810
330
1461
100
AcDbEntity
  8
0
100
AcDbLine
 10
160.954707
 20
326.572962
 30
0.0
 11
164.954707
 21
326.572962
 31
0.0
  0
LINE
  5
1811
330
1461
100
AcDbEntity
  8
0
100
AcDbLine
 10
160.954707
 20
387.072962
 30
0.0
 11
164.954707
 21
387.072962
 31
0.0
  0
LINE
  5
1812
330
1461
100
AcDbEntity
  8
0
100
AcDbLine
 10
160.954707
 20
332.072962
 30
0.0
 11
164.954707
 21
332.072962
 31
0.0
  0
LINE
  5
1813
330
1461
100
AcDbEntity
  8
0
100
AcDbLine
 10
183.954707
 20
378.572962
 30
0.0
 11
183.954707
 21
340.572962
 31
0.0
  0
LINE
  5
1814
330
1461
100
AcDbEntity
  8
0
100
AcDbLine
 10
183.954707
 20
340.572962
 30
0.0
 11
182.999707
 21
330.072962
 31
0.0
  0
LINE
  5
1815
330
1461
100
AcDbEntity
  8
0
100
AcDbLine
 10
183.954707
 20
378.572962
 30
0.0
 11
183.000707
 21
389.072962
 31
0.0
  0
LINE
  5
1816
330
1461
100
AcDbEntity
  8
0
100
AcDbLine
 10
178.954707
 20
387.072962
 30
0.0
 11
178.954707
 21
332.072962
 31
0.0
  0
LINE
  5
1817
330
1461
100
AcDbEntity
  8
0
100
AcDbLine
 10
178.954707
 20
332.072962
 30
0.0
 11
183.954707
 21
340.572962
 31
0.0
  0
LINE
  5
1818
330
1461
100
AcDbEntity
  8
0
100
AcDbLine
 10
178.954707
 20
387.072962
 30
0.0
 11
183.954707
 21
378.572962
 31
0.0
  0
LINE
  5
1819
330
1461
100
AcDbEntity
  8
0
100
AcDbLine
 10
171.954707
 20
381.572962
 30
0.0
 11
171.954707
 21
337.572962
 31
0.0
  0
LINE
  5
181A
330
1461
100
AcDbEntity
  8
0
100
AcDbLine
 10
170.454707
 20
381.572962
 30
0.0
 11
171.954707
 21
381.572962
 31
0.0
  0
LINE
  5
181B
330
1461
100
AcDbEntity
  8
0
100
AcDbLine
 10
170.454707
 20
337.572962
 30
0.0
 11
171.954707
 21
337.572962
 31
0.0
  0
LINE
  5
181C
330
1461
100
AcDbEntity
  8
0
100
AcDbLine
 10
170.454707
 20
381.572962
 30
0.0
 11
170.454707
 21
337.572962
 31
0.0
  0
LINE
  5
181D
330
1461
100
AcDbEntity
  8
0
100
AcDbLine
 10
168.954707
 20
332.072962
 30
0.0
 11
171.954707
 21
337.572962
 31
0.0
  0
LINE
  5
181E
330
1461
100
AcDbEntity
  8
0
100
AcDbLine
 10
171.954707
 20
381.573962
 30
0.0
 11
168.954707
 21
387.072962
 31
0.0
  0
LINE
  5
181F
330
1461
100
AcDbEntity
  8
0
100
AcDbLine
 10
170.454707
 20
381.572962
 30
0.0
 11
164.954707
 21
387.072962
 31
0.0
  0
LINE
  5
1820
330
1461
100
AcDbEntity
  8
0
100
AcDbLine
 10
170.454707
 20
337.572962
 30
0.0
 11
164.954707
 21
332.0719620000001
 31
0.0
  0
LINE
  5
1821
330
1461
100
AcDbEntity
  8
0
100
AcDbLine
 10
168.954707
 20
387.072962
 30
0.0
 11
178.954707
 21
387.072962
 31
0.0
  0
LINE
  5
1822
330
1461
100
AcDbEntity
  8
0
100
AcDbLine
 10
168.954707
 20
332.072962
 30
0.0
 11
178.954707
 21
332.072962
 31
0.0
  0
LINE
  5
1823
330
1461
100
AcDbEntity
  8
0
100
AcDbLine
 10
164.954707
 20
387.072962
 30
0.0
 11
164.954707
 21
332.072962
 31
0.0
  0
ENDSEC
  0
SECTION
  2
OBJECTS
  0
DICTIONARY
  5
1455
330
0
100
AcDbDictionary
281
     1
  3
ACAD_COLOR
350
1715
  3
ACAD_GROUP
350
1456
  3
ACAD_LAYOUT
350
1718
  3
ACAD_MATERIAL
350
1714
  3
ACAD_MLINESTYLE
350
1464
  3
ACAD_PLOTSETTINGS
350
1719
  3
ACAD_PLOTSTYLENAME
350
1712
  3
ACAD_TABLESTYLE
350
1716
  3
ACDBHEADERROUNDTRIPXREC
350
1835
  3
AcDbVariableDictionary
350
1828
  3
AcmDictionary
350
1777
  3
AMG
350
171D
  3
AMGSNAPSETTINGS
350
17E4
  3
GENBLK
350
1634
  0
DICTIONARY
  5
1824
330
1461
100
AcDbDictionary
280
     1
281
     1
  3
ACAD_SORTENTS
360
1825
  0
DICTIONARY
  5
1715
102
{ACAD_REACTORS
330
1455
102
}
330
1455
100
AcDbDictionary
281
     1
  0
DICTIONARY
  5
1456
102
{ACAD_REACTORS
330
1455
102
}
330
1455
100
AcDbDictionary
281
     1
  0
DICTIONARY
  5
1718
102
{ACAD_REACTORS
330
1455
102
}
330
1455
100
AcDbDictionary
281
     1
  3
Layout1
350
171B
  3
Model
350
171A
  0
DICTIONARY
  5
1714
102
{ACAD_REACTORS
330
1455
102
}
330
1455
100
AcDbDictionary
281
     1
  0
DICTIONARY
  5
1464
102
{ACAD_REACTORS
330
1455
102
}
330
1455
100
AcDbDictionary
281
     1
  3
STANDARD
350
1465
  0
DICTIONARY
  5
1719
102
{ACAD_REACTORS
330
1455
102
}
330
1455
100
AcDbDictionary
281
     1
  0
ACDBDICTIONARYWDFLT
  5
1712
102
{ACAD_REACTORS
330
1455
102
}
330
1455
100
AcDbDictionary
281
     1
  3
Normal
350
1713
100
AcDbDictionaryWithDefault
340
1713
  0
DICTIONARY
  5
1716
102
{ACAD_REACTORS
330
1455
102
}
330
1455
100
AcDbDictionary
281
     1
  3
Standard
350
1717
  0
DICTIONARY
  5
1835
102
{ACAD_REACTORS
330
1455
102
}
330
1455
100
AcDbDictionary
281
     1
  0
DICTIONARY
  5
1828
102
{ACAD_REACTORS
330
1455
102
}
330
1455
100
AcDbDictionary
281
     1
  3
CTABLESTYLE
350
1829
  3
DIMASSOC
350
1832
  3
PROJECTNAME
350
1833
  0
DICTIONARY
  5
1777
102
{ACAD_REACTORS
330
1455
102
}
330
1455
100
AcDbDictionary
281
     1
  3
AcmStdDictionary
350
1782
  3
AMDTSECTSYM_ARROWCOLOR
350
17A5
  0
DICTIONARY
  5
171D
102
{ACAD_REACTORS
330
1455
102
}
330
1455
100
AcDbDictionary
281
     1
  0
DICTIONARY
  5
17E4
102
{ACAD_REACTORS
330
1455
102
}
330
1455
100
AcDbDictionary
281
     1
  0
DICTIONARY
  5
1634
102
{ACAD_REACTORS
330
1455
102
}
330
1455
100
AcDbDictionary
281
     1
  3
0
350
1635
  0
SORTENTSTABLE
  5
1825
102
{ACAD_REACTORS
330
1824
102
}
330
1824
100
AcDbSortentsTable
330
1461
331
1810
  5
12AD
331
1511
  5
181C
331
115D
  5
169B
331
1821
  5
1697
331
113F
  5
113F
331
111D
  5
111D
331
10FB
  5
10FB
331
10D9
  5
10D9
331
10BF
  5
10BF
331
109D
  5
109D
331
107B
  5
107B
331
17EE
  5
115D
331
110C
  5
110C
331
10EA
  5
10EA
331
10AE
  5
10AE
331
108C
  5
108C
331
106A
  5
106A
331
17FD
  5
115E
331
181F
  5
1424
331
113D
  5
113D
331
111B
  5
111B
331
10F9
  5
10F9
331
10D7
  5
10D7
331
10BD
  5
10BD
331
109B
  5
109B
331
1079
  5
1079
331
1244
  5
17EE
331
180E
  5
1245
331
112C
  5
112C
331
110A
  5
110A
331
10E8
  5
10E8
331
10CE
  5
10CE
331
10AC
  5
10AC
331
108A
  5
108A
331
1068
  5
1068
331
181D
  5
140F
331
113B
  5
113B
331
1119
  5
1119
331
10F7
  5
10F7
331
10D5
  5
10D5
331
10BB
  5
10BB
331
1099
  5
1099
331
1324
  5
1813
331
180C
  5
11DE
331
112A
  5
112A
331
1108
  5
1108
331
10E6
  5
10E6
331
10CC
  5
10CC
331
10AA
  5
10AA
331
1088
  5
1088
331
1077
  5
1077
331
1066
  5
1066
331
13B2
  5
1817
331
1419
  5
181A
331
181B
  5
13B2
331
1139
  5
1139
331
1117
  5
1117
331
10F5
  5
10F5
331
10D3
  5
10D3
331
10B9
  5
10B9
331
1128
  5
1128
331
1106
  5
1106
331
10E4
  5
10E4
331
10CA
  5
10CA
331
10A8
  5
10A8
331
1086
  5
1086
331
1097
  5
1097
331
1075
  5
1075
331
1064
  5
1064
331
1819
  5
1383
331
1137
  5
1137
331
1115
  5
1115
331
10F3
  5
10F3
331
10D1
  5
10D1
331
169C
  5
1822
331
1126
  5
1126
331
1104
  5
1104
331
10E2
  5
10E2
331
10C8
  5
10C8
331
10A6
  5
10A6
331
1084
  5
1084
331
10B7
  5
10B7
331
1095
  5
1095
331
1073
  5
1073
331
1153
  5
169A
331
1817
  5
1324
331
1135
  5
1135
331
1113
  5
1113
331
10F1
  5
10F1
331
169A
  5
1820
331
1146
  5
1146
331
1124
  5
1124
331
1102
  5
1102
331
10E0
  5
10E0
331
10C6
  5
10C6
331
10A4
  5
10A4
331
1082
  5
1082
331
1384
  5
1816
331
10B5
  5
10B5
331
1093
  5
1093
331
1071
  5
1071
331
1060
  5
1060
331
1815
  5
1305
331
1133
  5
1133
331
1111
  5
1111
331
1698
  5
181E
331
140F
  5
1819
331
1424
  5
181B
331
1144
  5
1144
331
1122
  5
1122
331
1100
  5
1100
331
10DE
  5
10DE
331
10C4
  5
10C4
331
10A2
  5
10A2
331
10EF
  5
10EF
331
10B3
  5
10B3
331
1091
  5
1091
331
106F
  5
106F
331
105E
  5
105E
331
1813
  5
12F2
331
11DE
  5
17ED
331
12AC
  5
17FE
331
1142
  5
1142
331
1120
  5
1120
331
10FE
  5
10FE
331
10DC
  5
10DC
331
10C2
  5
10C2
331
10A0
  5
10A0
331
107E
  5
107E
331
110F
  5
110F
331
10ED
  5
10ED
331
10B1
  5
10B1
331
108F
  5
108F
331
106D
  5
106D
331
1811
  5
12CF
331
115E
  5
169C
331
1822
  5
1698
331
111E
  5
111E
331
10FC
  5
10FC
331
10DA
  5
10DA
331
10C0
  5
10C0
331
109E
  5
109E
331
107C
  5
107C
331
110D
  5
110D
331
10EB
  5
10EB
331
10AF
  5
10AF
331
108D
  5
108D
331
106B
  5
106B
331
17FE
  5
11DD
331
1820
  5
1511
331
113E
  5
113E
331
111C
  5
111C
331
10FA
  5
10FA
331
10D8
  5
10D8
331
10BE
  5
10BE
331
109C
  5
109C
331
107A
  5
107A
331
1305
  5
1811
331
17ED
  5
1153
331
1245
  5
17FD
331
180F
  5
12AC
331
110B
  5
110B
331
10E9
  5
10E9
331
10CF
  5
10CF
331
10AD
  5
10AD
331
108B
  5
108B
331
1069
  5
1069
331
181E
  5
1419
331
113C
  5
113C
331
111A
  5
111A
331
10F8
  5
10F8
331
10D6
  5
10D6
331
10BC
  5
10BC
331
109A
  5
109A
331
1078
  5
1078
331
1325
  5
1814
331
180D
  5
1244
331
12CF
  5
180D
331
112B
  5
112B
331
1109
  5
1109
331
10E7
  5
10E7
331
10CD
  5
10CD
331
10AB
  5
10AB
331
1089
  5
1089
331
1067
  5
1067
331
13B3
  5
1818
331
181C
  5
13B3
331
113A
  5
113A
331
1118
  5
1118
331
10F6
  5
10F6
331
10D4
  5
10D4
331
10BA
  5
10BA
331
1098
  5
1098
331
12D0
  5
180E
331
1129
  5
1129
331
1107
  5
1107
331
10E5
  5
10E5
331
10CB
  5
10CB
331
10A9
  5
10A9
331
1087
  5
1087
331
1076
  5
1076
331
1065
  5
1065
331
181A
  5
1384
331
1138
  5
1138
331
1116
  5
1116
331
10F4
  5
10F4
331
10D2
  5
10D2
331
10B8
  5
10B8
331
169D
  5
1823
331
1127
  5
1127
331
1105
  5
1105
331
10E3
  5
10E3
331
10C9
  5
10C9
331
10A7
  5
10A7
331
1085
  5
1085
331
1096
  5
1096
331
1074
  5
1074
331
1063
  5
1063
331
1818
  5
1325
331
1136
  5
1136
331
1114
  5
1114
331
10F2
  5
10F2
331
10D0
  5
10D0
331
12F2
  5
180F
331
169B
  5
1821
331
1147
  5
1147
331
1125
  5
1125
331
1103
  5
1103
331
10E1
  5
10E1
331
10C7
  5
10C7
331
10A5
  5
10A5
331
1083
  5
1083
331
10B6
  5
10B6
331
1094
  5
1094
331
1072
  5
1072
331
1061
  5
1061
331
1816
  5
131A
331
1134
  5
1134
331
1112
  5
1112
331
10F0
  5
10F0
331
1699
  5
181F
331
12FB
  5
1810
331
1145
  5
1145
331
1123
  5
1123
331
1101
  5
1101
331
10DF
  5
10DF
331
10C5
  5
10C5
331
10A3
  5
10A3
331
1383
  5
1815
331
10B4
  5
10B4
331
1092
  5
1092
331
1070
  5
1070
331
105F
  5
105F
331
131A
  5
1812
331
1814
  5
12FB
331
1132
  5
1132
331
1110
  5
1110
331
1697
  5
181D
331
12AD
  5
180C
331
1143
  5
1143
331
1121
  5
1121
331
10FF
  5
10FF
331
10DD
  5
10DD
331
10C3
  5
10C3
331
10A1
  5
10A1
331
10EE
  5
10EE
331
10B2
  5
10B2
331
1090
  5
1090
331
106E
  5
106E
331
105D
  5
105D
331
1812
  5
12D0
331
11DD
  5
169D
331
1823
  5
1699
331
1141
  5
1141
331
111F
  5
111F
331
10FD
  5
10FD
331
10DB
  5
10DB
331
10C1
  5
10C1
331
109F
  5
109F
331
110E
  5
110E
331
10EC
  5
10EC
331
10B0
  5
10B0
331
108E
  5
108E
331
106C
  5
106C
  0
LAYOUT
  5
171B
102
{ACAD_XDICTIONARY
360
1838
102
}
102
{ACAD_REACTORS
330
1718
102
}
330
1718
100
AcDbPlotSettings
  1

  2
Xerox Document Centre CS50 PS
  4

  6

 40
0.0
 41
0.0
 42
0.0
 43
0.0
 44
0.0
 45
0.0
 46
0.0
 47
0.0
 48
0.0
 49
0.0
140
0.0
141
0.0
142
1.0
143
1.0
 70
   688
 72
     0
 73
     0
 74
     5
  7

 75
    16
147
1.0
148
0.0
149
0.0
100
AcDbLayout
  1
Layout1
 70
     1
 71
     1
 10
0.0
 20
0.0
 11
419.8999999999999
 21
296.9
 12
0.0
 22
0.0
 32
0.0
 14
0.0
 24
0.0
 34
0.0
 15
419.8999999999999
 25
296.9
 35
0.0
146
0.0
 13
0.0
 23
0.0
 33
0.0
 16
1.0
 26
0.0
 36
0.0
 17
0.0
 27
1.0
 37
0.0
 76
     0
330
145E
  0
LAYOUT
  5
171A
102
{ACAD_XDICTIONARY
360
1836
102
}
102
{ACAD_REACTORS
330
1718
102
}
330
1718
100
AcDbPlotSettings
  1

  2
Xerox Document Centre CS50 PS
  4

  6

 40
0.0
 41
0.0
 42
0.0
 43
0.0
 44
0.0
 45
0.0
 46
0.0
 47
0.0
 48
0.0
 49
0.0
140
0.0
141
0.0
142
1.0
143
1.0
 70
  1712
 72
     0
 73
     0
 74
     0
  7

 75
     0
147
1.0
148
0.0
149
0.0
100
AcDbLayout
  1
Model
 70
     1
 71
     0
 10
0.0
 20
0.0
 11
12.0
 21
9.0
 12
0.0
 22
0.0
 32
0.0
 14
0.0
 24
0.0
 34
0.0
 15
0.0
 25
0.0
 35
0.0
146
0.0
 13
0.0
 23
0.0
 33
0.0
 16
1.0
 26
0.0
 36
0.0
 17
0.0
 27
1.0
 37
0.0
 76
     0
330
1461
  0
MLINESTYLE
  5
1465
102
{ACAD_REACTORS
330
1464
102
}
330
1464
100
AcDbMlineStyle
  2
STANDARD
 70
     0
  3

 62
   256
 51
90.0
 52
90.0
 71
     2
 49
0.5
 62
   256
  6
BYLAYER
 49
-0.5
 62
   256
  6
BYLAYER
  0
ACDBPLACEHOLDER
  5
1713
102
{ACAD_REACTORS
330
1712
102
}
330
1712
  0
TABLESTYLE
  5
1717
102
{ACAD_REACTORS
330
1716
102
}
330
1716
100
AcDbTableStyle
  3
Standard
 70
     0
 71
     0
 40
1.5
 41
1.5
280
     0
281
     0
  7
STANDARD
140
4.5
170
     2
 62
     0
 63
     7
283
     0
274
    -2
284
     1
 64
     0
275
    -2
285
     1
 65
     0
276
    -2
286
     1
 66
     0
277
    -2
287
     1
 67
     0
278
    -2
288
     1
 68
     0
279
    -2
289
     1
 69
     0
  7
STANDARD
140
6.0
170
     5
 62
     0
 63
     7
283
     0
274
    -2
284
     1
 64
     0
275
    -2
285
     1
 65
     0
276
    -2
286
     1
 66
     0
277
    -2
287
     1
 67
     0
278
    -2
288
     1
 68
     0
279
    -2
289
     1
 69
     0
  7
STANDARD
140
4.5
170
     5
 62
     0
 63
     7
283
     0
274
    -2
284
     1
 64
     0
275
    -2
285
     1
 65
     0
276
    -2
286
     1
 66
     0
277
    -2
287
     1
 67
     0
278
    -2
288
     1
 68
     0
279
    -2
289
     1
 69
     0
  0
DICTIONARYVAR
  5
1829
102
{ACAD_REACTORS
330
1828
102
}
330
1828
100
DictionaryVariables
280
     0
  1
STANDARD
  0
DICTIONARYVAR
  5
1832
102
{ACAD_REACTORS
330
1828
102
}
330
1828
100
DictionaryVariables
280
     0
  1
1
  0
DICTIONARYVAR
  5
1833
102
{ACAD_REACTORS
330
1828
102
}
330
1828
100
DictionaryVariables
280
     0
  1

  0
DICTIONARY
  5
1782
102
{ACAD_REACTORS
330
1777
102
}
330
1777
100
AcDbDictionary
281
     1
  0
XRECORD
  5
17A5
102
{ACAD_REACTORS
330
1777
102
}
330
1777
100
AcDbXrecord
280
     1
 90
-1023410169
  0
XRECORD
  5
1635
102
{ACAD_REACTORS
330
1634
102
}
330
1634
100
AcDbXrecord
280
     1
  1
Time
 90
955726869
  1
Levels
 70
     0
  0
DICTIONARY
  5
1838
330
171B
100
AcDbDictionary
280
     1
281
     1
  3
ACAD_XREC_ROUNDTRIP
360
1839
  0
DICTIONARY
  5
1836
330
171A
100
AcDbDictionary
280
     1
281
     1
  3
ACAD_XREC_ROUNDTRIP
360
1837
  0
XRECORD
  5
1839
102
{ACAD_REACTORS
330
1838
102
}
330
1838
100
AcDbXrecord
280
     1
102
SHADEPLOT
 70
     0
102
SHADEPLOTRESLEVEL
 70
     2
102
SHADEPLOTCUSTOMDPI
 70
   300
  0
XRECORD
  5
1837
102
{ACAD_REACTORS
330
1836
102
}
330
1836
100
AcDbXrecord
280
     1
102
SHADEPLOT
 70
     0
102
SHADEPLOTRESLEVEL
 70
     2
102
SHADEPLOTCUSTOMDPI
 70
   300
  0
ENDSEC
  0
EOF
