  0
SECTION
  2
HEADER
  9
$ACADVER
  1
AC1015
  9
$ACADMAINTVER
 70
    20
  9
$DWGCODEPAGE
  3
ANSI_1252
  9
$INSBASE
 10
0.0
 20
0.0
 30
0.0
  9
$EXTMIN
 10
49.79553472925363
 20
137.3542811690763
 30
-0.0015258207003583
  9
$EXTMAX
 10
618.2464619030319
 20
526.6822833296401
 30
0.0000000349246037
  9
$LIMMIN
 10
0.0
 20
0.0
  9
$LIMMAX
 10
1050.0
 20
1050.0
  9
$ORTHOMODE
 70
     0
  9
$REGENMODE
 70
     1
  9
$FILLMODE
 70
     1
  9
$QTEXTMODE
 70
     0
  9
$MIRRTEXT
 70
     0
  9
$LTSCALE
 40
5.0
  9
$ATTMODE
 70
     1
  9
$TEXTSIZE
 40
10.0
  9
$TRACEWID
 40
0.05
  9
$TEXTSTYLE
  7
STANDARD
  9
$CLAYER
  8
0
  9
$CELTYPE
  6
BYLAYER
  9
$CECOLOR
 62
   256
  9
$CELTSCALE
 40
1.0
  9
$DISPSILH
 70
     0
  9
$DIMSCALE
 40
5.0
  9
$DIMASZ
 40
2.5
  9
$DIMEXO
 40
1.0
  9
$DIMDLI
 40
7.0
  9
$DIMRND
 40
0.0
  9
$DIMDLE
 40
0.0
  9
$DIMEXE
 40
1.0
  9
$DIMTP
 40
0.1
  9
$DIMTM
 40
0.1
  9
$DIMTXT
 40
3.5
  9
$DIMCEN
 40
0.0
  9
$DIMTSZ
 40
0.0
  9
$DIMTOL
 70
     0
  9
$DIMLIM
 70
     0
  9
$DIMTIH
 70
     0
  9
$DIMTOH
 70
     0
  9
$DIMSE1
 70
     0
  9
$DIMSE2
 70
     0
  9
$DIMTAD
 70
     1
  9
$DIMZIN
 70
    12
  9
$DIMBLK
  1

  9
$DIMASO
 70
     1
  9
$DIMSHO
 70
     1
  9
$DIMPOST
  1

  9
$DIMAPOST
  1
"
  9
$DIMALT
 70
     0
  9
$DIMALTD
 70
     2
  9
$DIMALTF
 40
0.03937
  9
$DIMLFAC
 40
1.0
  9
$DIMTOFL
 70
     1
  9
$DIMTVP
 40
0.0
  9
$DIMTIX
 70
     0
  9
$DIMSOXD
 70
     0
  9
$DIMSAH
 70
     0
  9
$DIMBLK1
  1

  9
$DIMBLK2
  1

  9
$DIMSTYLE
  2
GEN-ISO
  9
$DIMCLRD
 70
   256
  9
$DIMCLRE
 70
   256
  9
$DIMCLRT
 70
     2
  9
$DIMTFAC
 40
0.71
  9
$DIMGAP
 40
0.6
  9
$DIMJUST
 70
     0
  9
$DIMSD1
 70
     0
  9
$DIMSD2
 70
     0
  9
$DIMTOLJ
 70
     0
  9
$DIMTZIN
 70
     0
  9
$DIMALTZ
 70
     0
  9
$DIMALTTZ
 70
     0
  9
$DIMUPT
 70
     0
  9
$DIMDEC
 70
     2
  9
$DIMTDEC
 70
     3
  9
$DIMALTU
 70
     2
  9
$DIMALTTD
 70
     4
  9
$DIMTXSTY
  7
STANDARD
  9
$DIMAUNIT
 70
     0
  9
$DIMADEC
 70
     0
  9
$DIMALTRND
 40
0.0
  9
$DIMAZIN
 70
     0
  9
$DIMDSEP
 70
    46
  9
$DIMATFIT
 70
     3
  9
$DIMFRAC
 70
     0
  9
$DIMLDRBLK
  1

  9
$DIMLUNIT
 70
     2
  9
$DIMLWD
 70
    -2
  9
$DIMLWE
 70
    -2
  9
$DIMTMOVE
 70
     0
  9
$LUNITS
 70
     2
  9
$LUPREC
 70
     2
  9
$SKETCHINC
 40
0.1
  9
$FILLETRAD
 40
12.5
  9
$AUNITS
 70
     0
  9
$AUPREC
 70
     2
  9
$MENU
  1
.
  9
$ELEVATION
 40
0.0
  9
$PELEVATION
 40
0.0
  9
$THICKNESS
 40
0.0
  9
$LIMCHECK
 70
     0
  9
$CHAMFERA
 40
12.5
  9
$CHAMFERB
 40
12.5
  9
$CHAMFERC
 40
0.0
  9
$CHAMFERD
 40
0.0
  9
$SKPOLY
 70
     0
  9
$TDCREATE
 40
2451222.637720336
  9
$TDUCREATE
 40
2451222.596053669
  9
$TDUPDATE
 40
2454038.543540521
  9
$TDUUPDATE
 40
2454038.501873854
  9
$TDINDWG
 40
0.0043808333
  9
$TDUSRTIMER
 40
0.0043767708
  9
$USRTIMER
 70
     1
  9
$ANGBASE
 50
0.0
  9
$ANGDIR
 70
     0
  9
$PDMODE
 70
     0
  9
$PDSIZE
 40
0.0
  9
$PLINEWID
 40
0.0
  9
$SPLFRAME
 70
     0
  9
$SPLINETYPE
 70
     6
  9
$SPLINESEGS
 70
     8
  9
$HANDSEED
  5
16A0
  9
$SURFTAB1
 70
     6
  9
$SURFTAB2
 70
     6
  9
$SURFTYPE
 70
     6
  9
$SURFU
 70
     6
  9
$SURFV
 70
     6
  9
$UCSBASE
  2

  9
$UCSNAME
  2

  9
$UCSORG
 10
0.0
 20
0.0
 30
0.0
  9
$UCSXDIR
 10
1.0
 20
0.0
 30
0.0
  9
$UCSYDIR
 10
0.0
 20
1.0
 30
0.0
  9
$UCSORTHOREF
  2

  9
$UCSORTHOVIEW
 70
     0
  9
$UCSORGTOP
 10
0.0
 20
0.0
 30
0.0
  9
$UCSORGBOTTOM
 10
0.0
 20
0.0
 30
0.0
  9
$UCSORGLEFT
 10
0.0
 20
0.0
 30
0.0
  9
$UCSORGRIGHT
 10
0.0
 20
0.0
 30
0.0
  9
$UCSORGFRONT
 10
0.0
 20
0.0
 30
0.0
  9
$UCSORGBACK
 10
0.0
 20
0.0
 30
0.0
  9
$PUCSBASE
  2

  9
$PUCSNAME
  2

  9
$PUCSORG
 10
0.0
 20
0.0
 30
0.0
  9
$PUCSXDIR
 10
1.0
 20
0.0
 30
0.0
  9
$PUCSYDIR
 10
0.0
 20
1.0
 30
0.0
  9
$PUCSORTHOREF
  2

  9
$PUCSORTHOVIEW
 70
     0
  9
$PUCSORGTOP
 10
0.0
 20
0.0
 30
0.0
  9
$PUCSORGBOTTOM
 10
0.0
 20
0.0
 30
0.0
  9
$PUCSORGLEFT
 10
0.0
 20
0.0
 30
0.0
  9
$PUCSORGRIGHT
 10
0.0
 20
0.0
 30
0.0
  9
$PUCSORGFRONT
 10
0.0
 20
0.0
 30
0.0
  9
$PUCSORGBACK
 10
0.0
 20
0.0
 30
0.0
  9
$USERI1
 70
     0
  9
$USERI2
 70
     0
  9
$USERI3
 70
     0
  9
$USERI4
 70
     0
  9
$USERI5
 70
     0
  9
$USERR1
 40
0.0
  9
$USERR2
 40
0.0
  9
$USERR3
 40
0.0
  9
$USERR4
 40
0.0
  9
$USERR5
 40
0.0
  9
$WORLDVIEW
 70
     1
  9
$SHADEDGE
 70
     3
  9
$SHADEDIF
 70
    70
  9
$TILEMODE
 70
     1
  9
$MAXACTVP
 70
    48
  9
$PINSBASE
 10
0.0
 20
0.0
 30
0.0
  9
$PLIMCHECK
 70
     0
  9
$PEXTMIN
 10
0.0
 20
0.0
 30
0.0
  9
$PEXTMAX
 10
419.8999999999999
 20
296.9
 30
0.0
  9
$PLIMMIN
 10
0.0
 20
0.0
  9
$PLIMMAX
 10
419.8999999999999
 20
296.9
  9
$UNITMODE
 70
     0
  9
$VISRETAIN
 70
     1
  9
$PLINEGEN
 70
     1
  9
$PSLTSCALE
 70
     1
  9
$TREEDEPTH
 70
 -3020
  9
$CMLSTYLE
  2
STANDARD
  9
$CMLJUST
 70
     0
  9
$CMLSCALE
 40
1.0
  9
$PROXYGRAPHICS
 70
     1
  9
$MEASUREMENT
 70
     1
  9
$CELWEIGHT
370
    -1
  9
$ENDCAPS
280
     0
  9
$JOINSTYLE
280
     0
  9
$LWDISPLAY
290
     0
  9
$INSUNITS
 70
     0
  9
$HYPERLINKBASE
  1

  9
$STYLESHEET
  1

  9
$XEDIT
290
     1
  9
$CEPSNTYPE
380
     0
  9
$PSTYLEMODE
290
     1
  9
$FINGERPRINTGUID
  2
{40FB8C24-7DB8-44E0-94AD-EA50B842713B}
  9
$VERSIONGUID
  2
{2A4ADFD3-BDDE-4FF4-818B-3EEFCF147DC9}
  9
$EXTNAMES
290
     1
  9
$PSVPSCALE
 40
0.0
  9
$OLESTARTUP
290
     0
  0
ENDSEC
  0
SECTION
  2
CLASSES
  0
CLASS
  1
ACDBDICTIONARYWDFLT
  2
AcDbDictionaryWithDefault
  3
ObjectDBX Classes
 90
        0
280
     0
281
     0
  0
CLASS
  1
TABLESTYLE
  2
AcDbTableStyle
  3
ObjectDBX Classes
 90
     2047
280
     0
281
     0
  0
CLASS
  1
AMGSETTINGSOBJ
  2
AmgSettingsObj
  3
"AcadM|Product Description: AutoCAD Mechanical 2000|Company: Autodesk"
 90
        0
280
     0
281
     0
  0
CLASS
  1
ACME_DOCUMENT
  2
AcMeDbDoc
  3
AcMeServices
 90
        0
280
     0
281
     0
  0
CLASS
  1
ACMESCOPE
  2
AcMeScope
  3
AcMeServices
 90
        0
280
     0
281
     0
  0
CLASS
  1
ACMECOMMANDHISTORY
  2
AcMeCommandHistory
  3
AcMeServices
 90
        0
280
     0
281
     0
  0
CLASS
  1
ACIMSYSVARMAN
  2
AcImSysVarManager
  3
AcMeServices
 90
        0
280
     0
281
     0
  0
CLASS
  1
ACIMINTSYSVAR
  2
AcImIntSysVar
  3
AcMeServices
 90
        0
280
     0
281
     0
  0
CLASS
  1
ACMEDRAWINGMAN
  2
AcMeDrawingMan
  3
AcMeServices
 90
        0
280
     0
281
     0
  0
CLASS
  1
ACMEVIEW
  2
AcMeView
  3
AcMeServices
 90
        0
280
     0
281
     0
  0
CLASS
  1
ACDBENTITYCACHE
  2
AcMeEntityCache
  3
AcMeServices
 90
        0
280
     0
281
     0
  0
CLASS
  1
GSMANAGER
  2
AcMeGSManager
  3
AcMeServices
 90
        0
280
     0
281
     0
  0
CLASS
  1
AMDTINTERNALREACTOR
  2
AmdtInternalReactor
  3
AcMeServices
 90
        0
280
     0
281
     0
  0
CLASS
  1
ACMESTATEMGR
  2
AcMeStateMgr
  3
AcMeServices
 90
        0
280
     0
281
     0
  0
CLASS
  1
ACGREFMASTER
  2
AcGrefMaster
  3
AcAttribServices
 90
        0
280
     0
281
     0
  0
CLASS
  1
AM_DRAWING_MGR
  2
AcDmDwgMgr
  3
AcMechDwgViewMgmt
 90
        0
280
     0
281
     0
  0
CLASS
  1
AM_DWG_DOCUMENT
  2
AcDmDwgDocument
  3
AcMechDwgViewMgmt
 90
        0
280
     0
281
     0
  0
CLASS
  1
AM_DWG_SHEET
  2
AcDmSheet
  3
AcMechDwgViewMgmt
 90
        0
280
     0
281
     0
  0
CLASS
  1
AM_VIEWDIMPARMAP
  2
AcDmViewDimParMap
  3
AcMechDwgViewMgmt
 90
        0
280
     0
281
     0
  0
CLASS
  1
ACIMREALSYSVAR
  2
AcImRealSysVar
  3
AcMeServices
 90
        0
280
     0
281
     0
  0
CLASS
  1
AM_DWGMGR_NAME
  2
AcDmDwgMgrName
  3
AcMechDwgViewMgmt
 90
        0
280
     0
281
     0
  0
CLASS
  1
ACME_DATABASE
  2
AcMeDbDatabase
  3
AcMeServices
 90
        0
280
     0
281
     0
  0
CLASS
  1
ACRFINSADJUSTERMGR
  2
AcRfInsAdjusterMgr
  3
AcMeServices
 90
        0
280
     0
281
     0
  0
CLASS
  1
ACGREFACADMASTER
  2
AcGrefacadMaster
  3
AcGrefServices
 90
        0
280
     0
281
     0
  0
CLASS
  1
AMDTMENUSTATEMGR
  2
AmdtMenuStateMgr
  3
McadcomServices
 90
        0
280
     0
281
     0
  0
CLASS
  1
AMDTMCOMMENUSTATE
  2
AmdtMcomMenuState
  3
McadcomServices
 90
        0
280
     0
281
     0
  0
CLASS
  1
AMIMASTER
  2
AmiMaster
  3
AmiServices
 90
        0
280
     0
281
     0
  0
CLASS
  1
MAPIAMMOUDLE
  2
MApiAmModule
  3
MApiAmServices
 90
        0
280
     0
281
     0
  0
CLASS
  1
ACIMSTRSYSVAR
  2
AcImStrSysVar
  3
AcMeServices
 90
        0
280
     0
281
     0
  0
CLASS
  1
AMDTADMENUSTATE
  2
AmdtAdMenuState
  3
DesignerServices
 90
        0
280
     0
281
     0
  0
CLASS
  1
ADAPPL
  2
AcAdAppl
  3
DesignerServices
 90
        0
280
     0
281
     0
  0
CLASS
  1
DEPMGR
  2
AcAdDepMgr
  3
DesignerServices
 90
        0
280
     0
281
     0
  0
CLASS
  1
PARAMMGR
  2
AcAdParamMgr
  3
DesignerServices
 90
        0
280
     0
281
     0
  0
CLASS
  1
PARAMSCOPE
  2
AcAdParamScope
  3
DesignerServices
 90
        0
280
     0
281
     0
  0
CLASS
  1
NAMEDAPPL
  2
AcAdNamedAppl
  3
DesignerServices
 90
        0
280
     0
281
     0
  0
CLASS
  1
AMDTDMMENUSTATE
  2
AmdtDmMenuState
  3
AcMechDwgViewMgmt
 90
        0
280
     0
281
     0
  0
CLASS
  1
AMDTAMMENUSTATE
  2
AmdtAmMenuState
  3
DesignerAssemblies
 90
        0
280
     0
281
     0
  0
CLASS
  1
ACAMPROJECT
  2
AcAmProject
  3
DesignerAssemblies
 90
        0
280
     0
281
     0
  0
CLASS
  1
ACAMGRCOMPDEF
  2
AcAmGrCompDef
  3
DesignerAssemblies
 90
        0
280
     0
281
     0
  0
CLASS
  1
ACCMCONTEXT
  2
AcCmContext
  3
DesignerAssemblies
 90
        0
280
     0
281
     0
  0
CLASS
  1
ACAMCOMPDEF
  2
AcAmCompDef
  3
DesignerAssemblies
 90
        0
280
     0
281
     0
  0
CLASS
  1
ACAMCOMPDEFMGR
  2
AcAmCompDefMgr
  3
DesignerAssemblies
 90
        0
280
     0
281
     0
  0
CLASS
  1
AMCONTEXTMGR
  2
AcAmContextMgr
  3
DesignerAssemblies
 90
        0
280
     0
281
     0
  0
CLASS
  1
ACAMCONTEXTMODELER
  2
AcAmContextModeler
  3
DesignerAssemblies
 90
        0
280
     0
281
     0
  0
CLASS
  1
ACMDATADICTIONARY
  2
AcmDataDictionary
  3
"AcmSymBB|Product Description: AutoCAD Mechanical 2004 DX|Company: Autodesk"
 90
        0
280
     0
281
     0
  0
CLASS
  1
CATALOGSTATE
  2
AcAmCatalogState
  3
DesignerAssemblies
 90
        0
280
     0
281
     0
  0
CLASS
  1
ACAMGRCOMPDEFSET
  2
AcAmGrCompDefSet
  3
DesignerAssemblies
 90
        0
280
     0
281
     0
  0
CLASS
  1
AMDTBROWSERDBTAB
  2
AmdtBrowserDbTab
  3
McadcomServices
 90
        0
280
     0
281
     0
  0
CLASS
  1
CBROWSERAPPOBJECT
  2
CBrowserAppObject
  3
McadcomServices
 90
        0
280
     0
281
     0
  0
CLASS
  1
DM_PLACEHOLDER
  2
AcDmSelsetPlaceholder
  3
AcMechDwgViewMgmt
 90
        0
280
     0
281
     0
  0
CLASS
  1
ACMSTANDARDDIN
  2
AcmStandardDIN
  3
"Amdt_StdImp|Product Description: AutoCAD Mechanical 2004 DX|Company: Autodesk"
 90
        0
280
     0
281
     0
  0
CLASS
  1
AMGOBJPROPCFG
  2
AmgObjPropCfg
  3
"AmgLay|Product Description: AutoCAD Mechanical 2000|Company: Autodesk"
 90
        1
280
     0
281
     0
  0
CLASS
  1
AMDTEDGESTANDARDDIN13715
  2
AmdtEdgeStdDIN13715
  3
"Amdt_StdImp|Product Description: AutoCAD Mechanical 2004 DX|Company: Autodesk"
 90
        0
280
     0
281
     0
  0
CLASS
  1
ACMSURFSTANDARDDIN
  2
AcmSurfTextStdDIN
  3
"Amdt_StdImp|Product Description: AutoCAD Mechanical 2004 DX|Company: Autodesk"
 90
        0
280
     0
281
     0
  0
CLASS
  1
ACMFCFSTANDARDDIN
  2
AcmFCFStdDIN
  3
"Amdt_StdImp|Product Description: AutoCAD Mechanical 2004 DX|Company: Autodesk"
 90
        0
280
     0
281
     0
  0
CLASS
  1
ACMWELDSTANDARDDIN
  2
AcmWeldingStdDIN
  3
"Amdt_StdImp|Product Description: AutoCAD Mechanical 2004 DX|Company: Autodesk"
 90
        0
280
     0
281
     0
  0
CLASS
  1
ACMIDSTANDARDDIN
  2
AcmIdStdDIN
  3
"Amdt_StdImp|Product Description: AutoCAD Mechanical 2004 DX|Company: Autodesk"
 90
        0
280
     0
281
     0
  0
CLASS
  1
ACMDATUMSTANDARDDIN
  2
AcmDatumStdDIN
  3
"Amdt_StdImp|Product Description: AutoCAD Mechanical 2004 DX|Company: Autodesk"
 90
        0
280
     0
281
     0
  0
CLASS
  1
ACMBOMSTANDARDDIN
  2
AcmBOMStdDIN
  3
"Amdt_StdImp|Product Description: AutoCAD Mechanical 2004 DX|Company: Autodesk"
 90
        0
280
     0
281
     0
  0
CLASS
  1
ACMDETAILSTANDARDDIN
  2
AmdtDetailSymStdDIN
  3
"Amdt_StdImp|Product Description: AutoCAD Mechanical 2004 DX|Company: Autodesk"
 90
        0
280
     0
281
     0
  0
CLASS
  1
ACMSECTIONSTANDARDDIN
  2
AmdtSectionSymStdDIN
  3
"Amdt_StdImp|Product Description: AutoCAD Mechanical 2004 DX|Company: Autodesk"
 90
        0
280
     0
281
     0
  0
CLASS
  1
ACMCENTERLINESTANDARDDIN
  2
AmdtCenterLineStdDIN
  3
"Amdt_StdImp|Product Description: AutoCAD Mechanical 2004 DX|Company: Autodesk"
 90
        0
280
     0
281
     0
  0
CLASS
  1
ACMTHREADLINESTANDARDDIN
  2
AmdtThreadLineStdDIN
  3
"Amdt_StdImp|Product Description: AutoCAD Mechanical 2004 DX|Company: Autodesk"
 90
        0
280
     0
281
     0
  0
CLASS
  1
ACMNOTESTANDARDDIN
  2
AmdtNoteStdDIN
  3
"Amdt_StdImp|Product Description: AutoCAD Mechanical 2004 DX|Company: Autodesk"
 90
        0
280
     0
281
     0
  0
CLASS
  1
AMDTNOTETEMPLATEDB
  2
AmdtNoteTemplateDB
  3
AMDT_STDIMP_MODULE_NAME
 90
        0
280
     0
281
     0
  0
CLASS
  1
ACAMGLAYSTD
  2
AcAmgLayStd
  3
"AcAmgLayStd|Product Description: AutoCAD Mechanical 2000|Company: Autodesk"
 90
        0
280
     0
281
     0
  0
CLASS
  1
ACAMGDIMSTD
  2
AcAmgDimStd
  3
"AcAmgDimStd|Product Description: AutoCAD Mechanical 2000|Company: Autodesk"
 90
        0
280
     0
281
     0
  0
CLASS
  1
ACAMGHOLECHARTSTDDIN
  2
AcAmgHoleChartStdDIN
  3
ACMSYMBB_MODULE_NAME
 90
        0
280
     0
281
     0
  0
CLASS
  1
ACAMGTITLESTD
  2
AcAmgTitleStd
  3
"TITLEAPP"
 90
        0
280
     0
281
     0
  0
CLASS
  1
ACAMGFILTERDAT
  2
AcAmgFilterDat
  3
"AcadM|Product Description: AutoCAD Mechanical 2000|Company: Autodesk"
 90
        0
280
     0
281
     0
  0
CLASS
  1
DICTIONARYVAR
  2
AcDbDictionaryVar
  3
ObjectDBX Classes
 90
        0
280
     0
281
     0
  0
CLASS
  1
ACDBPLACEHOLDER
  2
AcDbPlaceHolder
  3
ObjectDBX Classes
 90
        0
280
     0
281
     0
  0
CLASS
  1
LAYOUT
  2
AcDbLayout
  3
ObjectDBX Classes
 90
        0
280
     0
281
     0
  0
ENDSEC
  0
SECTION
  2
TABLES
  0
TABLE
  2
VPORT
  5
13D1
330
0
100
AcDbSymbolTable
 70
     4
  0
VPORT
  5
169A
330
13D1
100
AcDbSymbolTableRecord
100
AcDbViewportTableRecord
  2
*Active
 70
     0
 10
0.0
 20
0.0
 11
1.0
 21
1.0
 12
334.0209983161428
 22
332.0182822493582
 13
0.0
 23
0.0
 14
5.0
 24
5.0
 15
50.0
 25
50.0
 16
0.0
 26
0.0
 36
1.0
 17
0.0
 27
0.0
 37
0.0
 40
392.156050602408
 41
1.494545454545454
 42
50.0
 43
0.0
 44
0.0
 50
0.0
 51
0.0
 71
     0
 72
  1000
 73
     1
 74
     1
 75
     0
 76
     0
 77
     0
 78
     0
281
     0
 65
     0
110
0.0
120
0.0
130
0.0
111
1.0
121
0.0
131
0.0
112
0.0
122
1.0
132
0.0
 79
     0
146
0.0
  0
ENDTAB
  0
TABLE
  2
LTYPE
  5
13CE
330
0
100
AcDbSymbolTable
 70
    20
  0
LTYPE
  5
13DB
330
13CE
100
AcDbSymbolTableRecord
100
AcDbLinetypeTableRecord
  2
BYBLOCK
 70
     0
  3

 72
    65
 73
     0
 40
0.0
  0
LTYPE
  5
13DC
330
13CE
100
AcDbSymbolTableRecord
100
AcDbLinetypeTableRecord
  2
BYLAYER
 70
     0
  3

 72
    65
 73
     0
 40
0.0
  0
LTYPE
  5
13DD
330
13CE
100
AcDbSymbolTableRecord
100
AcDbLinetypeTableRecord
  2
CONTINUOUS
 70
     0
  3
Solid line
 72
    65
 73
     0
 40
0.0
  0
LTYPE
  5
13EC
330
13CE
100
AcDbSymbolTableRecord
100
AcDbLinetypeTableRecord
  2
GEN7
 70
     0
  3
____ _ ____ _ ____ _ ____ _ ____ _ ____ _ ____ _ ____ _ ____ _
 72
    65
 73
     4
 40
22.0
 49
10.75
 74
     0
 49
-3.75
 74
     0
 49
3.75
 74
     0
 49
-3.75
 74
     0
  0
LTYPE
  5
15F1
330
13CE
100
AcDbSymbolTableRecord
100
AcDbLinetypeTableRecord
  2
HIDDEN
 70
     0
  3
Verdeckt
 72
    65
 73
     2
 40
9.525
 49
6.349999999999999
 74
     0
 49
-3.174999999999999
 74
     0
  0
LTYPE
  5
15F2
330
13CE
100
AcDbSymbolTableRecord
100
AcDbLinetypeTableRecord
  2
PHANTOM2
 70
     0
  3
Phantom (.5x) ___ _ _ ___ _ _ ___ _ _ ___ _ _
 72
    65
 73
     6
 40
31.75
 49
15.875
 74
     0
 49
-3.174999999999999
 74
     0
 49
3.174999999999999
 74
     0
 49
-3.174999999999999
 74
     0
 49
3.174999999999999
 74
     0
 49
-3.174999999999999
 74
     0
  0
LTYPE
  5
15F3
330
13CE
100
AcDbSymbolTableRecord
100
AcDbLinetypeTableRecord
  2
CENTER
 70
     0
  3
Mitte ____ _ ____ _ ____ _ ____ _ ____ _ ____
 72
    65
 73
     4
 40
50.8
 49
31.75
 74
     0
 49
-6.349999999999999
 74
     0
 49
6.349999999999999
 74
     0
 49
-6.349999999999999
 74
     0
  0
LTYPE
  5
162A
330
13CE
100
AcDbSymbolTableRecord
100
AcDbLinetypeTableRecord
  2
Amconstr
 70
     0
  3
_______________________
 72
    65
 73
     2
 40
9999.0
 49
9999.0
 74
     0
 49
0.0
 74
     0
  0
LTYPE
  5
162F
330
13CE
100
AcDbSymbolTableRecord
100
AcDbLinetypeTableRecord
  2
Amzigzag
 70
     0
  3
/\/-/\/-/\/-/\/-/\/-/\/
 72
    65
 73
     2
 40
11.0001
 49
0.0001
 74
     4
 75
   136
340
162E
 46
0.04
 50
0.0
 44
0.0
 45
0.0
 49
-11.0
 74
     0
  0
LTYPE
  5
1630
330
13CE
100
AcDbSymbolTableRecord
100
AcDbLinetypeTableRecord
  2
AM_DIN_F_W050
 70
     0
  3
__ __ __ __ __ __ __ __ __ __ __ __ __ __ __
 72
    65
 73
     2
 40
6.25
 49
4.75
 74
     0
 49
-1.5
 74
     0
  0
LTYPE
  5
1631
330
13CE
100
AcDbSymbolTableRecord
100
AcDbLinetypeTableRecord
  2
AM_DIN_G_W050
 70
     0
  3
____ . ____ . ____ . ____ . ____ . ____ . ____
 72
    65
 73
     4
 40
13.75
 49
9.75
 74
     0
 49
-1.5
 74
     0
 49
1.0
 74
     0
 49
-1.5
 74
     0
  0
LTYPE
  5
1632
330
13CE
100
AcDbSymbolTableRecord
100
AcDbLinetypeTableRecord
  2
AM_DIN_K_W050
 70
     0
  3
_____ . . _____ . . _____ . . ____ .. ____
 72
    65
 73
     6
 40
16.25
 49
9.75
 74
     0
 49
-1.5
 74
     0
 49
1.0
 74
     0
 49
-1.5
 74
     0
 49
1.0
 74
     0
 49
-1.5
 74
     0
  0
LTYPE
  5
1633
330
13CE
100
AcDbSymbolTableRecord
100
AcDbLinetypeTableRecord
  2
AM_DIN_G_W050x2
 70
     0
  3
__ . __ . __ . __ . __ . __
 72
    65
 73
     4
 40
6.875
 49
4.75
 74
     0
 49
-0.875
 74
     0
 49
0.375
 74
     0
 49
-0.875
 74
     0
  0
LTYPE
  5
1634
330
13CE
100
AcDbSymbolTableRecord
100
AcDbLinetypeTableRecord
  2
AM_DIN_F_W050x2
 70
     0
  3
 _ _ _ _ _ _ _ _ _ _ _ _
 72
    65
 73
     2
 40
3.125
 49
2.25
 74
     0
 49
-0.875
 74
     0
  0
LTYPE
  5
1643
330
13CE
100
AcDbSymbolTableRecord
100
AcDbLinetypeTableRecord
  2
ACDINWELD
 70
     0
  3
_ _ _ _ _
 72
    65
 73
     2
 40
2.0
 49
2.0
 74
     0
 49
-1.0
 74
     0
  0
LTYPE
  5
1644
330
13CE
100
AcDbSymbolTableRecord
100
AcDbLinetypeTableRecord
  2
ACDINTGB
 70
     0
  3
__ . . __ . .
 72
    65
 73
     6
 40
9.0
 49
4.0
 74
     0
 49
-1.0
 74
     0
 49
1.0
 74
     0
 49
-1.0
 74
     0
 49
1.0
 74
     0
 49
-1.0
 74
     0
  0
LTYPE
  5
1645
330
13CE
100
AcDbSymbolTableRecord
100
AcDbLinetypeTableRecord
  2
ACDINTGL
 70
     0
  3
_ _ _ _ _
 72
    65
 73
     2
 40
3.0
 49
2.0
 74
     0
 49
-1.0
 74
     0
  0
ENDTAB
  0
TABLE
  2
LAYER
  5
13CB
330
0
100
AcDbSymbolTable
 70
    12
  0
LAYER
  5
13D7
330
13CB
100
AcDbSymbolTableRecord
100
AcDbLayerTableRecord
  2
0
 70
     0
 62
     7
  6
CONTINUOUS
370
    -3
390
15B5
  0
LAYER
  5
13F2
330
13CB
100
AcDbSymbolTableRecord
100
AcDbLayerTableRecord
  2
4
 70
     0
 62
     3
  6
CONTINUOUS
370
    -3
390
15B5
  0
LAYER
  5
13F4
330
13CB
100
AcDbSymbolTableRecord
100
AcDbLayerTableRecord
  2
5
 70
     0
 62
     3
  6
CONTINUOUS
370
    -3
390
15B5
  0
LAYER
  5
13F6
330
13CB
100
AcDbSymbolTableRecord
100
AcDbLayerTableRecord
  2
7
 70
     0
 62
     4
  6
GEN7
370
    -3
390
15B5
  0
LAYER
  5
13F7
330
13CB
100
AcDbSymbolTableRecord
100
AcDbLayerTableRecord
  2
8
 70
     0
 62
     1
  6
CONTINUOUS
370
    -3
390
15B5
  0
LAYER
  5
13F8
330
13CB
100
AcDbSymbolTableRecord
100
AcDbLayerTableRecord
  2
SCHRAFFUR_RAND
 70
     0
 62
   -36
  6
CONTINUOUS
370
    -3
390
15B5
  0
LAYER
  5
1420
330
13CB
100
AcDbSymbolTableRecord
100
AcDbLayerTableRecord
  2
DEFPOINTS
 70
     0
 62
     7
  6
CONTINUOUS
290
     0
370
    -3
390
15B5
  0
ENDTAB
  0
TABLE
  2
STYLE
  5
13CC
330
0
100
AcDbSymbolTable
 70
     4
  0
STYLE
  5
13D8
330
13CC
100
AcDbSymbolTableRecord
100
AcDbTextStyleTableRecord
  2
STANDARD
 70
     0
 40
0.0
 41
1.0
 50
0.0
 71
     0
 42
10.0
  3
ISOCP.SHX
  4

  0
STYLE
  5
162E
330
13CC
100
AcDbSymbolTableRecord
100
AcDbTextStyleTableRecord
  2

 70
     1
 40
0.0
 41
1.0
 50
0.0
 71
     0
 42
0.2
  3
genltshp.shx
  4

  0
STYLE
  5
1635
330
13CC
100
AcDbSymbolTableRecord
100
AcDbTextStyleTableRecord
  2
ACDINTS
 70
     0
 40
1.0
 41
1.0
 50
0.0
 71
     0
 42
0.2
  3
isocp.shx
  4

  0
STYLE
  5
1642
330
13CC
100
AcDbSymbolTableRecord
100
AcDbTextStyleTableRecord
  2
ACDINGDT
 70
     0
 40
0.0
 41
1.0
 50
0.0
 71
     0
 42
0.2
  3
AMGDT
  4

  0
ENDTAB
  0
TABLE
  2
VIEW
  5
13CF
330
0
100
AcDbSymbolTable
 70
     6
  0
VIEW
  5
1482
330
13CF
100
AcDbSymbolTableRecord
100
AcDbViewTableRecord
  2
GEN1
 70
     0
 40
525.0
 10
394.960474
 20
787.5
 41
789.920949
 11
0.0
 21
0.0
 31
1.0
 12
0.0
 22
0.0
 32
0.0
 42
50.0
 43
0.0
 44
0.0
 50
0.0
 71
     0
281
     0
 72
     0
  0
VIEW
  5
1483
330
13CF
100
AcDbSymbolTableRecord
100
AcDbViewTableRecord
  2
GEN2
 70
     0
 40
525.0
 10
655.039526
 20
787.5
 41
789.920949
 11
0.0
 21
0.0
 31
1.0
 12
0.0
 22
0.0
 32
0.0
 42
50.0
 43
0.0
 44
0.0
 50
0.0
 71
     0
281
     0
 72
     0
  0
VIEW
  5
1484
330
13CF
100
AcDbSymbolTableRecord
100
AcDbViewTableRecord
  2
GEN3
 70
     0
 40
525.0
 10
394.960474
 20
262.5
 41
789.920949
 11
0.0
 21
0.0
 31
1.0
 12
0.0
 22
0.0
 32
0.0
 42
50.0
 43
0.0
 44
0.0
 50
0.0
 71
     0
281
     0
 72
     0
  0
VIEW
  5
1485
330
13CF
100
AcDbSymbolTableRecord
100
AcDbViewTableRecord
  2
GEN4
 70
     0
 40
525.0
 10
655.039526
 20
262.5
 41
789.920949
 11
0.0
 21
0.0
 31
1.0
 12
0.0
 22
0.0
 32
0.0
 42
50.0
 43
0.0
 44
0.0
 50
0.0
 71
     0
281
     0
 72
     0
  0
VIEW
  5
1486
330
13CF
100
AcDbSymbolTableRecord
100
AcDbViewTableRecord
  2
GEN5
 70
     0
 40
525.0
 10
525.0
 20
525.0
 41
789.920949
 11
0.0
 21
0.0
 31
1.0
 12
0.0
 22
0.0
 32
0.0
 42
50.0
 43
0.0
 44
0.0
 50
0.0
 71
     0
281
     0
 72
     0
  0
VIEW
  5
1487
330
13CF
100
AcDbSymbolTableRecord
100
AcDbViewTableRecord
  2
GEN6
 70
     0
 40
1049.9895
 10
525.0
 20
525.0
 41
1579.826099
 11
0.0
 21
0.0
 31
1.0
 12
0.0
 22
0.0
 32
0.0
 42
50.0
 43
0.0
 44
0.0
 50
0.0
 71
     0
281
     0
 72
     0
  0
ENDTAB
  0
TABLE
  2
UCS
  5
13D0
330
0
100
AcDbSymbolTable
 70
     0
  0
ENDTAB
  0
TABLE
  2
APPID
  5
13D2
330
0
100
AcDbSymbolTable
 70
    36
  0
APPID
  5
13D9
330
13D2
100
AcDbSymbolTableRecord
100
AcDbRegAppTableRecord
  2
ACAD
 70
     0
  0
APPID
  5
140F
330
13D2
100
AcDbSymbolTableRecord
100
AcDbRegAppTableRecord
  2
GENIUS_GENCFG_13
 70
     0
1001
GENIUS_GENCFG0_13
1000
GEN@INFO_POS@XLATE
1001
GENIUS_GENCFG1_13
1000
GEN@INFO_POS
1001
GENIUS_GENCFG2_13
1000
GEN@LAYER@DEFS
1001
GENIUS_GENCFG3_13
1000
GEN@LAYER@ENTSORT
1001
GENIUS_GENCFG4_13
1000
GEN
1001
GENIUS_GEVCFG0_13
1000
GEV
1001
GENIUS_DUMCFG0_13
1000
DUM
  0
APPID
  5
1410
330
13D2
100
AcDbSymbolTableRecord
100
AcDbRegAppTableRecord
  2
GENIUS_DUMCFG0_13
 70
     0
1001
GENIUS_GENCFG_13
1071
921245616
1000
1410
1000
DUM
1070
     0
  0
APPID
  5
1411
330
13D2
100
AcDbSymbolTableRecord
100
AcDbRegAppTableRecord
  2
GENIUS_GENCFG0_13
 70
     0
1001
GENIUS_GENCFG_13
1071
1020870030
1000
1411
1000
GEN@INFO_POS@XLATE
1070
     7
1000
GenCfgObject
1000
GenCfgShort
1000
GenCfgReal
1000
GenCfgBool
1000
GenCfgString
1000
GenCfgDim
1000
GenCfgAttrInf
1000
INFOPOINTS
1070
     0
1002
{
1000
GENINF14
1070
     0
1002
{
1000
2GENINF
1070
     4
1000
2
1002
{
1002
}
1000
5GENINF
1070
     4
1000
5
1002
{
1002
}
1000
7GENINF
1070
     4
1000
7
1002
{
1002
}
1000
9GENINF
1070
     4
1000
9
1002
{
1002
}
1000
11GENINF
1070
     4
1000
11
1002
{
1002
}
1000
14GENINF
1070
     4
1000
14
1002
{
1002
}
1002
}
1000
GENINF13
1070
     0
1002
{
1000
2GENINF
1070
     4
1000
2
1002
{
1002
}
1000
3GENINF
1070
     4
1000
3
1002
{
1002
}
1000
4GENINF
1070
     4
1000
4
1002
{
1002
}
1000
5GENINF
1070
     4
1000
5
1002
{
1002
}
1000
6GENINF
1070
     4
1000
6
1002
{
1002
}
1000
7GENINF
1070
     4
1000
7
1002
{
1002
}
1000
8GENINF
1070
     4
1000
8
1002
{
1002
}
1000
9GENINF
1070
     4
1000
9
1002
{
1002
}
1000
10GENINF
1070
     4
1000
10
1002
{
1002
}
1000
11GENINF
1070
     4
1000
11
1002
{
1002
}
1000
12GENINF
1070
     4
1000
12
1002
{
1002
}
1000
13GENINF
1070
     4
1000
13
1002
{
1002
}
1000
14GENINF
1070
     4
1000
14
1002
{
1002
}
1000
15GENINF
1070
     4
1000
15
1002
{
1002
}
1000
16GENINF
1070
     4
1000
16
1002
{
1002
}
1000
17GENINF
1070
     4
1000
17
1002
{
1002
}
1000
18GENINF
1070
     4
1000
18
1002
{
1002
}
1000
19GENINF
1070
     4
1000
19
1002
{
1002
}
1000
20GENINF
1070
     4
1000
20
1002
{
1002
}
1000
21GENINF
1070
     4
1000
21
1002
{
1002
}
1000
22GENINF
1070
     4
1000
22
1002
{
1002
}
1000
23GENINF
1070
     4
1000
23
1002
{
1002
}
1000
24GENINF
1070
     4
1000
24
1002
{
1002
}
1000
0GENINF
1070
     4
1000
0
1002
{
1002
}
1002
}
1000
GENINFO
1070
     0
1002
{
1000
3GENINF
1070
     4
1000
3
1002
{
1002
}
1000
4GENINF
1070
     4
1000
4
1002
{
1002
}
1000
5GENINF
1070
     4
1000
5
1002
{
1002
}
1000
6GENINF
1070
     4
1000
6
1002
{
1002
}
1000
7GENINF
1070
     4
1000
7
1002
{
1002
}
1000
8GENINF
1070
     4
1000
8
1002
{
1002
}
1000
9GENINF
1070
     4
1000
9
1002
{
1002
}
1000
10GENINF
1070
     4
1000
10
1002
{
1002
}
1000
11GENINF
1070
     4
1000
11
1002
{
1002
}
1000
12GENINF
1070
     4
1000
12
1002
{
1002
}
1000
13GENINF
1070
     4
1000
13
1002
{
1002
}
1000
14GENINF
1070
     4
1000
14
1002
{
1002
}
1000
15GENINF
1070
     4
1000
15
1002
{
1002
}
1000
16GENINF
1070
     4
1000
16
1002
{
1002
}
1000
17GENINF
1070
     4
1000
17
1002
{
1002
}
1000
18GENINF
1070
     4
1000
18
1002
{
1002
}
1000
19GENINF
1070
     4
1000
19
1002
{
1002
}
1000
20GENINF
1070
     4
1000
20
1002
{
1002
}
1000
21GENINF
1070
     4
1000
21
1002
{
1002
}
1000
22GENINF
1070
     4
1000
22
1002
{
1002
}
1002
}
1000
DININFO
1070
     0
1002
{
1000
ST-NAME1
1070
     4
1000
5
1002
{
1002
}
1000
ST-NAME2
1070
     4
1000
6
1002
{
1002
}
1000
ST-NORM1
1070
     4
1000
7
1002
{
1002
}
1000
ST-NORM2
1070
     4
1000
8
1002
{
1002
}
1000
ST-MAT1
1070
     4
1000
9
1002
{
1002
}
1000
ST-MAT2
1070
     4
1000
10
1002
{
1002
}
1002
}
1002
}
1000
POS_NUMBERS
1070
     0
1002
{
1000
GENPOS14
1070
     0
1002
{
1000
1GENPOS
1070
     4
1000
1
1002
{
1002
}
1000
2GENPOS
1070
     4
1000
2
1002
{
1002
}
1000
5GENPOS
1070
     4
1000
5
1002
{
1002
}
1000
7GENPOS
1070
     4
1000
7
1002
{
1002
}
1000
9GENPOS
1070
     4
1000
9
1002
{
1002
}
1000
11GENPOS
1070
     4
1000
11
1002
{
1002
}
1000
14GENPOS
1070
     4
1000
14
1002
{
1002
}
1002
}
1000
GENPOS13
1070
     0
1002
{
1000
1GENPOS
1070
     4
1000
1
1002
{
1002
}
1000
2GENPOS
1070
     4
1000
2
1002
{
1002
}
1000
3GENPOS
1070
     4
1000
3
1002
{
1002
}
1000
4GENPOS
1070
     4
1000
4
1002
{
1002
}
1000
5GENPOS
1070
     4
1000
5
1002
{
1002
}
1000
6GENPOS
1070
     4
1000
6
1002
{
1002
}
1000
7GENPOS
1070
     4
1000
7
1002
{
1002
}
1000
8GENPOS
1070
     4
1000
8
1002
{
1002
}
1000
9GENPOS
1070
     4
1000
9
1002
{
1002
}
1000
10GENPOS
1070
     4
1000
10
1002
{
1002
}
1000
11GENPOS
1070
     4
1000
11
1002
{
1002
}
1000
12GENPOS
1070
     4
1000
12
1002
{
1002
}
1000
13GENPOS
1070
     4
1000
13
1002
{
1002
}
1000
14GENPOS
1070
     4
1000
14
1002
{
1002
}
1000
15GENPOS
1070
     4
1000
15
1002
{
1002
}
1000
16GENPOS
1070
     4
1000
16
1002
{
1002
}
1000
17GENPOS
1070
     4
1000
17
1002
{
1002
}
1000
18GENPOS
1070
     4
1000
18
1002
{
1002
}
1000
19GENPOS
1070
     4
1000
19
1002
{
1002
}
1000
20GENPOS
1070
     4
1000
20
1002
{
1002
}
1000
21GENPOS
1070
     4
1000
21
1002
{
1002
}
1000
22GENPOS
1070
     4
1000
22
1002
{
1002
}
1000
23GENPOS
1070
     4
1000
23
1002
{
1002
}
1000
24GENPOS
1070
     4
1000
24
1002
{
1002
}
1000
0GENPOS
1070
     4
1000
0
1002
{
1002
}
1002
}
1000
GENPOS
1070
     0
1002
{
1000
1GENPOS
1070
     4
1000
1
1002
{
1002
}
1000
2GENPOS
1070
     4
1000
2
1002
{
1002
}
1000
3GENPOS
1070
     4
1000
3
1002
{
1002
}
1000
4GENPOS
1070
     4
1000
4
1002
{
1002
}
1000
5GENPOS
1070
     4
1000
5
1002
{
1002
}
1000
6GENPOS
1070
     4
1000
6
1002
{
1002
}
1000
7GENPOS
1070
     4
1000
7
1002
{
1002
}
1000
8GENPOS
1070
     4
1000
8
1002
{
1002
}
1000
9GENPOS
1070
     4
1000
9
1002
{
1002
}
1000
10GENPOS
1070
     4
1000
10
1002
{
1002
}
1000
11GENPOS
1070
     4
1000
11
1002
{
1002
}
1000
12GENPOS
1070
     4
1000
12
1002
{
1002
}
1000
13GENPOS
1070
     4
1000
13
1002
{
1002
}
1000
14GENPOS
1070
     4
1000
14
1002
{
1002
}
1000
15GENPOS
1070
     4
1000
15
1002
{
1002
}
1000
16GENPOS
1070
     4
1000
16
1002
{
1002
}
1000
17GENPOS
1070
     4
1000
17
1002
{
1002
}
1000
18GENPOS
1070
     4
1000
18
1002
{
1002
}
1000
19GENPOS
1070
     4
1000
19
1002
{
1002
}
1000
20GENPOS
1070
     4
1000
20
1002
{
1002
}
1000
21GENPOS
1070
     4
1000
21
1002
{
1002
}
1000
22GENPOS
1070
     4
1000
22
1002
{
1002
}
1000
23GENPOS
1070
     4
1000
23
1002
{
1002
}
1002
}
1000
DIN985
1070
     0
1002
{
1000
POSITION
1070
     4
1000
1
1002
{
1002
}
1000
MENGE
1070
     4
1000
2
1002
{
1002
}
1000
BLATT
1070
     4
1000
3
1002
{
1002
}
1000
BENENN
1070
     4
1000
5
1002
{
1002
}
1000
BENENN2
1070
     4
1000
6
1002
{
1002
}
1000
NORM
1070
     4
1000
7
1002
{
1002
}
1000
NORM2
1070
     4
1000
8
1002
{
1002
}
1000
WERKSTOFF
1070
     4
1000
9
1002
{
1002
}
1000
WERKSTOFF2
1070
     4
1000
10
1002
{
1002
}
1002
}
1000
DIN986
1070
     0
1002
{
1000
POSITION
1070
     4
1000
1
1002
{
1002
}
1000
MENGE
1070
     4
1000
2
1002
{
1002
}
1000
BLATT
1070
     4
1000
3
1002
{
1002
}
1000
BENENN
1070
     4
1000
5
1002
{
1002
}
1000
BENENN2
1070
     4
1000
6
1002
{
1002
}
1000
NORM
1070
     4
1000
7
1002
{
1002
}
1000
NORM2
1070
     4
1000
8
1002
{
1002
}
1000
WERKSTOFF
1070
     4
1000
9
1002
{
1002
}
1000
WERKSTOFF2
1070
     4
1000
10
1002
{
1002
}
1002
}
1000
DIN987
1070
     0
1002
{
1000
POSITION
1070
     4
1000
1
1002
{
1002
}
1000
MENGE
1070
     4
1000
2
1002
{
1002
}
1000
BLATT
1070
     4
1000
3
1002
{
1002
}
1000
BENENN
1070
     4
1000
5
1002
{
1002
}
1000
BENENN2
1070
     4
1000
6
1002
{
1002
}
1000
NORM
1070
     4
1000
7
1002
{
1002
}
1000
NORM2
1070
     4
1000
8
1002
{
1002
}
1000
WERKSTOFF
1070
     4
1000
9
1002
{
1002
}
1000
WERKSTOFF2
1070
     4
1000
10
1002
{
1002
}
1002
}
1002
}
  0
APPID
  5
1412
330
13D2
100
AcDbSymbolTableRecord
100
AcDbRegAppTableRecord
  2
GENIUS_GENCFG1_13
 70
     0
1001
GENIUS_GENCFG_13
1071
1020870030
1000
1412
1000
GEN@INFO_POS
1070
     7
1000
GenCfgObject
1000
GenCfgShort
1000
GenCfgReal
1000
GenCfgBool
1000
GenCfgString
1000
GenCfgDim
1000
GenCfgAttrInf
1000
DescrText
1070
     4
1000
5, ,6, ,7, ,8
1002
{
1002
}
1000
DescrText2
1070
     4
1000
26
1002
{
1002
}
1000
VisibleAttr1
1070
     4
1000
1
1002
{
1002
}
1000
VisibleAttr2
1070
     4
1000
26
1002
{
1002
}
1000
UpdateBlock
1070
     3
1070
     1
1002
{
1002
}
1000
Attrib
1070
     0
1002
{
1000
0
1070
     6
1002
{
1000
Prompt
1070
     4
1000
(genmsg gendwg 103)
1002
{
1002
}
1000
Value
1070
     4
1000

1002
{
1002
}
1000
EditFlag
1070
     1
1070
     0
1002
{
1002
}
1000
PosInDDATTE
1070
     1
1070
    27
1002
{
1002
}
1000
FieldLen
1070
     1
1070
    -1
1002
{
1002
}
1002
}
1000
1
1070
     6
1002
{
1000
Prompt
1070
     4
1000
(genmsg gendwg 31)
1002
{
1002
}
1000
Value
1070
     4
1000
1
1002
{
1002
}
1000
EditFlag
1070
     1
1070
     1
1002
{
1002
}
1000
PosInDDATTE
1070
     1
1070
     1
1002
{
1002
}
1000
FieldLen
1070
     1
1070
    -1
1002
{
1002
}
1002
}
1000
2
1070
     6
1002
{
1000
Prompt
1070
     4
1000
(genmsg gendwg 32)
1002
{
1002
}
1000
Value
1070
     4
1000
1
1002
{
1002
}
1000
EditFlag
1070
     1
1070
     1
1002
{
1002
}
1000
PosInDDATTE
1070
     1
1070
     2
1002
{
1002
}
1000
FieldLen
1070
     1
1070
    -1
1002
{
1002
}
1002
}
1000
3
1070
     6
1002
{
1000
Prompt
1070
     4
1000
(genmsg gendwg 33)
1002
{
1002
}
1000
Value
1070
     4
1000

1002
{
1002
}
1000
EditFlag
1070
     1
1070
     1
1002
{
1002
}
1000
PosInDDATTE
1070
     1
1070
     3
1002
{
1002
}
1000
FieldLen
1070
     1
1070
    -1
1002
{
1002
}
1002
}
1000
4
1070
     6
1002
{
1000
Prompt
1070
     4
1000
(genmsg gendwg 34)
1002
{
1002
}
1000
Value
1070
     4
1000

1002
{
1002
}
1000
EditFlag
1070
     1
1070
     1
1002
{
1002
}
1000
PosInDDATTE
1070
     1
1070
     4
1002
{
1002
}
1000
FieldLen
1070
     1
1070
    -1
1002
{
1002
}
1002
}
1000
5
1070
     6
1002
{
1000
Prompt
1070
     4
1000
(genmsg gendwg 35)
1002
{
1002
}
1000
Value
1070
     4
1000

1002
{
1002
}
1000
EditFlag
1070
     1
1070
     1
1002
{
1002
}
1000
PosInDDATTE
1070
     1
1070
     5
1002
{
1002
}
1000
FieldLen
1070
     1
1070
    -1
1002
{
1002
}
1002
}
1000
6
1070
     6
1002
{
1000
Prompt
1070
     4
1000
(genmsg gendwg 36)
1002
{
1002
}
1000
Value
1070
     4
1000

1002
{
1002
}
1000
EditFlag
1070
     1
1070
     1
1002
{
1002
}
1000
PosInDDATTE
1070
     1
1070
     6
1002
{
1002
}
1000
FieldLen
1070
     1
1070
    -1
1002
{
1002
}
1002
}
1000
7
1070
     6
1002
{
1000
Prompt
1070
     4
1000
(genmsg gendwg 37)
1002
{
1002
}
1000
Value
1070
     4
1000

1002
{
1002
}
1000
EditFlag
1070
     1
1070
     1
1002
{
1002
}
1000
PosInDDATTE
1070
     1
1070
     7
1002
{
1002
}
1000
FieldLen
1070
     1
1070
    -1
1002
{
1002
}
1002
}
1000
8
1070
     6
1002
{
1000
Prompt
1070
     4
1000
(genmsg gendwg 38)
1002
{
1002
}
1000
Value
1070
     4
1000

1002
{
1002
}
1000
EditFlag
1070
     1
1070
     1
1002
{
1002
}
1000
PosInDDATTE
1070
     1
1070
     8
1002
{
1002
}
1000
FieldLen
1070
     1
1070
    -1
1002
{
1002
}
1002
}
1000
9
1070
     6
1002
{
1000
Prompt
1070
     4
1000
(genmsg gendwg 39)
1002
{
1002
}
1000
Value
1070
     4
1000

1002
{
1002
}
1000
EditFlag
1070
     1
1070
     1
1002
{
1002
}
1000
PosInDDATTE
1070
     1
1070
     9
1002
{
1002
}
1000
FieldLen
1070
     1
1070
    -1
1002
{
1002
}
1002
}
1000
10
1070
     6
1002
{
1000
Prompt
1070
     4
1000
(genmsg gendwg 40)
1002
{
1002
}
1000
Value
1070
     4
1000

1002
{
1002
}
1000
EditFlag
1070
     1
1070
     1
1002
{
1002
}
1000
PosInDDATTE
1070
     1
1070
    10
1002
{
1002
}
1000
FieldLen
1070
     1
1070
    -1
1002
{
1002
}
1002
}
1000
11
1070
     6
1002
{
1000
Prompt
1070
     4
1000
(genmsg gendwg 41)
1002
{
1002
}
1000
Value
1070
     4
1000

1002
{
1002
}
1000
EditFlag
1070
     1
1070
     1
1002
{
1002
}
1000
PosInDDATTE
1070
     1
1070
    11
1002
{
1002
}
1000
FieldLen
1070
     1
1070
    -1
1002
{
1002
}
1002
}
1000
12
1070
     6
1002
{
1000
Prompt
1070
     4
1000
(genmsg gendwg 42)
1002
{
1002
}
1000
Value
1070
     4
1000

1002
{
1002
}
1000
EditFlag
1070
     1
1070
     1
1002
{
1002
}
1000
PosInDDATTE
1070
     1
1070
    12
1002
{
1002
}
1000
FieldLen
1070
     1
1070
    -1
1002
{
1002
}
1002
}
1000
13
1070
     6
1002
{
1000
Prompt
1070
     4
1000
(genmsg gendwg 43)
1002
{
1002
}
1000
Value
1070
     4
1000

1002
{
1002
}
1000
EditFlag
1070
     1
1070
     1
1002
{
1002
}
1000
PosInDDATTE
1070
     1
1070
    13
1002
{
1002
}
1000
FieldLen
1070
     1
1070
    -1
1002
{
1002
}
1002
}
1000
14
1070
     6
1002
{
1000
Prompt
1070
     4
1000
(genmsg gendwg 44)
1002
{
1002
}
1000
Value
1070
     4
1000

1002
{
1002
}
1000
EditFlag
1070
     1
1070
     1
1002
{
1002
}
1000
PosInDDATTE
1070
     1
1070
    14
1002
{
1002
}
1000
FieldLen
1070
     1
1070
    -1
1002
{
1002
}
1002
}
1000
15
1070
     6
1002
{
1000
Prompt
1070
     4
1000
(genmsg gendwg 45)
1002
{
1002
}
1000
Value
1070
     4
1000

1002
{
1002
}
1000
EditFlag
1070
     1
1070
     1
1002
{
1002
}
1000
PosInDDATTE
1070
     1
1070
    15
1002
{
1002
}
1000
FieldLen
1070
     1
1070
    -1
1002
{
1002
}
1002
}
1000
16
1070
     6
1002
{
1000
Prompt
1070
     4
1000
(genmsg gendwg 46)
1002
{
1002
}
1000
Value
1070
     4
1000

1002
{
1002
}
1000
EditFlag
1070
     1
1070
     1
1002
{
1002
}
1000
PosInDDATTE
1070
     1
1070
    16
1002
{
1002
}
1000
FieldLen
1070
     1
1070
    -1
1002
{
1002
}
1002
}
1000
17
1070
     6
1002
{
1000
Prompt
1070
     4
1000
(genmsg gendwg 47)
1002
{
1002
}
1000
Value
1070
     4
1000

1002
{
1002
}
1000
EditFlag
1070
     1
1070
     1
1002
{
1002
}
1000
PosInDDATTE
1070
     1
1070
    17
1002
{
1002
}
1000
FieldLen
1070
     1
1070
    -1
1002
{
1002
}
1002
}
1000
18
1070
     6
1002
{
1000
Prompt
1070
     4
1000
(genmsg gendwg 48)
1002
{
1002
}
1000
Value
1070
     4
1000

1002
{
1002
}
1000
EditFlag
1070
     1
1070
     1
1002
{
1002
}
1000
PosInDDATTE
1070
     1
1070
    18
1002
{
1002
}
1000
FieldLen
1070
     1
1070
    -1
1002
{
1002
}
1002
}
1000
19
1070
     6
1002
{
1000
Prompt
1070
     4
1000
(genmsg gendwg 99)
1002
{
1002
}
1000
Value
1070
     4
1000

1002
{
1002
}
1000
EditFlag
1070
     1
1070
     1
1002
{
1002
}
1000
PosInDDATTE
1070
     1
1070
    19
1002
{
1002
}
1000
FieldLen
1070
     1
1070
    -1
1002
{
1002
}
1002
}
1000
20
1070
     6
1002
{
1000
Prompt
1070
     4
1000
(genmsg gendwg 100)
1002
{
1002
}
1000
Value
1070
     4
1000

1002
{
1002
}
1000
EditFlag
1070
     1
1070
     1
1002
{
1002
}
1000
PosInDDATTE
1070
     1
1070
    20
1002
{
1002
}
1000
FieldLen
1070
     1
1070
    -1
1002
{
1002
}
1002
}
1000
21
1070
     6
1002
{
1000
Prompt
1070
     4
1000
(genmsg gendwg 101)
1002
{
1002
}
1000
Value
1070
     4
1000

1002
{
1002
}
1000
EditFlag
1070
     1
1070
     1
1002
{
1002
}
1000
PosInDDATTE
1070
     1
1070
    21
1002
{
1002
}
1000
FieldLen
1070
     1
1070
    -1
1002
{
1002
}
1002
}
1000
22
1070
     6
1002
{
1000
Prompt
1070
     4
1000
(genmsg gendwg 102)
1002
{
1002
}
1000
Value
1070
     4
1000

1002
{
1002
}
1000
EditFlag
1070
     1
1070
     1
1002
{
1002
}
1000
PosInDDATTE
1070
     1
1070
    22
1002
{
1002
}
1000
FieldLen
1070
     1
1070
    -1
1002
{
1002
}
1002
}
1000
23
1070
     6
1002
{
1000
Prompt
1070
     4
1000
(genmsg gendwg 30)
1002
{
1002
}
1000
Value
1070
     4
1000

1002
{
1002
}
1000
EditFlag
1070
     1
1070
     1
1002
{
1002
}
1000
PosInDDATTE
1070
     1
1070
    23
1002
{
1002
}
1000
FieldLen
1070
     1
1070
    -1
1002
{
1002
}
1002
}
1000
24
1070
     6
1002
{
1000
Prompt
1070
     4
1000
(genmsg gendwg 104)
1002
{
1002
}
1000
Value
1070
     4
1000

1002
{
1002
}
1000
EditFlag
1070
     1
1070
     1
1002
{
1002
}
1000
PosInDDATTE
1070
     1
1070
    24
1002
{
1002
}
1000
FieldLen
1070
     1
1070
    -1
1002
{
1002
}
1002
}
1000
25
1070
     6
1002
{
1000
Prompt
1070
     4
1000
(genmsg gendwg 105)
1002
{
1002
}
1000
Value
1070
     4
1000

1002
{
1002
}
1000
EditFlag
1070
     1
1070
     1
1002
{
1002
}
1000
PosInDDATTE
1070
     1
1070
    25
1002
{
1002
}
1000
FieldLen
1070
     1
1070
    -1
1002
{
1002
}
1002
}
1000
26
1070
     6
1002
{
1000
Prompt
1070
     4
1000
(genmsg gendwg 106)
1002
{
1002
}
1000
Value
1070
     4
1000

1002
{
1002
}
1000
EditFlag
1070
     1
1070
     1
1002
{
1002
}
1000
PosInDDATTE
1070
     1
1070
    26
1002
{
1002
}
1000
FieldLen
1070
     1
1070
    -1
1002
{
1002
}
1002
}
1000
27
1070
     6
1002
{
1000
Prompt
1070
     4
1000
(genmsg gendwg 109)
1002
{
1002
}
1000
Value
1070
     4
1000

1002
{
1002
}
1000
EditFlag
1070
     1
1070
     2
1002
{
1002
}
1000
PosInDDATTE
1070
     1
1070
    27
1002
{
1002
}
1000
FieldLen
1070
     1
1070
    -1
1002
{
1002
}
1002
}
1002
}
1000
Xlate
1070
     0
1002
{
1000
>
1002
}
  0
APPID
  5
1413
330
13D2
100
AcDbSymbolTableRecord
100
AcDbRegAppTableRecord
  2
GENIUS_GENCFG2_13
 70
     0
1001
GENIUS_GENCFG_13
1071
1020870030
1000
1413
1000
GEN@LAYER@DEFS
1070
     9
1000
GenCfgObject
1000
GenCfgShort
1000
GenCfgReal
1000
GenCfgBool
1000
GenCfgString
1000
GenCfgDim
1000
GenCfgAttrInf
1000
GenCfgLaySection
1000
GenCfgLayer
1000
Basic
1070
     0
1002
{
1000
0
1070
     8
1000
0
1002
{
1000
Color
1070
     1
1070
     7
1002
{
1002
}
1000
LType
1070
     4
1000
CONTINUOUS
1002
{
1002
}
1000
Base
1070
     3
1070
     0
1002
{
1002
}
1002
}
1000
1
1070
     8
1000
1
1002
{
1000
Color
1070
     1
1070
    14
1002
{
1002
}
1000
LType
1070
     4
1000
CONTINUOUS
1002
{
1002
}
1000
Base
1070
     3
1070
     0
1002
{
1002
}
1002
}
1000
2
1070
     8
1000
2
1002
{
1000
Color
1070
     1
1070
     5
1002
{
1002
}
1000
LType
1070
     4
1000
CONTINUOUS
1002
{
1002
}
1000
Base
1070
     3
1070
     0
1002
{
1002
}
1002
}
1000
3
1070
     8
1000
3
1002
{
1000
Color
1070
     1
1070
     6
1002
{
1002
}
1000
LType
1070
     4
1000
GEN3
1002
{
1002
}
1000
Base
1070
     3
1070
     0
1002
{
1002
}
1002
}
1000
4
1070
     8
1000
4
1002
{
1000
Color
1070
     1
1070
     3
1002
{
1002
}
1000
LType
1070
     4
1000
CONTINUOUS
1002
{
1002
}
1000
Base
1070
     3
1070
     0
1002
{
1002
}
1002
}
1000
5
1070
     8
1000
5
1002
{
1000
Color
1070
     1
1070
     3
1002
{
1002
}
1000
LType
1070
     4
1000
CONTINUOUS
1002
{
1002
}
1000
Base
1070
     3
1070
     0
1002
{
1002
}
1002
}
1000
6
1070
     8
1000
6
1002
{
1000
Color
1070
     1
1070
     2
1002
{
1002
}
1000
LType
1070
     4
1000
CONTINUOUS
1002
{
1002
}
1000
Base
1070
     3
1070
     0
1002
{
1002
}
1002
}
1000
7
1070
     8
1000
7
1002
{
1000
Color
1070
     1
1070
     4
1002
{
1002
}
1000
LType
1070
     4
1000
GEN7
1002
{
1002
}
1000
Base
1070
     3
1070
     0
1002
{
1002
}
1002
}
1000
8
1070
     8
1000
8
1002
{
1000
Color
1070
     1
1070
     1
1002
{
1002
}
1000
LType
1070
     4
1000
CONTINUOUS
1002
{
1002
}
1000
Base
1070
     3
1070
     0
1002
{
1002
}
1002
}
1000
3A
1070
     8
1000
3A
1002
{
1000
Color
1070
     1
1070
     6
1002
{
1002
}
1000
LType
1070
     4
1000
GEN3A
1002
{
1002
}
1000
Base
1070
     3
1070
     0
1002
{
1002
}
1002
}
1000
7A
1070
     8
1000
7A
1002
{
1000
Color
1070
     1
1070
     4
1002
{
1002
}
1000
LType
1070
     4
1000
GEN7A
1002
{
1002
}
1000
Base
1070
     3
1070
     0
1002
{
1002
}
1002
}
1000
2A
1070
     8
1000
2A
1002
{
1000
Color
1070
     1
1070
     7
1002
{
1002
}
1000
LType
1070
     4
1000
GEN7
1002
{
1002
}
1000
Base
1070
     3
1070
     0
1002
{
1002
}
1002
}
1000
4A
1070
     8
1000
4A
1002
{
1000
Color
1070
     1
1070
     3
1002
{
1002
}
1000
LType
1070
     4
1000
GEN4A
1002
{
1002
}
1000
Base
1070
     3
1070
     0
1002
{
1002
}
1002
}
1000
9
1070
     8
1000
9
1002
{
1000
Color
1070
     1
1070
   253
1002
{
1002
}
1000
LType
1070
     4
1000
CONTINUOUS
1002
{
1002
}
1000
Base
1070
     3
1070
     0
1002
{
1002
}
1002
}
1000
IP
1070
     8
1000
IP
1002
{
1000
Color
1070
     1
1070
     7
1002
{
1002
}
1000
LType
1070
     4
1000
CONTINUOUS
1002
{
1002
}
1000
Base
1070
     3
1070
     0
1002
{
1002
}
1002
}
1002
}
1000
Standard
1070
     0
1002
{
1000
0N
1070
     8
1000
0N
1002
{
1000
Color
1070
     1
1070
     7
1002
{
1002
}
1000
LType
1070
     4
1000
CONTINUOUS
1002
{
1002
}
1000
Base
1070
     3
1070
     0
1002
{
1002
}
1002
}
1000
1N
1070
     8
1000
1N
1002
{
1000
Color
1070
     1
1070
    14
1002
{
1002
}
1000
LType
1070
     4
1000
CONTINUOUS
1002
{
1002
}
1000
Base
1070
     3
1070
     0
1002
{
1002
}
1002
}
1000
2N
1070
     8
1000
2N
1002
{
1000
Color
1070
     1
1070
     5
1002
{
1002
}
1000
LType
1070
     4
1000
CONTINUOUS
1002
{
1002
}
1000
Base
1070
     3
1070
     0
1002
{
1002
}
1002
}
1000
3N
1070
     8
1000
3N
1002
{
1000
Color
1070
     1
1070
     6
1002
{
1002
}
1000
LType
1070
     4
1000
GEN3
1002
{
1002
}
1000
Base
1070
     3
1070
     0
1002
{
1002
}
1002
}
1000
4N
1070
     8
1000
4N
1002
{
1000
Color
1070
     1
1070
     3
1002
{
1002
}
1000
LType
1070
     4
1000
CONTINUOUS
1002
{
1002
}
1000
Base
1070
     3
1070
     0
1002
{
1002
}
1002
}
1000
5N
1070
     8
1000
5N
1002
{
1000
Color
1070
     1
1070
     3
1002
{
1002
}
1000
LType
1070
     4
1000
CONTINUOUS
1002
{
1002
}
1000
Base
1070
     3
1070
     0
1002
{
1002
}
1002
}
1000
6N
1070
     8
1000
6N
1002
{
1000
Color
1070
     1
1070
     2
1002
{
1002
}
1000
LType
1070
     4
1000
CONTINUOUS
1002
{
1002
}
1000
Base
1070
     3
1070
     0
1002
{
1002
}
1002
}
1000
7N
1070
     8
1000
7N
1002
{
1000
Color
1070
     1
1070
     4
1002
{
1002
}
1000
LType
1070
     4
1000
GEN7
1002
{
1002
}
1000
Base
1070
     3
1070
     0
1002
{
1002
}
1002
}
1000
8N
1070
     8
1000
8N
1002
{
1000
Color
1070
     1
1070
     1
1002
{
1002
}
1000
LType
1070
     4
1000
CONTINUOUS
1002
{
1002
}
1000
Base
1070
     3
1070
     0
1002
{
1002
}
1002
}
1000
3AN
1070
     8
1000
3AN
1002
{
1000
Color
1070
     1
1070
     6
1002
{
1002
}
1000
LType
1070
     4
1000
GEN3A
1002
{
1002
}
1000
Base
1070
     3
1070
     0
1002
{
1002
}
1002
}
1000
7AN
1070
     8
1000
7AN
1002
{
1000
Color
1070
     1
1070
     4
1002
{
1002
}
1000
LType
1070
     4
1000
GEN7A
1002
{
1002
}
1000
Base
1070
     3
1070
     0
1002
{
1002
}
1002
}
1000
2AN
1070
     8
1000
2AN
1002
{
1000
Color
1070
     1
1070
     7
1002
{
1002
}
1000
LType
1070
     4
1000
GEN7
1002
{
1002
}
1000
Base
1070
     3
1070
     0
1002
{
1002
}
1002
}
1000
4AN
1070
     8
1000
4AN
1002
{
1000
Color
1070
     1
1070
     3
1002
{
1002
}
1000
LType
1070
     4
1000
GEN4A
1002
{
1002
}
1000
Base
1070
     3
1070
     0
1002
{
1002
}
1002
}
1000
9N
1070
     8
1000
9N
1002
{
1000
Color
1070
     1
1070
   253
1002
{
1002
}
1000
LType
1070
     4
1000
CONTINUOUS
1002
{
1002
}
1000
Base
1070
     3
1070
     0
1002
{
1002
}
1002
}
1000
IPN
1070
     8
1000
IPN
1002
{
1000
Color
1070
     1
1070
     7
1002
{
1002
}
1000
LType
1070
     4
1000
CONTINUOUS
1002
{
1002
}
1000
Base
1070
     3
1070
     0
1002
{
1002
}
1002
}
1002
}
1000
Extra
1070
     0
1002
{
1000
Klin
1070
     8
1000
KLIN
1002
{
1000
Color
1070
     1
1070
     1
1002
{
1002
}
1000
LType
1070
     4
1000
CONTINUOUS
1002
{
1002
}
1000
Base
1070
     3
1070
     1
1002
{
1002
}
1002
}
1000
Info
1070
     8
1000
INFO
1002
{
1000
Color
1070
     1
1070
     4
1002
{
1002
}
1000
LType
1070
     4
1000
CONTINUOUS
1002
{
1002
}
1000
Base
1070
     3
1070
     1
1002
{
1002
}
1002
}
1000
Rahm2
1070
     8
1000
RAHM2
1002
{
1000
Color
1070
     1
1070
     1
1002
{
1002
}
1000
LType
1070
     4
1000
CONTINUOUS
1002
{
1002
}
1000
Base
1070
     3
1070
     1
1002
{
1002
}
1002
}
1000
Rahm3
1070
     8
1000
RAHM3
1002
{
1000
Color
1070
     1
1070
     2
1002
{
1002
}
1000
LType
1070
     4
1000
CONTINUOUS
1002
{
1002
}
1000
Base
1070
     3
1070
     1
1002
{
1002
}
1002
}
1000
Rahm5
1070
     8
1000
RAHM5
1002
{
1000
Color
1070
     1
1070
     7
1002
{
1002
}
1000
LType
1070
     4
1000
CONTINUOUS
1002
{
1002
}
1000
Base
1070
     3
1070
     1
1002
{
1002
}
1002
}
1000
View
1070
     8
1000
VIEW
1002
{
1000
Color
1070
     1
1070
     1
1002
{
1002
}
1000
LType
1070
     4
1000
CONTINUOUS
1002
{
1002
}
1000
Base
1070
     3
1070
     1
1002
{
1002
}
1002
}
1000
Behind
1070
     8
1000
BEHIND
1002
{
1000
Color
1070
     1
1070
   253
1002
{
1002
}
1000
LType
1070
     4
1000
CONTINUOUS
1002
{
1002
}
1000
Base
1070
     3
1070
     1
1002
{
1002
}
1002
}
1002
}
  0
APPID
  5
1414
330
13D2
100
AcDbSymbolTableRecord
100
AcDbRegAppTableRecord
  2
GENIUS_GENCFG3_13
 70
     0
1001
GENIUS_GENCFG_13
1071
1020870030
1000
1414
1000
GEN@LAYER@ENTSORT
1070
    10
1000
GenCfgObject
1000
GenCfgShort
1000
GenCfgReal
1000
GenCfgBool
1000
GenCfgString
1000
GenCfgDim
1000
GenCfgAttrInf
1000
GenCfgLaySection
1000
GenCfgLayer
1000
GenCfgEntSort
1000
ADDL
1070
     9
1000
5
1002
{
1000
Class
1070
     4
1000
SYM
1002
{
1002
}
1000
Color
1070
     1
1070
     1
1002
{
1002
}
1000
LType
1070
     4
1000
BYLAYER
1002
{
1002
}
1002
}
1000
ALTR
1070
     9
1000
4
1002
{
1000
Class
1070
     4
1000

1002
{
1002
}
1000
Color
1070
     1
1070
     7
1002
{
1002
}
1000
LType
1070
     4
1000
GEN3A
1002
{
1002
}
1002
}
1000
BELI
1070
     9
1000
4
1002
{
1000
Class
1070
     4
1000

1002
{
1002
}
1000
Color
1070
     1
1070
   256
1002
{
1002
}
1000
LType
1070
     4
1000
BYLAYER
1002
{
1002
}
1002
}
1000
BHNV
1070
     9
1000
9
1002
{
1000
Class
1070
     4
1000
INV
1002
{
1002
}
1000
Color
1070
     1
1070
   256
1002
{
1002
}
1000
LType
1070
     4
1000
BYLAYER
1002
{
1002
}
1002
}
1000
BHNVS
1070
     9
1000
BEHIND
1002
{
1000
Class
1070
     4
1000
INV
1002
{
1002
}
1000
Color
1070
     1
1070
   256
1002
{
1002
}
1000
LType
1070
     4
1000
BYLAYER
1002
{
1002
}
1002
}
1000
BLID
1070
     9
1000
4A
1002
{
1000
Class
1070
     4
1000

1002
{
1002
}
1000
Color
1070
     1
1070
   256
1002
{
1002
}
1000
LType
1070
     4
1000
BYLAYER
1002
{
1002
}
1002
}
1000
BOAP
1070
     9
1000
4A
1002
{
1000
Class
1070
     4
1000

1002
{
1002
}
1000
Color
1070
     1
1070
   256
1002
{
1002
}
1000
LType
1070
     4
1000
BYLAYER
1002
{
1002
}
1002
}
1000
BOR2
1070
     9
1000
RAHM2
1002
{
1000
Class
1070
     4
1000
SPZ,SYM
1002
{
1002
}
1000
Color
1070
     1
1070
   256
1002
{
1002
}
1000
LType
1070
     4
1000
BYLAYER
1002
{
1002
}
1002
}
1000
BOR3
1070
     9
1000
RAHM3
1002
{
1000
Class
1070
     4
1000
SPZ,SYM
1002
{
1002
}
1000
Color
1070
     1
1070
   256
1002
{
1002
}
1000
LType
1070
     4
1000
BYLAYER
1002
{
1002
}
1002
}
1000
BOR5
1070
     9
1000
RAHM5
1002
{
1000
Class
1070
     4
1000
SPZ,SYM
1002
{
1002
}
1000
Color
1070
     1
1070
   256
1002
{
1002
}
1000
LType
1070
     4
1000
BYLAYER
1002
{
1002
}
1002
}
1000
BOR7
1070
     9
1000
RAHM5
1002
{
1000
Class
1070
     4
1000
SPZ,SYM
1002
{
1002
}
1000
Color
1070
     1
1070
     7
1002
{
1002
}
1000
LType
1070
     4
1000
CONTINUOUS
1002
{
1002
}
1002
}
1000
BPAP
1070
     9
1000
4A
1002
{
1000
Class
1070
     4
1000

1002
{
1002
}
1000
Color
1070
     1
1070
   256
1002
{
1002
}
1000
LType
1070
     4
1000
BYLAYER
1002
{
1002
}
1002
}
1000
BPEX
1070
     9
1000
4A
1002
{
1000
Class
1070
     4
1000

1002
{
1002
}
1000
Color
1070
     1
1070
   256
1002
{
1002
}
1000
LType
1070
     4
1000
BYLAYER
1002
{
1002
}
1002
}
1000
BTDI
1070
     9
1000
5
1002
{
1000
Class
1070
     4
1000
DIM,SYM
1002
{
1002
}
1000
Color
1070
     1
1070
   256
1002
{
1002
}
1000
LType
1070
     4
1000
BYLAYER
1002
{
1002
}
1002
}
1000
CAL2
1070
     9
1000
4
1002
{
1000
Class
1070
     4
1000
SYM
1002
{
1002
}
1000
Color
1070
     1
1070
   256
1002
{
1002
}
1000
LType
1070
     4
1000
BYLAYER
1002
{
1002
}
1002
}
1000
CAL3
1070
     9
1000
4
1002
{
1000
Class
1070
     4
1000
SYM
1002
{
1002
}
1000
Color
1070
     1
1070
     2
1002
{
1002
}
1000
LType
1070
     4
1000
BYLAYER
1002
{
1002
}
1002
}
1000
CAL5
1070
     9
1000
4
1002
{
1000
Class
1070
     4
1000
SYM
1002
{
1002
}
1000
Color
1070
     1
1070
     7
1002
{
1002
}
1000
LType
1070
     4
1000
BYLAYER
1002
{
1002
}
1002
}
1000
CAL7
1070
     9
1000
4
1002
{
1000
Class
1070
     4
1000
SYM
1002
{
1002
}
1000
Color
1070
     1
1070
     5
1002
{
1002
}
1000
LType
1070
     4
1000
BYLAYER
1002
{
1002
}
1002
}
1000
CENN
1070
     9
1000
7A
1002
{
1000
Class
1070
     4
1000
CEN
1002
{
1002
}
1000
Color
1070
     1
1070
   256
1002
{
1002
}
1000
LType
1070
     4
1000
BYLAYER
1002
{
1002
}
1002
}
1000
CENW
1070
     9
1000
7
1002
{
1000
Class
1070
     4
1000
CEN
1002
{
1002
}
1000
Color
1070
     1
1070
   256
1002
{
1002
}
1000
LType
1070
     4
1000
BYLAYER
1002
{
1002
}
1002
}
1000
CLIN
1070
     9
1000
KLIN
1002
{
1000
Class
1070
     4
1000
SPZ
1002
{
1002
}
1000
Color
1070
     1
1070
   256
1002
{
1002
}
1000
LType
1070
     4
1000
BYLAYER
1002
{
1002
}
1002
}
1000
CON1
1070
     9
1000
0
1002
{
1000
Class
1070
     4
1000
CON,BGD
1002
{
1002
}
1000
Color
1070
     1
1070
   256
1002
{
1002
}
1000
LType
1070
     4
1000
BYLAYER
1002
{
1002
}
1002
}
1000
CON2
1070
     9
1000
1
1002
{
1000
Class
1070
     4
1000
CON,BGD
1002
{
1002
}
1000
Color
1070
     1
1070
   256
1002
{
1002
}
1000
LType
1070
     4
1000
BYLAYER
1002
{
1002
}
1002
}
1000
CON3
1070
     9
1000
2
1002
{
1000
Class
1070
     4
1000
CON,BGD
1002
{
1002
}
1000
Color
1070
     1
1070
   256
1002
{
1002
}
1000
LType
1070
     4
1000
BYLAYER
1002
{
1002
}
1002
}
1000
CON4
1070
     9
1000
2
1002
{
1000
Class
1070
     4
1000
CON,BGD
1002
{
1002
}
1000
Color
1070
     1
1070
   256
1002
{
1002
}
1000
LType
1070
     4
1000
BYLAYER
1002
{
1002
}
1002
}
1000
DERP
1070
     9
1000
4
1002
{
1000
Class
1070
     4
1000

1002
{
1002
}
1000
Color
1070
     1
1070
   256
1002
{
1002
}
1000
LType
1070
     4
1000
BYLAYER
1002
{
1002
}
1002
}
1000
DETA
1070
     9
1000
4
1002
{
1000
Class
1070
     4
1000

1002
{
1002
}
1000
Color
1070
     1
1070
   256
1002
{
1002
}
1000
LType
1070
     4
1000
BYLAYER
1002
{
1002
}
1002
}
1000
DIAG
1070
     9
1000
5
1002
{
1000
Class
1070
     4
1000
SYM
1002
{
1002
}
1000
Color
1070
     1
1070
   256
1002
{
1002
}
1000
LType
1070
     4
1000
BYLAYER
1002
{
1002
}
1002
}
1000
DILI
1070
     9
1000
5
1002
{
1000
Class
1070
     4
1000
DIM,SYM
1002
{
1002
}
1000
Color
1070
     1
1070
   256
1002
{
1002
}
1000
LType
1070
     4
1000
BYLAYER
1002
{
1002
}
1002
}
1000
DITO2
1070
     9
1000
5
1002
{
1000
Class
1070
     4
1000
DIM,SYM
1002
{
1002
}
1000
Color
1070
     1
1070
     3
1002
{
1002
}
1000
LType
1070
     4
1000
BYLAYER
1002
{
1002
}
1002
}
1000
DITO3
1070
     9
1000
5
1002
{
1000
Class
1070
     4
1000
DIM,SYM
1002
{
1002
}
1000
Color
1070
     1
1070
     2
1002
{
1002
}
1000
LType
1070
     4
1000
BYLAYER
1002
{
1002
}
1002
}
1000
DITX
1070
     9
1000
5
1002
{
1000
Class
1070
     4
1000
DIM,SYM
1002
{
1002
}
1000
Color
1070
     1
1070
     2
1002
{
1002
}
1000
LType
1070
     4
1000
CONTINUOUS
1002
{
1002
}
1002
}
1000
DIXL
1070
     9
1000
5
1002
{
1000
Class
1070
     4
1000
DIM,SYM
1002
{
1002
}
1000
Color
1070
     1
1070
   256
1002
{
1002
}
1000
LType
1070
     4
1000
BYLAYER
1002
{
1002
}
1002
}
1000
EXMP
1070
     9
1000
4A
1002
{
1000
Class
1070
     4
1000

1002
{
1002
}
1000
Color
1070
     1
1070
   256
1002
{
1002
}
1000
LType
1070
     4
1000
BYLAYER
1002
{
1002
}
1002
}
1000
FEMN
1070
     9
1000
8
1002
{
1000
Class
1070
     4
1000

1002
{
1002
}
1000
Color
1070
     1
1070
   256
1002
{
1002
}
1000
LType
1070
     4
1000
BYLAYER
1002
{
1002
}
1002
}
1000
FEMPN
1070
     9
1000
8
1002
{
1000
Class
1070
     4
1000
SYM
1002
{
1002
}
1000
Color
1070
     1
1070
     3
1002
{
1002
}
1000
LType
1070
     4
1000
BYLAYER
1002
{
1002
}
1002
}
1000
FEMSP
1070
     9
1000
4A
1002
{
1000
Class
1070
     4
1000

1002
{
1002
}
1000
Color
1070
     1
1070
   256
1002
{
1002
}
1000
LType
1070
     4
1000
CONTINUOUS
1002
{
1002
}
1002
}
1000
FEMST
1070
     9
1000
4A
1002
{
1000
Class
1070
     4
1000
SYM
1002
{
1002
}
1000
Color
1070
     1
1070
     3
1002
{
1002
}
1000
LType
1070
     4
1000
BYLAYER
1002
{
1002
}
1002
}
1000
FEMVN
1070
     9
1000
2
1002
{
1000
Class
1070
     4
1000
CON
1002
{
1002
}
1000
Color
1070
     1
1070
   256
1002
{
1002
}
1000
LType
1070
     4
1000
BYLAYER
1002
{
1002
}
1002
}
1000
FEMVT
1070
     9
1000
2
1002
{
1000
Class
1070
     4
1000
SYM
1002
{
1002
}
1000
Color
1070
     1
1070
     3
1002
{
1002
}
1000
LType
1070
     4
1000
BYLAYER
1002
{
1002
}
1002
}
1000
FLAT
1070
     9
1000
0
1002
{
1000
Class
1070
     4
1000

1002
{
1002
}
1000
Color
1070
     1
1070
   256
1002
{
1002
}
1000
LType
1070
     4
1000
BYLAYER
1002
{
1002
}
1002
}
1000
FRAR
1070
     9
1000
4A
1002
{
1000
Class
1070
     4
1000

1002
{
1002
}
1000
Color
1070
     1
1070
   256
1002
{
1002
}
1000
LType
1070
     4
1000
BYLAYER
1002
{
1002
}
1002
}
1000
GRLI
1070
     9
1000
5
1002
{
1000
Class
1070
     4
1000
SYM
1002
{
1002
}
1000
Color
1070
     1
1070
   256
1002
{
1002
}
1000
LType
1070
     4
1000
BYLAYER
1002
{
1002
}
1002
}
1000
GVLI
1070
     9
1000
4A
1002
{
1000
Class
1070
     4
1000

1002
{
1002
}
1000
Color
1070
     1
1070
   256
1002
{
1002
}
1000
LType
1070
     4
1000
BYLAYER
1002
{
1002
}
1002
}
1000
HATC
1070
     9
1000
8
1002
{
1000
Class
1070
     4
1000
HTC,BGD
1002
{
1002
}
1000
Color
1070
     1
1070
   256
1002
{
1002
}
1000
LType
1070
     4
1000
BYLAYER
1002
{
1002
}
1002
}
1000
HIDN
1070
     9
1000
3A
1002
{
1000
Class
1070
     4
1000
HID,BGD
1002
{
1002
}
1000
Color
1070
     1
1070
   256
1002
{
1002
}
1000
LType
1070
     4
1000
BYLAYER
1002
{
1002
}
1002
}
1000
HIDW
1070
     9
1000
3
1002
{
1000
Class
1070
     4
1000
HID,BGD
1002
{
1002
}
1000
Color
1070
     1
1070
   256
1002
{
1002
}
1000
LType
1070
     4
1000
BYLAYER
1002
{
1002
}
1002
}
1000
HLIN
1070
     9
1000
4
1002
{
1000
Class
1070
     4
1000
BGD
1002
{
1002
}
1000
Color
1070
     1
1070
   256
1002
{
1002
}
1000
LType
1070
     4
1000
BYLAYER
1002
{
1002
}
1002
}
1000
HOCN
1070
     9
1000
7A
1002
{
1000
Class
1070
     4
1000
CEN
1002
{
1002
}
1000
Color
1070
     1
1070
   256
1002
{
1002
}
1000
LType
1070
     4
1000
BYLAYER
1002
{
1002
}
1002
}
1000
HOCW
1070
     9
1000
7
1002
{
1000
Class
1070
     4
1000
CEN
1002
{
1002
}
1000
Color
1070
     1
1070
   256
1002
{
1002
}
1000
LType
1070
     4
1000
BYLAYER
1002
{
1002
}
1002
}
1000
INFO
1070
     9
1000
INFO
1002
{
1000
Class
1070
     4
1000
SPZ,SYM
1002
{
1002
}
1000
Color
1070
     1
1070
   256
1002
{
1002
}
1000
LType
1070
     4
1000
BYLAYER
1002
{
1002
}
1002
}
1000
LADI
1070
     9
1000
4
1002
{
1000
Class
1070
     4
1000
BGD
1002
{
1002
}
1000
Color
1070
     1
1070
   256
1002
{
1002
}
1000
LType
1070
     4
1000
BYLAYER
1002
{
1002
}
1002
}
1000
LEAD
1070
     9
1000
5
1002
{
1000
Class
1070
     4
1000
SYM
1002
{
1002
}
1000
Color
1070
     1
1070
   256
1002
{
1002
}
1000
LType
1070
     4
1000
BYLAYER
1002
{
1002
}
1002
}
1000
N_ADDL
1070
     9
1000
5N
1002
{
1000
Class
1070
     4
1000
SYM
1002
{
1002
}
1000
Color
1070
     1
1070
     1
1002
{
1002
}
1000
LType
1070
     4
1000
BYLAYER
1002
{
1002
}
1002
}
1000
N_BHNV
1070
     9
1000
9N
1002
{
1000
Class
1070
     4
1000
INV
1002
{
1002
}
1000
Color
1070
     1
1070
   256
1002
{
1002
}
1000
LType
1070
     4
1000
BYLAYER
1002
{
1002
}
1002
}
1000
N_CON1
1070
     9
1000
0N
1002
{
1000
Class
1070
     4
1000
CON,BGD
1002
{
1002
}
1000
Color
1070
     1
1070
   256
1002
{
1002
}
1000
LType
1070
     4
1000
BYLAYER
1002
{
1002
}
1002
}
1000
N_CON2
1070
     9
1000
1N
1002
{
1000
Class
1070
     4
1000
CON,BGD
1002
{
1002
}
1000
Color
1070
     1
1070
   256
1002
{
1002
}
1000
LType
1070
     4
1000
BYLAYER
1002
{
1002
}
1002
}
1000
N_CON3
1070
     9
1000
2N
1002
{
1000
Class
1070
     4
1000
CON,BGD
1002
{
1002
}
1000
Color
1070
     1
1070
   256
1002
{
1002
}
1000
LType
1070
     4
1000
BYLAYER
1002
{
1002
}
1002
}
1000
N_CON4
1070
     9
1000
2N
1002
{
1000
Class
1070
     4
1000
CON,BGD
1002
{
1002
}
1000
Color
1070
     1
1070
   256
1002
{
1002
}
1000
LType
1070
     4
1000
BYLAYER
1002
{
1002
}
1002
}
1000
N_CENN
1070
     9
1000
7AN
1002
{
1000
Class
1070
     4
1000
CEN
1002
{
1002
}
1000
Color
1070
     1
1070
   256
1002
{
1002
}
1000
LType
1070
     4
1000
BYLAYER
1002
{
1002
}
1002
}
1000
N_CENW
1070
     9
1000
7N
1002
{
1000
Class
1070
     4
1000
CEN
1002
{
1002
}
1000
Color
1070
     1
1070
   256
1002
{
1002
}
1000
LType
1070
     4
1000
BYLAYER
1002
{
1002
}
1002
}
1000
N_DILI
1070
     9
1000
5N
1002
{
1000
Class
1070
     4
1000
DIM,SYM
1002
{
1002
}
1000
Color
1070
     1
1070
   256
1002
{
1002
}
1000
LType
1070
     4
1000
BYLAYER
1002
{
1002
}
1002
}
1000
N_DITX
1070
     9
1000
5N
1002
{
1000
Class
1070
     4
1000
DIM,SYM
1002
{
1002
}
1000
Color
1070
     1
1070
     2
1002
{
1002
}
1000
LType
1070
     4
1000
CONTINUOUS
1002
{
1002
}
1002
}
1000
N_DIXL
1070
     9
1000
5N
1002
{
1000
Class
1070
     4
1000
DIM,SYM
1002
{
1002
}
1000
Color
1070
     1
1070
   256
1002
{
1002
}
1000
LType
1070
     4
1000
BYLAYER
1002
{
1002
}
1002
}
1000
N_HATC
1070
     9
1000
8N
1002
{
1000
Class
1070
     4
1000
HTC,BGD
1002
{
1002
}
1000
Color
1070
     1
1070
   256
1002
{
1002
}
1000
LType
1070
     4
1000
BYLAYER
1002
{
1002
}
1002
}
1000
N_HIDN
1070
     9
1000
3AN
1002
{
1000
Class
1070
     4
1000
HID,BGD
1002
{
1002
}
1000
Color
1070
     1
1070
   256
1002
{
1002
}
1000
LType
1070
     4
1000
BYLAYER
1002
{
1002
}
1002
}
1000
N_HIDW
1070
     9
1000
3N
1002
{
1000
Class
1070
     4
1000
HID,BGD
1002
{
1002
}
1000
Color
1070
     1
1070
   256
1002
{
1002
}
1000
LType
1070
     4
1000
BYLAYER
1002
{
1002
}
1002
}
1000
N_NGIP
1070
     9
1000
IPN
1002
{
1000
Class
1070
     4
1000

1002
{
1002
}
1000
Color
1070
     1
1070
   256
1002
{
1002
}
1000
LType
1070
     4
1000
BYLAYER
1002
{
1002
}
1002
}
1000
N_PHAN
1070
     9
1000
4AN
1002
{
1000
Class
1070
     4
1000

1002
{
1002
}
1000
Color
1070
     1
1070
   256
1002
{
1002
}
1000
LType
1070
     4
1000
BYLAYER
1002
{
1002
}
1002
}
1000
N_POSL
1070
     9
1000
5N
1002
{
1000
Class
1070
     4
1000
SYM
1002
{
1002
}
1000
Color
1070
     1
1070
   256
1002
{
1002
}
1000
LType
1070
     4
1000
BYLAYER
1002
{
1002
}
1002
}
1000
N_TCON
1070
     9
1000
0N
1002
{
1000
Class
1070
     4
1000
CON,BGD
1002
{
1002
}
1000
Color
1070
     1
1070
   256
1002
{
1002
}
1000
LType
1070
     4
1000
BYLAYER
1002
{
1002
}
1002
}
1000
N_THLI
1070
     9
1000
4N
1002
{
1000
Class
1070
     4
1000
BGD
1002
{
1002
}
1000
Color
1070
     1
1070
   256
1002
{
1002
}
1000
LType
1070
     4
1000
BYLAYER
1002
{
1002
}
1002
}
1000
N_TLEN
1070
     9
1000
0N
1002
{
1000
Class
1070
     4
1000
CON,BGD
1002
{
1002
}
1000
Color
1070
     1
1070
   256
1002
{
1002
}
1000
LType
1070
     4
1000
BYLAYER
1002
{
1002
}
1002
}
1000
N_TXT3
1070
     9
1000
6N
1002
{
1000
Class
1070
     4
1000
SYM
1002
{
1002
}
1000
Color
1070
     1
1070
   256
1002
{
1002
}
1000
LType
1070
     4
1000
BYLAYER
1002
{
1002
}
1002
}
1000
N_VPLI
1070
     9
1000
2AN
1002
{
1000
Class
1070
     4
1000

1002
{
1002
}
1000
Color
1070
     1
1070
   256
1002
{
1002
}
1000
LType
1070
     4
1000
BYLAYER
1002
{
1002
}
1002
}
1000
NGIP
1070
     9
1000
IP
1002
{
1000
Class
1070
     4
1000

1002
{
1002
}
1000
Color
1070
     1
1070
   256
1002
{
1002
}
1000
LType
1070
     4
1000
BYLAYER
1002
{
1002
}
1002
}
1000
PAL2
1070
     9
1000
RAHM2
1002
{
1000
Class
1070
     4
1000
SPZ,SYM
1002
{
1002
}
1000
Color
1070
     1
1070
   256
1002
{
1002
}
1000
LType
1070
     4
1000
BYLAYER
1002
{
1002
}
1002
}
1000
PAL3
1070
     9
1000
RAHM3
1002
{
1000
Class
1070
     4
1000
SPZ,SYM
1002
{
1002
}
1000
Color
1070
     1
1070
   256
1002
{
1002
}
1000
LType
1070
     4
1000
BYLAYER
1002
{
1002
}
1002
}
1000
PAL5
1070
     9
1000
RAHM5
1002
{
1000
Class
1070
     4
1000
SPZ,SYM
1002
{
1002
}
1000
Color
1070
     1
1070
   256
1002
{
1002
}
1000
LType
1070
     4
1000
BYLAYER
1002
{
1002
}
1002
}
1000
PAL7
1070
     9
1000
RAHM5
1002
{
1000
Class
1070
     4
1000
SPZ,SYM
1002
{
1002
}
1000
Color
1070
     1
1070
     7
1002
{
1002
}
1000
LType
1070
     4
1000
CONTINUOUS
1002
{
1002
}
1002
}
1000
PHAN
1070
     9
1000
4A
1002
{
1000
Class
1070
     4
1000

1002
{
1002
}
1000
Color
1070
     1
1070
   256
1002
{
1002
}
1000
LType
1070
     4
1000
BYLAYER
1002
{
1002
}
1002
}
1000
POSL
1070
     9
1000
5
1002
{
1000
Class
1070
     4
1000
SYM
1002
{
1002
}
1000
Color
1070
     1
1070
   256
1002
{
1002
}
1000
LType
1070
     4
1000
BYLAYER
1002
{
1002
}
1002
}
1000
POSN
1070
     9
1000
6
1002
{
1000
Class
1070
     4
1000
SYM
1002
{
1002
}
1000
Color
1070
     1
1070
     7
1002
{
1002
}
1000
LType
1070
     4
1000
BYLAYER
1002
{
1002
}
1002
}
1000
POSREF
1070
     9
1000
6
1002
{
1000
Class
1070
     4
1000
SYM
1002
{
1002
}
1000
Color
1070
     1
1070
     5
1002
{
1002
}
1000
LType
1070
     4
1000
BYLAYER
1002
{
1002
}
1002
}
1000
POSX
1070
     9
1000
5
1002
{
1000
Class
1070
     4
1000
SYM
1002
{
1002
}
1000
Color
1070
     1
1070
     2
1002
{
1002
}
1000
LType
1070
     4
1000
CONTINUOUS
1002
{
1002
}
1002
}
1000
PSEC
1070
     9
1000
4A
1002
{
1000
Class
1070
     4
1000

1002
{
1002
}
1000
Color
1070
     1
1070
   256
1002
{
1002
}
1000
LType
1070
     4
1000
BYLAYER
1002
{
1002
}
1002
}
1000
RCGN
1070
     9
1000
7A
1002
{
1000
Class
1070
     4
1000
CEN
1002
{
1002
}
1000
Color
1070
     1
1070
   256
1002
{
1002
}
1000
LType
1070
     4
1000
BYLAYER
1002
{
1002
}
1002
}
1000
RCGW
1070
     9
1000
7
1002
{
1000
Class
1070
     4
1000
CEN
1002
{
1002
}
1000
Color
1070
     1
1070
   256
1002
{
1002
}
1000
LType
1070
     4
1000
BYLAYER
1002
{
1002
}
1002
}
1000
RFDI
1070
     9
1000
4
1002
{
1000
Class
1070
     4
1000
BGD
1002
{
1002
}
1000
Color
1070
     1
1070
   256
1002
{
1002
}
1000
LType
1070
     4
1000
BYLAYER
1002
{
1002
}
1002
}
1000
RQTR
1070
     9
1000
4
1002
{
1000
Class
1070
     4
1000

1002
{
1002
}
1000
Color
1070
     1
1070
     7
1002
{
1002
}
1000
LType
1070
     4
1000
GEN7A
1002
{
1002
}
1002
}
1000
RSBO
1070
     9
1000
4
1002
{
1000
Class
1070
     4
1000
BGD
1002
{
1002
}
1000
Color
1070
     1
1070
   256
1002
{
1002
}
1000
LType
1070
     4
1000
BYLAYER
1002
{
1002
}
1002
}
1000
SBRK
1070
     9
1000
4
1002
{
1000
Class
1070
     4
1000
BGD
1002
{
1002
}
1000
Color
1070
     1
1070
   256
1002
{
1002
}
1000
LType
1070
     4
1000
BYLAYER
1002
{
1002
}
1002
}
1000
SCEN
1070
     9
1000
7
1002
{
1000
Class
1070
     4
1000

1002
{
1002
}
1000
Color
1070
     1
1070
   256
1002
{
1002
}
1000
LType
1070
     4
1000
CONTINUOUS
1002
{
1002
}
1002
}
1000
SECT
1070
     9
1000
4
1002
{
1000
Class
1070
     4
1000
BGD
1002
{
1002
}
1000
Color
1070
     1
1070
   256
1002
{
1002
}
1000
LType
1070
     4
1000
BYLAYER
1002
{
1002
}
1002
}
1000
SELN
1070
     9
1000
7A
1002
{
1000
Class
1070
     4
1000

1002
{
1002
}
1000
Color
1070
     1
1070
   256
1002
{
1002
}
1000
LType
1070
     4
1000
BYLAYER
1002
{
1002
}
1002
}
1000
SELW
1070
     9
1000
7
1002
{
1000
Class
1070
     4
1000

1002
{
1002
}
1000
Color
1070
     1
1070
   256
1002
{
1002
}
1000
LType
1070
     4
1000
BYLAYER
1002
{
1002
}
1002
}
1000
SSYS
1070
     9
1000
0
1002
{
1000
Class
1070
     4
1000

1002
{
1002
}
1000
Color
1070
     1
1070
   256
1002
{
1002
}
1000
LType
1070
     4
1000
BYLAYER
1002
{
1002
}
1002
}
1000
STLI
1070
     9
1000
4
1002
{
1000
Class
1070
     4
1000

1002
{
1002
}
1000
Color
1070
     1
1070
     7
1002
{
1002
}
1000
LType
1070
     4
1000
GEN3A
1002
{
1002
}
1002
}
1000
SYB1
1070
     9
1000
5
1002
{
1000
Class
1070
     4
1000
SYM
1002
{
1002
}
1000
Color
1070
     1
1070
   256
1002
{
1002
}
1000
LType
1070
     4
1000
BYLAYER
1002
{
1002
}
1002
}
1000
SYB2
1070
     9
1000
5
1002
{
1000
Class
1070
     4
1000
SYM
1002
{
1002
}
1000
Color
1070
     1
1070
   256
1002
{
1002
}
1000
LType
1070
     4
1000
BYLAYER
1002
{
1002
}
1002
}
1000
SYB3
1070
     9
1000
6
1002
{
1000
Class
1070
     4
1000
SYM
1002
{
1002
}
1000
Color
1070
     1
1070
   256
1002
{
1002
}
1000
LType
1070
     4
1000
CONTINUOUS
1002
{
1002
}
1002
}
1000
SYB5
1070
     9
1000
5
1002
{
1000
Class
1070
     4
1000
SYM
1002
{
1002
}
1000
Color
1070
     1
1070
     7
1002
{
1002
}
1000
LType
1070
     4
1000
BYLAYER
1002
{
1002
}
1002
}
1000
SYMN
1070
     9
1000
7A
1002
{
1000
Class
1070
     4
1000
CEN
1002
{
1002
}
1000
Color
1070
     1
1070
   256
1002
{
1002
}
1000
LType
1070
     4
1000
BYLAYER
1002
{
1002
}
1002
}
1000
SYMW
1070
     9
1000
7
1002
{
1000
Class
1070
     4
1000
CEN
1002
{
1002
}
1000
Color
1070
     1
1070
   256
1002
{
1002
}
1000
LType
1070
     4
1000
BYLAYER
1002
{
1002
}
1002
}
1000
TCON
1070
     9
1000
0
1002
{
1000
Class
1070
     4
1000
CON,BGD
1002
{
1002
}
1000
Color
1070
     1
1070
   256
1002
{
1002
}
1000
LType
1070
     4
1000
BYLAYER
1002
{
1002
}
1002
}
1000
THLI
1070
     9
1000
4
1002
{
1000
Class
1070
     4
1000
BGD
1002
{
1002
}
1000
Color
1070
     1
1070
   256
1002
{
1002
}
1000
LType
1070
     4
1000
BYLAYER
1002
{
1002
}
1002
}
1000
TIT2
1070
     9
1000
RAHM2
1002
{
1000
Class
1070
     4
1000
SPZ,SYM
1002
{
1002
}
1000
Color
1070
     1
1070
   256
1002
{
1002
}
1000
LType
1070
     4
1000
BYLAYER
1002
{
1002
}
1002
}
1000
TIT3
1070
     9
1000
RAHM3
1002
{
1000
Class
1070
     4
1000
SPZ,SYM
1002
{
1002
}
1000
Color
1070
     1
1070
   256
1002
{
1002
}
1000
LType
1070
     4
1000
BYLAYER
1002
{
1002
}
1002
}
1000
TIT5
1070
     9
1000
RAHM5
1002
{
1000
Class
1070
     4
1000
SPZ,SYM
1002
{
1002
}
1000
Color
1070
     1
1070
   256
1002
{
1002
}
1000
LType
1070
     4
1000
BYLAYER
1002
{
1002
}
1002
}
1000
TIT7
1070
     9
1000
RAHM5
1002
{
1000
Class
1070
     4
1000
SPZ,SYM
1002
{
1002
}
1000
Color
1070
     1
1070
     7
1002
{
1002
}
1000
LType
1070
     4
1000
CONTINUOUS
1002
{
1002
}
1002
}
1000
TLEN
1070
     9
1000
0
1002
{
1000
Class
1070
     4
1000
CON,BGD
1002
{
1002
}
1000
Color
1070
     1
1070
   256
1002
{
1002
}
1000
LType
1070
     4
1000
BYLAYER
1002
{
1002
}
1002
}
1000
TRKN
1070
     9
1000
7A
1002
{
1000
Class
1070
     4
1000

1002
{
1002
}
1000
Color
1070
     1
1070
   256
1002
{
1002
}
1000
LType
1070
     4
1000
BYLAYER
1002
{
1002
}
1002
}
1000
TRKW
1070
     9
1000
7
1002
{
1000
Class
1070
     4
1000

1002
{
1002
}
1000
Color
1070
     1
1070
   256
1002
{
1002
}
1000
LType
1070
     4
1000
BYLAYER
1002
{
1002
}
1002
}
1000
TRLI
1070
     9
1000
4
1002
{
1000
Class
1070
     4
1000
BGD
1002
{
1002
}
1000
Color
1070
     1
1070
   256
1002
{
1002
}
1000
LType
1070
     4
1000
BYLAYER
1002
{
1002
}
1002
}
1000
TXT1
1070
     9
1000
6
1002
{
1000
Class
1070
     4
1000
SYM
1002
{
1002
}
1000
Color
1070
     1
1070
     2
1002
{
1002
}
1000
LType
1070
     4
1000
BYLAYER
1002
{
1002
}
1002
}
1000
TXT2
1070
     9
1000
6
1002
{
1000
Class
1070
     4
1000
SYM
1002
{
1002
}
1000
Color
1070
     1
1070
     2
1002
{
1002
}
1000
LType
1070
     4
1000
BYLAYER
1002
{
1002
}
1002
}
1000
TXT3
1070
     9
1000
6
1002
{
1000
Class
1070
     4
1000
SYM
1002
{
1002
}
1000
Color
1070
     1
1070
   256
1002
{
1002
}
1000
LType
1070
     4
1000
BYLAYER
1002
{
1002
}
1002
}
1000
TXT5
1070
     9
1000
6
1002
{
1000
Class
1070
     4
1000
SYM
1002
{
1002
}
1000
Color
1070
     1
1070
     7
1002
{
1002
}
1000
LType
1070
     4
1000
BYLAYER
1002
{
1002
}
1002
}
1000
TXT7
1070
     9
1000
6
1002
{
1000
Class
1070
     4
1000
SYM
1002
{
1002
}
1000
Color
1070
     1
1070
     7
1002
{
1002
}
1000
LType
1070
     4
1000
BYLAYER
1002
{
1002
}
1002
}
1000
VIEW
1070
     9
1000
VIEW
1002
{
1000
Class
1070
     4
1000
SPZ
1002
{
1002
}
1000
Color
1070
     1
1070
   256
1002
{
1002
}
1000
LType
1070
     4
1000
BYLAYER
1002
{
1002
}
1002
}
1000
VPLI
1070
     9
1000
2A
1002
{
1000
Class
1070
     4
1000

1002
{
1002
}
1000
Color
1070
     1
1070
   256
1002
{
1002
}
1000
LType
1070
     4
1000
BYLAYER
1002
{
1002
}
1002
}
1000
ZIZA
1070
     9
1000
4
1002
{
1000
Class
1070
     4
1000
BGD
1002
{
1002
}
1000
Color
1070
     1
1070
   256
1002
{
1002
}
1000
LType
1070
     4
1000
GENZIGZAG
1002
{
1002
}
1002
}
  0
APPID
  5
1415
330
13D2
100
AcDbSymbolTableRecord
100
AcDbRegAppTableRecord
  2
GENIUS_GENCFG4_13
 70
     0
1001
GENIUS_GENCFG_13
1071
1020870060
1000
1415
1000
GEN
1070
     9
1000
GenCfgObject
1000
GenCfgShort
1000
GenCfgReal
1000
GenCfgBool
1000
GenCfgString
1000
GenCfgDim
1000
GenCfgLaySection
1000
GenCfgLType
1000
GenCfgFilter
1000
Balloon
1070
     0
1002
{
1000
GenIF
1070
     1
1070
     0
1002
{
1002
}
1000
GenPosInc
1070
     1
1070
     1
1002
{
1002
}
1000
GenPosBlk
1070
     1
1070
     8
1002
{
1002
}
1000
GenPosVar
1070
     1
1070
     0
1002
{
1002
}
1000
GenZiCir
1070
     2
1040
1.5
1002
{
1002
}
1000
MaxCharForCenteredText
1070
     1
1070
    30
1002
{
1002
}
1000
Snap
1070
     0
1002
{
1000
ActivationRadius
1070
     2
1040
1.0
1002
{
1002
}
1000
M
1070
     0
1002
{
1000
SnapStepX
1070
     2
1040
20.0
1002
{
1002
}
1000
SnapStepY
1070
     2
1040
10.0
1002
{
1002
}
1002
}
1000
I
1070
     0
1002
{
1000
SnapStepX
1070
     2
1040
1.0
1002
{
1002
}
1000
SnapStepY
1070
     2
1040
0.5
1002
{
1002
}
1002
}
1002
}
1002
}
1000
Centerline
1070
     0
1002
{
1000
ScaleNot
1070
     3
1070
     0
1002
{
1002
}
1000
M
1070
     0
1002
{
1000
GenCenAng
1070
     4
1000
45|90|135
1002
{
1002
}
1000
GenCenDia
1070
     2
1040
10.0
1002
{
1002
}
1000
GenCenDias
1070
     4
1000
10|20|30
1002
{
1002
}
1000
GenCenDist
1070
     2
1040
3.0
1002
{
1002
}
1000
GenCenLen
1070
     2
1040
10.0
1002
{
1002
}
1000
GenCenOff
1070
     2
1040
10.0
1002
{
1002
}
1002
}
1000
I
1070
     0
1002
{
1000
GenCenAng
1070
     4
1000
45|90|135
1002
{
1002
}
1000
GenCenDia
1070
     2
1040
0.5
1002
{
1002
}
1000
GenCenDias
1070
     4
1000
0.5|1.0|1.5
1002
{
1002
}
1000
GenCenDist
1070
     2
1040
0.125
1002
{
1002
}
1000
GenCenLen
1070
     2
1040
0.5
1002
{
1002
}
1000
GenCenOff
1070
     2
1040
0.5
1002
{
1002
}
1002
}
1002
}
1000
CLine
1070
     0
1002
{
1000
CAngArray
1070
     4
1000
30|45|60
1002
{
1002
}
1000
Typ
1070
     4
1000
XLINE
1002
{
1002
}
1000
M
1070
     0
1002
{
1000
CLinArray
1070
     4
1000
10|20|30
1002
{
1002
}
1002
}
1000
I
1070
     0
1002
{
1000
CLinArray
1070
     4
1000
0.125|0.25|0.5
1002
{
1002
}
1002
}
1002
}
1000
Detail
1070
     0
1002
{
1002
}
1000
Dimension
1070
     5
1002
{
1000
DIMALT
1070
     1
1070
     0
1002
{
1002
}
1000
DIMALTD
1070
     1
1070
     2
1002
{
1002
}
1000
DIMALTTD
1070
     1
1070
     4
1002
{
1002
}
1000
DIMALTTZ
1070
     1
1070
     0
1002
{
1002
}
1000
DIMALTU
1070
     1
1070
     2
1002
{
1002
}
1000
DIMALTZ
1070
     1
1070
     0
1002
{
1002
}
1000
DIMAUNIT
1070
     1
1070
     0
1002
{
1002
}
1000
DIMBLK
1070
     4
1000

1002
{
1002
}
1000
DIMBLK1
1070
     4
1000

1002
{
1002
}
1000
DIMBLK2
1070
     4
1000

1002
{
1002
}
1000
DIMCLRD
1070
     1
1070
   256
1002
{
1002
}
1000
DIMCLRE
1070
     1
1070
   256
1002
{
1002
}
1000
DIMCLRT
1070
     1
1070
     2
1002
{
1002
}
1000
DIMDLE
1070
     2
1040
0.0
1002
{
1002
}
1000
DIMFIT
1070
     1
1070
     3
1002
{
1002
}
1000
DIMJUST
1070
     1
1070
     0
1002
{
1002
}
1000
DIMLFAC
1070
     2
1040
1.0
1002
{
1002
}
1000
DIMLIM
1070
     1
1070
     0
1002
{
1002
}
1000
DIMPOST
1070
     4
1000

1002
{
1002
}
1000
DIMRND
1070
     2
1040
0.0
1002
{
1002
}
1000
DIMSAH
1070
     1
1070
     0
1002
{
1002
}
1000
DIMSCALE
1070
     2
1040
1.0
1002
{
1002
}
1000
DIMSD1
1070
     1
1070
     0
1002
{
1002
}
1000
DIMSD2
1070
     1
1070
     0
1002
{
1002
}
1000
DIMSE1
1070
     1
1070
     0
1002
{
1002
}
1000
DIMSE2
1070
     1
1070
     0
1002
{
1002
}
1000
DIMSOXD
1070
     1
1070
     0
1002
{
1002
}
1000
DIMTAD
1070
     1
1070
     0
1002
{
1002
}
1000
DIMTFAC
1070
     2
1040
0.71
1002
{
1002
}
1000
DIMTIH
1070
     1
1070
     0
1002
{
1002
}
1000
DIMTIX
1070
     1
1070
     0
1002
{
1002
}
1000
DIMTM
1070
     2
1040
0.1
1002
{
1002
}
1000
DIMTOFL
1070
     1
1070
     0
1002
{
1002
}
1000
DIMTOH
1070
     1
1070
     0
1002
{
1002
}
1000
DIMTOL
1070
     1
1070
     0
1002
{
1002
}
1000
DIMTOLJ
1070
     1
1070
     1
1002
{
1002
}
1000
DIMTP
1070
     2
1040
0.1
1002
{
1002
}
1000
DIMTSZ
1070
     2
1040
0.0
1002
{
1002
}
1000
DIMTVP
1070
     2
1040
0.0
1002
{
1002
}
1000
DIMTXSTY
1070
     4
1000
STANDARD
1002
{
1002
}
1000
DIMTZIN
1070
     1
1070
     0
1002
{
1002
}
1000
DIMUNIT
1070
     1
1070
     2
1002
{
1002
}
1000
DIMUPT
1070
     1
1070
     0
1002
{
1002
}
1000
M
1070
     0
1002
{
1000
DIMALTF
1070
     2
1040
0.03937
1002
{
1002
}
1000
DIMAPOST
1070
     4
1000
"
1002
{
1002
}
1000
DIMASZ
1070
     2
1040
2.5
1002
{
1002
}
1000
DIMCEN
1070
     2
1040
0.0
1002
{
1002
}
1000
DIMDEC
1070
     1
1070
     2
1002
{
1002
}
1000
DIMDLI
1070
     2
1040
7.0
1002
{
1002
}
1000
DIMEXE
1070
     2
1040
1.0
1002
{
1002
}
1000
DIMEXO
1070
     2
1040
1.0
1002
{
1002
}
1000
DIMGAP
1070
     2
1040
0.6
1002
{
1002
}
1000
DIMTDEC
1070
     1
1070
     3
1002
{
1002
}
1000
DIMTXT
1070
     2
1040
3.5
1002
{
1002
}
1000
DIMZIN
1070
     1
1070
     8
1002
{
1002
}
1002
}
1000
I
1070
     0
1002
{
1000
DIMALTF
1070
     2
1040
25.4
1002
{
1002
}
1000
DIMAPOST
1070
     4
1000
mm
1002
{
1002
}
1000
DIMASZ
1070
     2
1040
0.1
1002
{
1002
}
1000
DIMCEN
1070
     2
1040
0.0
1002
{
1002
}
1000
DIMDEC
1070
     1
1070
     4
1002
{
1002
}
1000
DIMDLI
1070
     2
1040
0.5
1002
{
1002
}
1000
DIMEXE
1070
     2
1040
0.1
1002
{
1002
}
1000
DIMEXO
1070
     2
1040
0.05
1002
{
1002
}
1000
DIMGAP
1070
     2
1040
0.06
1002
{
1002
}
1000
DIMTDEC
1070
     1
1070
     4
1002
{
1002
}
1000
DIMTXT
1070
     2
1040
0.12
1002
{
1002
}
1000
DIMZIN
1070
     1
1070
     7
1002
{
1002
}
1002
}
1000
GEN-ISO
1070
     5
1002
{
1000
NAME
1070
     4
1000
GEN-ISO
1002
{
1002
}
1000
DIMTAD
1070
     1
1070
     1
1002
{
1002
}
1000
DIMTOLJ
1070
     1
1070
     0
1002
{
1002
}
1000
DIMTOFL
1070
     1
1070
     1
1002
{
1002
}
1000
M
1070
     0
1002
{
1002
}
1000
I
1070
     0
1002
{
1002
}
1002
}
1000
GEN-ISO-POS
1070
     5
1002
{
1000
NAME
1070
     4
1000
GEN-ISO-POS
1002
{
1002
}
1000
DIMTOLJ
1070
     1
1070
     0
1002
{
1002
}
1000
DIMTXSTY
1070
     4
1000
STANDARD
1002
{
1002
}
1000
M
1070
     0
1002
{
1000
DIMASZ
1070
     2
1040
2.5
1002
{
1002
}
1000
DIMGAP
1070
     2
1040
1.5
1002
{
1002
}
1000
DIMTXT
1070
     2
1040
5.0
1002
{
1002
}
1002
}
1000
I
1070
     0
1002
{
1000
DIMASZ
1070
     2
1040
0.1
1002
{
1002
}
1000
DIMGAP
1070
     2
1040
0.06
1002
{
1002
}
1000
DIMTXT
1070
     2
1040
0.2
1002
{
1002
}
1002
}
1002
}
1000
GEN-ISO-CIR
1070
     5
1002
{
1000
NAME
1070
     4
1000
GEN-ISO$3
1002
{
1002
}
1000
DIMFIT
1070
     1
1070
     0
1002
{
1002
}
1000
DIMTAD
1070
     1
1070
     1
1002
{
1002
}
1000
DIMTOH
1070
     1
1070
     1
1002
{
1002
}
1000
DIMTOLJ
1070
     1
1070
     0
1002
{
1002
}
1000
DIMUPT
1070
     1
1070
     1
1002
{
1002
}
1000
M
1070
     0
1002
{
1002
}
1000
I
1070
     0
1002
{
1002
}
1002
}
1000
GEN-ISO-RAD
1070
     5
1002
{
1000
NAME
1070
     4
1000
GEN-ISO$4
1002
{
1002
}
1000
DIMFIT
1070
     1
1070
     0
1002
{
1002
}
1000
DIMTAD
1070
     1
1070
     1
1002
{
1002
}
1000
DIMTIH
1070
     1
1070
     0
1002
{
1002
}
1000
DIMTIX
1070
     1
1070
     0
1002
{
1002
}
1000
DIMTOH
1070
     1
1070
     1
1002
{
1002
}
1000
DIMTOLJ
1070
     1
1070
     0
1002
{
1002
}
1000
DIMTOFL
1070
     1
1070
     0
1002
{
1002
}
1000
DIMUPT
1070
     1
1070
     1
1002
{
1002
}
1000
M
1070
     0
1002
{
1002
}
1000
I
1070
     0
1002
{
1002
}
1002
}
1000
GEN-ISO-ORD
1070
     5
1002
{
1000
NAME
1070
     4
1000
GEN-ISO$6
1002
{
1002
}
1000
DIMTOLJ
1070
     1
1070
     0
1002
{
1002
}
1000
M
1070
     0
1002
{
1002
}
1000
I
1070
     0
1002
{
1002
}
1002
}
1000
GEN-ISO-AXE-F
1070
     5
1002
{
1000
NAME
1070
     4
1000
GEN-ISO-AXE-F
1002
{
1002
}
1000
DIMSE1
1070
     1
1070
     1
1002
{
1002
}
1000
DIMSE2
1070
     1
1070
     1
1002
{
1002
}
1000
DIMTAD
1070
     1
1070
     1
1002
{
1002
}
1000
DIMTOLJ
1070
     1
1070
     0
1002
{
1002
}
1000
DIMTOFL
1070
     1
1070
     1
1002
{
1002
}
1000
M
1070
     0
1002
{
1002
}
1000
I
1070
     0
1002
{
1002
}
1002
}
1000
GEN-ISO-AXE-H
1070
     5
1002
{
1000
NAME
1070
     4
1000
GEN-ISO-AXE-H
1002
{
1002
}
1000
DIMBLK1
1070
     4
1000
GENAXEH
1002
{
1002
}
1000
DIMLFAC
1070
     2
1040
2.0
1002
{
1002
}
1000
DIMSAH
1070
     1
1070
     1
1002
{
1002
}
1000
DIMSE1
1070
     1
1070
     1
1002
{
1002
}
1000
DIMSE2
1070
     1
1070
     1
1002
{
1002
}
1000
DIMTAD
1070
     1
1070
     1
1002
{
1002
}
1000
DIMTOLJ
1070
     1
1070
     0
1002
{
1002
}
1000
DIMTOFL
1070
     1
1070
     1
1002
{
1002
}
1000
M
1070
     0
1002
{
1002
}
1000
I
1070
     0
1002
{
1002
}
1002
}
1000
GEN-ANSI
1070
     5
1002
{
1000
NAME
1070
     4
1000
GEN-ANSI
1002
{
1002
}
1000
DIMTIH
1070
     1
1070
     1
1002
{
1002
}
1000
DIMTOH
1070
     1
1070
     1
1002
{
1002
}
1000
DIMTAD
1070
     1
1070
     0
1002
{
1002
}
1000
DIMTOLJ
1070
     1
1070
     1
1002
{
1002
}
1000
M
1070
     0
1002
{
1002
}
1000
I
1070
     0
1002
{
1002
}
1002
}
1000
GEN-ANSI-POS
1070
     5
1002
{
1000
NAME
1070
     4
1000
GEN-ANSI-POS
1002
{
1002
}
1000
DIMTOLJ
1070
     1
1070
     1
1002
{
1002
}
1000
DIMTXSTY
1070
     4
1000
STANDARD
1002
{
1002
}
1000
M
1070
     0
1002
{
1000
DIMASZ
1070
     2
1040
2.5
1002
{
1002
}
1000
DIMGAP
1070
     2
1040
1.5
1002
{
1002
}
1000
DIMTXT
1070
     2
1040
5.0
1002
{
1002
}
1002
}
1000
I
1070
     0
1002
{
1000
DIMASZ
1070
     2
1040
0.1
1002
{
1002
}
1000
DIMGAP
1070
     2
1040
0.06
1002
{
1002
}
1000
DIMTXT
1070
     2
1040
0.2
1002
{
1002
}
1002
}
1002
}
1000
GEN-ANSI-CIR
1070
     5
1002
{
1000
NAME
1070
     4
1000
GEN-ANSI$3
1002
{
1002
}
1000
DIMFIT
1070
     1
1070
     0
1002
{
1002
}
1000
DIMTAD
1070
     1
1070
     0
1002
{
1002
}
1000
DIMTIH
1070
     1
1070
     1
1002
{
1002
}
1000
DIMTIX
1070
     1
1070
     0
1002
{
1002
}
1000
DIMTOFL
1070
     1
1070
     0
1002
{
1002
}
1000
DIMTOH
1070
     1
1070
     1
1002
{
1002
}
1000
DIMTOLJ
1070
     1
1070
     1
1002
{
1002
}
1000
DIMUPT
1070
     1
1070
     1
1002
{
1002
}
1000
M
1070
     0
1002
{
1002
}
1000
I
1070
     0
1002
{
1002
}
1002
}
1000
GEN-ANSI-RAD
1070
     5
1002
{
1000
NAME
1070
     4
1000
GEN-ANSI$4
1002
{
1002
}
1000
DIMFIT
1070
     1
1070
     0
1002
{
1002
}
1000
DIMTAD
1070
     1
1070
     0
1002
{
1002
}
1000
DIMTIH
1070
     1
1070
     1
1002
{
1002
}
1000
DIMTIX
1070
     1
1070
     0
1002
{
1002
}
1000
DIMTOFL
1070
     1
1070
     0
1002
{
1002
}
1000
DIMTOH
1070
     1
1070
     1
1002
{
1002
}
1000
DIMTOLJ
1070
     1
1070
     1
1002
{
1002
}
1000
DIMUPT
1070
     1
1070
     1
1002
{
1002
}
1000
M
1070
     0
1002
{
1002
}
1000
I
1070
     0
1002
{
1002
}
1002
}
1000
GEN-ANSI-ORD
1070
     5
1002
{
1000
NAME
1070
     4
1000
GEN-ANSI$6
1002
{
1002
}
1000
DIMTAD
1070
     1
1070
     0
1002
{
1002
}
1000
DIMTIH
1070
     1
1070
     1
1002
{
1002
}
1000
DIMTOH
1070
     1
1070
     1
1002
{
1002
}
1000
DIMTOLJ
1070
     1
1070
     1
1002
{
1002
}
1000
M
1070
     0
1002
{
1002
}
1000
I
1070
     0
1002
{
1002
}
1002
}
1000
GEN-ANSI-AXE-F
1070
     5
1002
{
1000
NAME
1070
     4
1000
GEN-ANSI-AXE-F
1002
{
1002
}
1000
DIMBLK1
1070
     4
1000
GENAXEH
1002
{
1002
}
1000
DIMSAH
1070
     1
1070
     1
1002
{
1002
}
1000
DIMSE1
1070
     1
1070
     1
1002
{
1002
}
1000
DIMSE2
1070
     1
1070
     1
1002
{
1002
}
1000
DIMTAD
1070
     1
1070
     0
1002
{
1002
}
1000
DIMTIH
1070
     1
1070
     1
1002
{
1002
}
1000
DIMTOH
1070
     1
1070
     1
1002
{
1002
}
1000
DIMTOLJ
1070
     1
1070
     1
1002
{
1002
}
1000
M
1070
     0
1002
{
1002
}
1000
I
1070
     0
1002
{
1002
}
1002
}
1000
GEN-ANSI-AXE-H
1070
     5
1002
{
1000
NAME
1070
     4
1000
GEN-ANSI-AXE-H
1002
{
1002
}
1000
DIMBLK1
1070
     4
1000
GENAXEH
1002
{
1002
}
1000
DIMLFAC
1070
     2
1040
2.0
1002
{
1002
}
1000
DIMSAH
1070
     1
1070
     1
1002
{
1002
}
1000
DIMSE1
1070
     1
1070
     1
1002
{
1002
}
1000
DIMSE2
1070
     1
1070
     1
1002
{
1002
}
1000
DIMTAD
1070
     1
1070
     0
1002
{
1002
}
1000
DIMTOFL
1070
     1
1070
     1
1002
{
1002
}
1000
DIMTOLJ
1070
     1
1070
     1
1002
{
1002
}
1000
M
1070
     0
1002
{
1002
}
1000
I
1070
     0
1002
{
1002
}
1002
}
1002
}
1000
DimSet
1070
     0
1002
{
1000
ChainSum
1070
     3
1070
     0
1002
{
1002
}
1000
DimDclTyp0
1070
     4
1000
dim23
1002
{
1002
}
1000
HorBra
1070
     3
1070
     0
1002
{
1002
}
1000
StrDia
1070
     4
1000
%%c<>
1002
{
1002
}
1000
StrRad
1070
     4
1000
R<>
1002
{
1002
}
1000
TextMinus
1070
     4
1000
<>
1002
{
1002
}
1000
TextPlus
1070
     4
1000
<>
1002
{
1002
}
1000
M
1070
     0
1002
{
1000
DimdliFirst
1070
     2
1040
10.0
1002
{
1002
}
1000
PointMakeDist
1070
     2
1040
10.0
1002
{
1002
}
1002
}
1000
I
1070
     0
1002
{
1000
DimdliFirst
1070
     2
1040
0.5
1002
{
1002
}
1000
PointMakeDist
1070
     2
1040
0.5
1002
{
1002
}
1002
}
1000
FitGrade
1070
     4
1000
h7
1002
{
1002
}
1002
}
1000
Drawing
1070
     0
1002
{
1000
ChamferDimMode
1070
     1
1070
     2
1002
{
1002
}
1000
Gen_Fiso
1070
    -3
1040
1.0
1002
{
1002
}
1000
GenDimStil
1070
     4
1000
ISO
1002
{
1002
}
1000
GenDwgUScale
1070
     2
1040
1.0
1002
{
1002
}
1000
GenInch
1070
     4
1000
M
1002
{
1002
}
1000
GenPlotScale
1070
     4
1000
1:5
1002
{
1002
}
1000
Revisi
1070
     4
1000
0
1002
{
1002
}
1000
Version
1070
    -5
1000
14.01/Apr  1 1998
1002
{
1002
}
1000
Platform
1070
    -5
1000
WINNT
1002
{
1002
}
1002
}
1000
DwgVar
1070
     0
1002
{
1000
M
1070
     0
1002
{
1002
}
1000
I
1070
     0
1002
{
1002
}
1002
}
1000
Hatch
1070
     0
1002
{
1000
GenHtcFlag
1070
     3
1070
     0
1002
{
1002
}
1002
}
1000
Info_Pos
1070
     0
1002
{
1000
>
1002
}
1000
Layer
1070
     6
1002
{
1000
Defs
1070
     0
1002
{
1000
>
1002
}
1000
EntSort
1070
     0
1002
{
1000
>
1002
}
1000
Match
1070
     0
1002
{
1002
}
1000
Settings
1070
     0
1002
{
1000
FocGrNC
1070
     3
1070
     0
1002
{
1002
}
1000
FocGrLo
1070
     3
1070
     0
1002
{
1002
}
1000
FocLoNC
1070
     3
1070
     0
1002
{
1002
}
1000
FocusCol
1070
     1
1070
   253
1002
{
1002
}
1000
GenStdLG
1070
     4
1000

1002
{
1002
}
1000
LayMatch
1070
     3
1070
     0
1002
{
1002
}
1000
LgOff
1070
     3
1070
     0
1002
{
1002
}
1000
CurLG
1070
    -5
1000

1002
{
1002
}
1002
}
1002
}
1000
LType
1070
     0
1002
{
1000
GEN3
1070
     7
1000
genius.lin
1002
{
1002
}
1000
GEN7
1070
     7
1000
genius.lin
1002
{
1002
}
1000
GEN4A
1070
     7
1000
genius.lin
1002
{
1002
}
1000
GEN3A
1070
     7
1000
genius.lin
1002
{
1002
}
1000
GEN7A
1070
     7
1000
genius.lin
1002
{
1002
}
1000
GENZIGZAG
1070
     7
1000
genius.lin
1002
{
1002
}
1002
}
1000
Objecter
1070
     0
1002
{
1000
CreateGroups
1070
     3
1070
     0
1002
{
1002
}
1000
LaySwitch
1070
     3
1070
     1
1002
{
1002
}
1000
LastObj
1070
    -5
1000
1489
1002
{
1002
}
1000
TimeStamp
1070
    -5
1000
20020508.17000724
1002
{
1002
}
1002
}
1000
OSWiz
1070
     0
1002
{
1000
Filter
1070
     0
1002
{
1000
HATCH
1070
     8
1002
{
1000
EntityType
1070
     4
1000
LINE
1002
{
1002
}
1000
Layer
1070
     4
1000
8,8N,*-8,*-8N
1002
{
1002
}
1000
Linetype
1070
     4
1000
*
1002
{
1002
}
1000
Color
1070
     4
1000
*
1002
{
1002
}
1000
ApplyInDims
1070
     3
1070
     1
1002
{
1002
}
1002
}
1000
SYMBOLS
1070
     8
1002
{
1000
EntityType
1070
     4
1000
*
1002
{
1002
}
1000
Layer
1070
     4
1000
[5-6],[5-6]N,*-[5-6],*-[5-6]N
1002
{
1002
}
1000
Linetype
1070
     4
1000
*
1002
{
1002
}
1000
Color
1070
     4
1000
*
1002
{
1002
}
1000
ApplyInDims
1070
     3
1070
     1
1002
{
1002
}
1002
}
1000
FEM
1070
     8
1002
{
1000
EntityType
1070
     4
1000
*
1002
{
1002
}
1000
Layer
1070
     4
1000
4A,4AN,*-4A,*-4AN
1002
{
1002
}
1000
Linetype
1070
     4
1000
*
1002
{
1002
}
1000
Color
1070
     4
1000
*
1002
{
1002
}
1000
ApplyInDims
1070
     3
1070
     1
1002
{
1002
}
1002
}
1002
}
1002
}
1000
PaList
1070
     0
1002
{
1000
AutoUpdatePartList
1070
     1
1070
     0
1002
{
1002
}
1000
ReadInfoPoint
1070
     3
1070
     0
1002
{
1002
}
1000
ReadPosNr
1070
     3
1070
     1
1002
{
1002
}
1000
RevStr
1070
     4
1000
0
1002
{
1002
}
1002
}
1000
Paper
1070
     0
1002
{
1002
}
1000
PartDB
1070
     0
1002
{
1000
GenDbOwner
1070
     4
1000

1002
{
1002
}
1002
}
1000
System
1070
     0
1002
{
1000
Menu
1070
     4
1000
GEV
1002
{
1002
}
1002
}
1000
Title
1070
     0
1002
{
1000
MakeView
1070
     1
1070
     2
1002
{
1002
}
1002
}
1000
Tools
1070
     0
1002
{
1000
Trans
1070
     0
1002
{
1000
Drawingtranslation
1070
    -4
1070
     1
1002
{
1002
}
1000
upreserve
1070
     3
1070
     0
1002
{
1002
}
1000
originally_on
1070
    -4
1070
     0
1002
{
1002
}
1000
sourcelang
1070
    -5
1000
D
1002
{
1002
}
1002
}
1002
}
  0
APPID
  5
1416
330
13D2
100
AcDbSymbolTableRecord
100
AcDbRegAppTableRecord
  2
GENIUS_GEVCFG0_13
 70
     0
1001
GENIUS_GENCFG_13
1071
1020870030
1000
1416
1000
GEV
1070
     1
1000
GenCfgObject
1000
VED
1070
     0
1002
{
1002
}
  0
APPID
  5
1458
330
13D2
100
AcDbSymbolTableRecord
100
AcDbRegAppTableRecord
  2
GEV_VCCNULL_SWITCH_OFF
 70
     0
  0
APPID
  5
1459
330
13D2
100
AcDbSymbolTableRecord
100
AcDbRegAppTableRecord
  2
GENIUS_GENDTOL_13
 70
     0
  0
APPID
  5
145A
330
13D2
100
AcDbSymbolTableRecord
100
AcDbRegAppTableRecord
  2
GENIUS_GENOENT_13
 70
     0
  0
APPID
  5
145B
330
13D2
100
AcDbSymbolTableRecord
100
AcDbRegAppTableRecord
  2
GENIUS_GENBLLY_14
 70
     0
  0
APPID
  5
145C
330
13D2
100
AcDbSymbolTableRecord
100
AcDbRegAppTableRecord
  2
GENIUS_GENODEF_13
 70
     0
  0
APPID
  5
145D
330
13D2
100
AcDbSymbolTableRecord
100
AcDbRegAppTableRecord
  2
GENIUS_GENOBJ-N-CRS_13
 70
     0
  0
APPID
  5
145E
330
13D2
100
AcDbSymbolTableRecord
100
AcDbRegAppTableRecord
  2
GENIUS_GENOREF_13
 70
     0
  0
APPID
  5
145F
330
13D2
100
AcDbSymbolTableRecord
100
AcDbRegAppTableRecord
  2
GENIUS_GENOLIS_13
 70
     0
  0
APPID
  5
1460
330
13D2
100
AcDbSymbolTableRecord
100
AcDbRegAppTableRecord
  2
GENIUS_GEFCFG0_13
 70
     0
  0
APPID
  5
1461
330
13D2
100
AcDbSymbolTableRecord
100
AcDbRegAppTableRecord
  2
GENIUS_VERSION2
 70
     0
  0
APPID
  5
1462
330
13D2
100
AcDbSymbolTableRecord
100
AcDbRegAppTableRecord
  2
GENIUS_GENREC_14
 70
     0
  0
APPID
  5
1463
330
13D2
100
AcDbSymbolTableRecord
100
AcDbRegAppTableRecord
  2
GENIUS_GENOBJ-N-REC_13
 70
     0
  0
APPID
  5
1464
330
13D2
100
AcDbSymbolTableRecord
100
AcDbRegAppTableRecord
  2
GENIUS_GENOBJ-N-TIT_13
 70
     0
  0
APPID
  5
1465
330
13D2
100
AcDbSymbolTableRecord
100
AcDbRegAppTableRecord
  2
GENIUS_GENTITLE_13
 70
     0
  0
APPID
  5
1466
330
13D2
100
AcDbSymbolTableRecord
100
AcDbRegAppTableRecord
  2
GENIUS_GENZVEED_13
 70
     0
  0
APPID
  5
1467
330
13D2
100
AcDbSymbolTableRecord
100
AcDbRegAppTableRecord
  2
GENIUS_GENOBJ-N-SDF_13
 70
     0
  0
APPID
  5
1468
330
13D2
100
AcDbSymbolTableRecord
100
AcDbRegAppTableRecord
  2
GENIUS_GENSCREG_13
 70
     0
  0
APPID
  5
1469
330
13D2
100
AcDbSymbolTableRecord
100
AcDbRegAppTableRecord
  2
GENIUS_GENBLKED_14
 70
     0
  0
APPID
  5
15C4
330
13D2
100
AcDbSymbolTableRecord
100
AcDbRegAppTableRecord
  2
MCAD_NO_VIS
 70
     0
  0
APPID
  5
15C5
330
13D2
100
AcDbSymbolTableRecord
100
AcDbRegAppTableRecord
  2
ACAD_TEMP_GRAPHIC
 70
     0
  0
APPID
  5
15F5
330
13D2
100
AcDbSymbolTableRecord
100
AcDbRegAppTableRecord
  2
AD_DRAW
 70
     0
  0
APPID
  5
15F8
330
13D2
100
AcDbSymbolTableRecord
100
AcDbRegAppTableRecord
  2
ACATTRIBSERVICES
 70
     0
  0
APPID
  5
1618
330
13D2
100
AcDbSymbolTableRecord
100
AcDbRegAppTableRecord
  2
DESIGNERASSEMBLIES
 70
     0
  0
APPID
  5
161E
330
13D2
100
AcDbSymbolTableRecord
100
AcDbRegAppTableRecord
  2
ACADM_DIM_EDIT
 70
     0
  0
APPID
  5
161F
330
13D2
100
AcDbSymbolTableRecord
100
AcDbRegAppTableRecord
  2
AMDT_DM_ADJ
 70
     0
  0
APPID
  5
1651
330
13D2
100
AcDbSymbolTableRecord
100
AcDbRegAppTableRecord
  2
ACAD_DSTYLE_DIMARC_LENGTH_SYMBOL
 70
     0
  0
APPID
  5
1652
330
13D2
100
AcDbSymbolTableRecord
100
AcDbRegAppTableRecord
  2
ACAD_DSTYLE_DIMJOGGED_JOGANGLE_SYMBOL
 70
     0
  0
ENDTAB
  0
TABLE
  2
DIMSTYLE
  5
13D3
330
0
100
AcDbSymbolTable
 70
     9
100
AcDbDimStyleTable
 71
     0
  0
DIMSTYLE
105
13F9
102
{ACAD_REACTORS
330
10EF
330
10F9
330
137C
330
1386
330
139B
330
13A5
102
}
330
13D3
100
AcDbSymbolTableRecord
100
AcDbDimStyleTableRecord
  2
GEN-ISO
 70
     0
  4
"
 40
5.0
 41
2.5
 42
1.0
 43
7.0
 44
1.0
 47
0.1
 48
0.1
 73
     0
 74
     0
 77
     1
 78
     8
140
3.5
141
0.0
143
0.03937
146
0.71
147
0.6
172
     1
176
   256
177
   256
178
     2
271
     2
272
     3
274
     4
283
     0
340
13D8
  0
DIMSTYLE
105
1650
330
13D3
100
AcDbSymbolTableRecord
100
AcDbDimStyleTableRecord
  2
AM_DIN
 70
     0
  4
"
 41
2.5
 42
1.0
 43
10.0
 44
1.0
 47
0.1
 48
0.1
 73
     0
 74
     0
 77
     1
 78
     8
 79
     2
140
3.5
141
0.0
143
0.0393701
146
0.71
147
1.5
172
     1
176
   256
177
   256
178
     2
271
     2
272
     3
274
     4
283
     0
284
     8
340
13D8
371
    -1
372
    -1
1001
ACAD_DSTYLE_DIMARC_LENGTH_SYMBOL
1070
   379
1070
     0
1001
ACAD_DSTYLE_DIMJOGGED_JOGANGLE_SYMBOL
1070
   384
1040
1.570796326794896
  0
DIMSTYLE
105
1661
330
13D3
100
AcDbSymbolTableRecord
100
AcDbDimStyleTableRecord
  2
AM_DIN$3
 70
     0
  4
"
 41
2.5
 42
1.0
 43
10.0
 44
1.0
 47
0.1
 48
0.1
 73
     0
 77
     1
 78
     8
 79
     2
140
3.5
141
0.0
143
0.0393701
146
0.71
147
1.5
176
   256
177
   256
178
     2
271
     2
272
     3
274
     4
283
     0
284
     8
288
     1
289
     0
340
13D8
371
    -1
372
    -1
1001
ACAD_DSTYLE_DIMARC_LENGTH_SYMBOL
1070
   379
1070
     0
1001
ACAD_DSTYLE_DIMJOGGED_JOGANGLE_SYMBOL
1070
   384
1040
1.570796326794896
  0
DIMSTYLE
105
1666
330
13D3
100
AcDbSymbolTableRecord
100
AcDbDimStyleTableRecord
  2
AM_DIN$4
 70
     0
  4
"
 41
2.5
 42
1.0
 43
10.0
 44
1.0
 47
0.1
 48
0.1
 73
     0
 77
     1
 78
     8
 79
     2
140
3.5
141
0.0
143
0.0393701
146
0.71
147
1.5
176
   256
177
   256
178
     2
271
     2
272
     3
274
     4
283
     0
284
     8
288
     1
289
     0
340
13D8
371
    -1
372
    -1
1001
ACAD_DSTYLE_DIMARC_LENGTH_SYMBOL
1070
   379
1070
     0
1001
ACAD_DSTYLE_DIMJOGGED_JOGANGLE_SYMBOL
1070
   384
1040
1.570796326794896
  0
DIMSTYLE
105
166B
330
13D3
100
AcDbSymbolTableRecord
100
AcDbDimStyleTableRecord
  2
AM_DIN$6
 70
     0
  4
"
 41
2.5
 42
1.0
 43
10.0
 44
1.0
 47
0.1
 48
0.1
 73
     0
 74
     0
 78
     8
 79
     2
140
3.5
141
0.0
143
0.0393701
146
0.71
147
1.5
172
     1
176
   256
177
   256
178
     2
271
     2
272
     3
274
     4
283
     0
284
     8
340
13D8
371
    -1
372
    -1
1001
ACAD_DSTYLE_DIMARC_LENGTH_SYMBOL
1070
   379
1070
     0
1001
ACAD_DSTYLE_DIMJOGGED_JOGANGLE_SYMBOL
1070
   384
1040
1.570796326794896
  0
DIMSTYLE
105
1670
330
13D3
100
AcDbSymbolTableRecord
100
AcDbDimStyleTableRecord
  2
AM_DIN$7
 70
     0
  4
"
 41
2.5
 42
1.0
 43
10.0
 44
1.0
 47
0.1
 48
0.1
 73
     0
 74
     0
 77
     1
 78
     8
 79
     2
140
5.0
141
0.0
143
0.0393701
146
0.71
147
1.5
172
     1
176
   256
177
   256
178
     2
271
     2
272
     3
274
     4
283
     0
284
     8
340
13D8
371
    -1
372
    -1
1001
ACAD_DSTYLE_DIMARC_LENGTH_SYMBOL
1070
   379
1070
     0
1001
ACAD_DSTYLE_DIMJOGGED_JOGANGLE_SYMBOL
1070
   384
1040
1.570796326794896
  0
DIMSTYLE
105
1675
330
13D3
100
AcDbSymbolTableRecord
100
AcDbDimStyleTableRecord
  2
AM_DIN$SF
 70
     0
  4
"
 41
2.5
 42
1.0
 43
10.0
 44
1.0
 47
0.1
 48
0.1
 73
     0
 74
     0
 75
     1
 76
     1
 77
     1
 78
     8
 79
     2
140
3.5
141
0.0
143
0.0393701
146
0.71
147
1.5
172
     1
176
   256
177
   256
178
     2
271
     2
272
     3
274
     4
283
     0
284
     8
340
13D8
371
    -1
372
    -1
1001
ACAD_DSTYLE_DIMARC_LENGTH_SYMBOL
1070
   379
1070
     0
1001
ACAD_DSTYLE_DIMJOGGED_JOGANGLE_SYMBOL
1070
   384
1040
1.570796326794896
  0
DIMSTYLE
105
167E
330
13D3
100
AcDbSymbolTableRecord
100
AcDbDimStyleTableRecord
  2
AM_DIN$SH
 70
     0
  4
"
 41
2.5
 42
1.0
 43
10.0
 44
1.0
 47
0.1
 48
0.1
 73
     0
 74
     0
 75
     1
 76
     1
 77
     1
 78
     8
 79
     2
140
3.5
141
0.0
143
0.0393701
144
2.0
146
0.71
147
1.5
172
     1
173
     1
176
   256
177
   256
178
     2
271
     2
272
     3
274
     4
283
     0
284
     8
340
13D8
343
1676
371
    -1
372
    -1
1001
ACAD_DSTYLE_DIMARC_LENGTH_SYMBOL
1070
   379
1070
     0
1001
ACAD_DSTYLE_DIMJOGGED_JOGANGLE_SYMBOL
1070
   384
1040
1.570796326794896
  0
ENDTAB
  0
TABLE
  2
BLOCK_RECORD
  5
13CA
330
0
100
AcDbSymbolTable
 70
    21
  0
BLOCK_RECORD
  5
13E1
330
13CA
100
AcDbSymbolTableRecord
100
AcDbBlockTableRecord
  2
*MODEL_SPACE
340
15BC
  0
BLOCK_RECORD
  5
13DE
330
13CA
100
AcDbSymbolTableRecord
100
AcDbBlockTableRecord
  2
*PAPER_SPACE
340
15BD
  0
BLOCK_RECORD
  5
13FD
330
13CA
100
AcDbSymbolTableRecord
100
AcDbBlockTableRecord
  2
*X0
340
0
102
{BLKREFS
331
1179
102
}
  0
BLOCK_RECORD
  5
13FE
330
13CA
100
AcDbSymbolTableRecord
100
AcDbBlockTableRecord
  2
*X1
340
0
102
{BLKREFS
331
11E0
102
}
  0
BLOCK_RECORD
  5
13FF
330
13CA
100
AcDbSymbolTableRecord
100
AcDbBlockTableRecord
  2
*X2
340
0
102
{BLKREFS
331
1248
102
}
  0
BLOCK_RECORD
  5
1400
330
13CA
100
AcDbSymbolTableRecord
100
AcDbBlockTableRecord
  2
*X3
340
0
102
{BLKREFS
331
126B
102
}
  0
BLOCK_RECORD
  5
1401
330
13CA
100
AcDbSymbolTableRecord
100
AcDbBlockTableRecord
  2
*X4
340
0
102
{BLKREFS
331
128E
102
}
  0
BLOCK_RECORD
  5
1402
330
13CA
100
AcDbSymbolTableRecord
100
AcDbBlockTableRecord
  2
*X5
340
0
102
{BLKREFS
331
12F9
102
}
  0
BLOCK_RECORD
  5
1403
330
13CA
100
AcDbSymbolTableRecord
100
AcDbBlockTableRecord
  2
*X6
340
0
102
{BLKREFS
331
1373
102
}
  0
BLOCK_RECORD
  5
1418
330
13CA
100
AcDbSymbolTableRecord
100
AcDbBlockTableRecord
  2
*D7
340
0
  0
BLOCK_RECORD
  5
1428
330
13CA
100
AcDbSymbolTableRecord
100
AcDbBlockTableRecord
  2
KATALOG_LEER
340
0
102
{BLKREFS
331
146B
331
1488
102
}
  0
BLOCK_RECORD
  5
1495
330
13CA
100
AcDbSymbolTableRecord
100
AcDbBlockTableRecord
  2
*D10
340
0
  0
BLOCK_RECORD
  5
14B0
330
13CA
100
AcDbSymbolTableRecord
100
AcDbBlockTableRecord
  2
*D11
340
0
  0
BLOCK_RECORD
  5
14E2
330
13CA
100
AcDbSymbolTableRecord
100
AcDbBlockTableRecord
  2
*D13
340
0
  0
BLOCK_RECORD
  5
14F9
330
13CA
100
AcDbSymbolTableRecord
100
AcDbBlockTableRecord
  2
*D14
340
0
  0
BLOCK_RECORD
  5
1510
330
13CA
100
AcDbSymbolTableRecord
100
AcDbBlockTableRecord
  2
*D15
340
0
  0
BLOCK_RECORD
  5
1676
330
13CA
100
AcDbSymbolTableRecord
100
AcDbBlockTableRecord
  2
GENAXEH
340
0
  0
ENDTAB
  0
ENDSEC
  0
SECTION
  2
BLOCKS
  0
BLOCK
  5
13E2
330
13E1
100
AcDbEntity
  8
0
100
AcDbBlockBegin
  2
*MODEL_SPACE
 70
     0
 10
0.0
 20
0.0
 30
0.0
  3
*MODEL_SPACE
  1

  0
ENDBLK
  5
13E3
330
13E1
100
AcDbEntity
  8
0
100
AcDbBlockEnd
  0
BLOCK
  5
13DF
330
13DE
100
AcDbEntity
 67
     1
  8
0
100
AcDbBlockBegin
  2
*PAPER_SPACE
 70
     0
 10
0.0
 20
0.0
 30
0.0
  3
*PAPER_SPACE
  1

  0
ENDBLK
  5
13E0
330
13DE
100
AcDbEntity
 67
     1
  8
0
100
AcDbBlockEnd
  0
BLOCK
  5
113E
330
13FD
100
AcDbEntity
  8
0
100
AcDbBlockBegin
  2
*X0
 70
     1
 10
0.0
 20
0.0
 30
0.0
  3
*X0
  1

  0
LINE
  5
113F
330
13FD
100
AcDbEntity
  8
8
100
AcDbLine
 10
310.953
 20
238.207
 30
0.0
 11
313.453
 21
238.207
 31
0.0
  0
LINE
  5
1140
330
13FD
100
AcDbEntity
  8
8
100
AcDbLine
 10
433.4529999999999
 20
238.207
 30
0.0
 11
435.953
 21
238.207
 31
0.0
  0
LINE
  5
1141
330
13FD
100
AcDbEntity
  8
8
100
AcDbLine
 10
310.953
 20
241.382
 30
0.0
 11
313.453
 21
241.382
 31
0.0
  0
LINE
  5
1142
330
13FD
100
AcDbEntity
  8
8
100
AcDbLine
 10
433.4529999999999
 20
241.382
 30
0.0
 11
435.953
 21
241.382
 31
0.0
  0
LINE
  5
1143
330
13FD
100
AcDbEntity
  8
8
100
AcDbLine
 10
310.953
 20
244.557
 30
0.0
 11
313.453
 21
244.557
 31
0.0
  0
LINE
  5
1144
330
13FD
100
AcDbEntity
  8
8
100
AcDbLine
 10
433.4529999999999
 20
244.557
 30
0.0
 11
435.953
 21
244.557
 31
0.0
  0
LINE
  5
1145
330
13FD
100
AcDbEntity
  8
8
100
AcDbLine
 10
310.953
 20
247.732
 30
0.0
 11
313.453
 21
247.732
 31
0.0
  0
LINE
  5
1146
330
13FD
100
AcDbEntity
  8
8
100
AcDbLine
 10
433.4529999999999
 20
247.732
 30
0.0
 11
435.953
 21
247.732
 31
0.0
  0
LINE
  5
1147
330
13FD
100
AcDbEntity
  8
8
100
AcDbLine
 10
310.953
 20
250.907
 30
0.0
 11
313.453
 21
250.907
 31
0.0
  0
LINE
  5
1148
330
13FD
100
AcDbEntity
  8
8
100
AcDbLine
 10
433.4529999999999
 20
250.907
 30
0.0
 11
435.953
 21
250.907
 31
0.0
  0
LINE
  5
1149
330
13FD
100
AcDbEntity
  8
8
100
AcDbLine
 10
310.953
 20
254.082
 30
0.0
 11
313.453
 21
254.082
 31
0.0
  0
LINE
  5
114A
330
13FD
100
AcDbEntity
  8
8
100
AcDbLine
 10
433.4529999999999
 20
254.082
 30
0.0
 11
435.953
 21
254.082
 31
0.0
  0
LINE
  5
114B
330
13FD
100
AcDbEntity
  8
8
100
AcDbLine
 10
310.953
 20
257.257
 30
0.0
 11
313.453
 21
257.257
 31
0.0
  0
LINE
  5
114C
330
13FD
100
AcDbEntity
  8
8
100
AcDbLine
 10
433.4529999999999
 20
257.257
 30
0.0
 11
435.953
 21
257.257
 31
0.0
  0
LINE
  5
114D
330
13FD
100
AcDbEntity
  8
8
100
AcDbLine
 10
310.953
 20
260.432
 30
0.0
 11
313.453
 21
260.432
 31
0.0
  0
LINE
  5
114E
330
13FD
100
AcDbEntity
  8
8
100
AcDbLine
 10
433.4529999999999
 20
260.432
 30
0.0
 11
435.953
 21
260.432
 31
0.0
  0
LINE
  5
114F
330
13FD
100
AcDbEntity
  8
8
100
AcDbLine
 10
310.953
 20
263.607
 30
0.0
 11
313.453
 21
263.607
 31
0.0
  0
LINE
  5
1150
330
13FD
100
AcDbEntity
  8
8
100
AcDbLine
 10
433.4529999999999
 20
263.607
 30
0.0
 11
435.953
 21
263.607
 31
0.0
  0
LINE
  5
1151
330
13FD
100
AcDbEntity
  8
8
100
AcDbLine
 10
310.953
 20
266.782
 30
0.0
 11
313.453
 21
266.782
 31
0.0
  0
LINE
  5
1152
330
13FD
100
AcDbEntity
  8
8
100
AcDbLine
 10
433.4529999999999
 20
266.782
 30
0.0
 11
435.953
 21
266.782
 31
0.0
  0
LINE
  5
1153
330
13FD
100
AcDbEntity
  8
8
100
AcDbLine
 10
310.953
 20
269.957
 30
0.0
 11
313.453
 21
269.957
 31
0.0
  0
LINE
  5
1154
330
13FD
100
AcDbEntity
  8
8
100
AcDbLine
 10
433.4529999999999
 20
269.957
 30
0.0
 11
435.953
 21
269.957
 31
0.0
  0
LINE
  5
1155
330
13FD
100
AcDbEntity
  8
8
100
AcDbLine
 10
310.953
 20
273.132
 30
0.0
 11
313.453
 21
273.132
 31
0.0
  0
LINE
  5
1156
330
13FD
100
AcDbEntity
  8
8
100
AcDbLine
 10
433.4529999999999
 20
273.132
 30
0.0
 11
435.953
 21
273.132
 31
0.0
  0
LINE
  5
1157
330
13FD
100
AcDbEntity
  8
8
100
AcDbLine
 10
310.953
 20
276.307
 30
0.0
 11
313.453
 21
276.307
 31
0.0
  0
LINE
  5
1158
330
13FD
100
AcDbEntity
  8
8
100
AcDbLine
 10
433.4529999999999
 20
276.307
 30
0.0
 11
435.953
 21
276.307
 31
0.0
  0
LINE
  5
1159
330
13FD
100
AcDbEntity
  8
8
100
AcDbLine
 10
310.953
 20
279.482
 30
0.0
 11
313.453
 21
279.482
 31
0.0
  0
LINE
  5
115A
330
13FD
100
AcDbEntity
  8
8
100
AcDbLine
 10
433.4529999999999
 20
279.482
 30
0.0
 11
435.953
 21
279.482
 31
0.0
  0
LINE
  5
115B
330
13FD
100
AcDbEntity
  8
8
100
AcDbLine
 10
310.953
 20
282.657
 30
0.0
 11
313.453
 21
282.657
 31
0.0
  0
LINE
  5
115C
330
13FD
100
AcDbEntity
  8
8
100
AcDbLine
 10
433.4529999999999
 20
282.657
 30
0.0
 11
435.953
 21
282.657
 31
0.0
  0
LINE
  5
115D
330
13FD
100
AcDbEntity
  8
8
100
AcDbLine
 10
310.953
 20
285.832
 30
0.0
 11
313.453
 21
285.832
 31
0.0
  0
LINE
  5
115E
330
13FD
100
AcDbEntity
  8
8
100
AcDbLine
 10
433.4529999999999
 20
285.832
 30
0.0
 11
435.953
 21
285.832
 31
0.0
  0
LINE
  5
115F
330
13FD
100
AcDbEntity
  8
8
100
AcDbLine
 10
310.953
 20
289.007
 30
0.0
 11
313.453
 21
289.007
 31
0.0
  0
LINE
  5
1160
330
13FD
100
AcDbEntity
  8
8
100
AcDbLine
 10
433.4529999999999
 20
289.007
 30
0.0
 11
435.953
 21
289.007
 31
0.0
  0
LINE
  5
1161
330
13FD
100
AcDbEntity
  8
8
100
AcDbLine
 10
310.953
 20
292.182
 30
0.0
 11
313.453
 21
292.182
 31
0.0
  0
LINE
  5
1162
330
13FD
100
AcDbEntity
  8
8
100
AcDbLine
 10
433.4529999999999
 20
292.182
 30
0.0
 11
435.953
 21
292.182
 31
0.0
  0
LINE
  5
1163
330
13FD
100
AcDbEntity
  8
8
100
AcDbLine
 10
310.953
 20
295.357
 30
0.0
 11
313.453
 21
295.357
 31
0.0
  0
LINE
  5
1164
330
13FD
100
AcDbEntity
  8
8
100
AcDbLine
 10
433.4529999999999
 20
295.357
 30
0.0
 11
435.953
 21
295.357
 31
0.0
  0
LINE
  5
1165
330
13FD
100
AcDbEntity
  8
8
100
AcDbLine
 10
310.953
 20
298.532
 30
0.0
 11
313.453
 21
298.532
 31
0.0
  0
LINE
  5
1166
330
13FD
100
AcDbEntity
  8
8
100
AcDbLine
 10
433.4529999999999
 20
298.532
 30
0.0
 11
435.953
 21
298.532
 31
0.0
  0
LINE
  5
1167
330
13FD
100
AcDbEntity
  8
8
100
AcDbLine
 10
311.267
 20
301.707
 30
0.0
 11
313.848
 21
301.707
 31
0.0
  0
LINE
  5
1168
330
13FD
100
AcDbEntity
  8
8
100
AcDbLine
 10
433.0569999999999
 20
301.707
 30
0.0
 11
435.639
 21
301.707
 31
0.0
  0
LINE
  5
1169
330
13FD
100
AcDbEntity
  8
8
100
AcDbLine
 10
312.17
 20
304.882
 30
0.0
 11
314.923
 21
304.882
 31
0.0
  0
LINE
  5
116A
330
13FD
100
AcDbEntity
  8
8
100
AcDbLine
 10
431.983
 20
304.882
 30
0.0
 11
434.735
 21
304.882
 31
0.0
  0
LINE
  5
116B
330
13FD
100
AcDbEntity
  8
8
100
AcDbLine
 10
313.779
 20
308.057
 30
0.0
 11
316.907
 21
308.057
 31
0.0
  0
LINE
  5
116C
330
13FD
100
AcDbEntity
  8
8
100
AcDbLine
 10
368.597
 20
308.057
 30
0.0
 11
378.309
 21
308.057
 31
0.0
  0
LINE
  5
116D
330
13FD
100
AcDbEntity
  8
8
100
AcDbLine
 10
429.999
 20
308.057
 30
0.0
 11
433.1269999999999
 21
308.057
 31
0.0
  0
LINE
  5
116E
330
13FD
100
AcDbEntity
  8
8
100
AcDbLine
 10
316.406
 20
311.232
 30
0.0
 11
320.559
 21
311.232
 31
0.0
  0
LINE
  5
116F
330
13FD
100
AcDbEntity
  8
8
100
AcDbLine
 10
365.838
 20
311.232
 30
0.0
 11
368.927
 21
311.232
 31
0.0
  0
LINE
  5
1170
330
13FD
100
AcDbEntity
  8
8
100
AcDbLine
 10
377.9790000000001
 20
311.232
 30
0.0
 11
381.0680000000001
 21
311.232
 31
0.0
  0
LINE
  5
1171
330
13FD
100
AcDbEntity
  8
8
100
AcDbLine
 10
426.3469999999999
 20
311.232
 30
0.0
 11
430.4999999999999
 21
311.232
 31
0.0
  0
LINE
  5
1172
330
13FD
100
AcDbEntity
  8
8
100
AcDbLine
 10
321.121
 20
314.407
 30
0.0
 11
337.716
 21
314.407
 31
0.0
  0
LINE
  5
1173
330
13FD
100
AcDbEntity
  8
8
100
AcDbLine
 10
364.002
 20
314.407
 30
0.0
 11
366.892
 21
314.407
 31
0.0
  0
LINE
  5
1174
330
13FD
100
AcDbEntity
  8
8
100
AcDbLine
 10
380.014
 20
314.407
 30
0.0
 11
382.904
 21
314.407
 31
0.0
  0
LINE
  5
1175
330
13FD
100
AcDbEntity
  8
8
100
AcDbLine
 10
409.1859999999999
 20
314.407
 30
0.0
 11
425.785
 21
314.407
 31
0.0
  0
LINE
  5
1176
330
13FD
100
AcDbEntity
  8
8
100
AcDbLine
 10
345.325
 20
317.582
 30
0.0
 11
364.634
 21
317.582
 31
0.0
  0
LINE
  5
1177
330
13FD
100
AcDbEntity
  8
8
100
AcDbLine
 10
382.272
 20
317.582
 30
0.0
 11
401.5799999999999
 21
317.582
 31
0.0
  0
ENDBLK
  5
1178
330
13FD
100
AcDbEntity
  8
0
100
AcDbBlockEnd
  0
BLOCK
  5
11B9
330
13FE
100
AcDbEntity
  8
0
100
AcDbBlockBegin
  2
*X1
 70
     1
 10
0.0
 20
0.0
 30
0.0
  3
*X1
  1

  0
LINE
  5
11BA
330
13FE
100
AcDbEntity
  8
8
100
AcDbLine
 10
328.358
 20
177.882
 30
0.0
 11
333.453
 21
177.882
 31
0.0
  0
LINE
  5
11BB
330
13FE
100
AcDbEntity
  8
8
100
AcDbLine
 10
330.244
 20
181.057
 30
0.0
 11
333.453
 21
181.057
 31
0.0
  0
LINE
  5
11BC
330
13FE
100
AcDbEntity
  8
8
100
AcDbLine
 10
329.989
 20
184.232
 30
0.0
 11
333.453
 21
184.232
 31
0.0
  0
LINE
  5
11BD
330
13FE
100
AcDbEntity
  8
8
100
AcDbLine
 10
328.503
 20
187.407
 30
0.0
 11
333.453
 21
187.407
 31
0.0
  0
LINE
  5
11BE
330
13FE
100
AcDbEntity
  8
8
100
AcDbLine
 10
328.453
 20
190.582
 30
0.0
 11
333.453
 21
190.582
 31
0.0
  0
LINE
  5
11BF
330
13FE
100
AcDbEntity
  8
8
100
AcDbLine
 10
328.892
 20
193.757
 30
0.0
 11
333.453
 21
193.757
 31
0.0
  0
LINE
  5
11C0
330
13FE
100
AcDbEntity
  8
8
100
AcDbLine
 10
330.379
 20
196.932
 30
0.0
 11
333.453
 21
196.932
 31
0.0
  0
LINE
  5
11C1
330
13FE
100
AcDbEntity
  8
8
100
AcDbLine
 10
330.224
 20
200.107
 30
0.0
 11
333.453
 21
200.107
 31
0.0
  0
LINE
  5
11C2
330
13FE
100
AcDbEntity
  8
8
100
AcDbLine
 10
324.996
 20
203.282
 30
0.0
 11
333.453
 21
203.282
 31
0.0
  0
LINE
  5
11C3
330
13FE
100
AcDbEntity
  8
8
100
AcDbLine
 10
330.076
 20
206.457
 30
0.0
 11
333.453
 21
206.457
 31
0.0
  0
LINE
  5
11C4
330
13FE
100
AcDbEntity
  8
8
100
AcDbLine
 10
330.205
 20
209.632
 30
0.0
 11
333.453
 21
209.632
 31
0.0
  0
LINE
  5
11C5
330
13FE
100
AcDbEntity
  8
8
100
AcDbLine
 10
313.052
 20
212.807
 30
0.0
 11
333.917
 21
212.807
 31
0.0
  0
LINE
  5
11C6
330
13FE
100
AcDbEntity
  8
8
100
AcDbLine
 10
324.453
 20
215.982
 30
0.0
 11
335.662
 21
215.982
 31
0.0
  0
LINE
  5
11C7
330
13FE
100
AcDbEntity
  8
8
100
AcDbLine
 10
334.586
 20
219.157
 30
0.0
 11
339.591
 21
219.157
 31
0.0
  0
LINE
  5
11C8
330
13FE
100
AcDbEntity
  8
8
100
AcDbLine
 10
339.78
 20
222.332
 30
0.0
 11
343.607
 21
222.332
 31
0.0
  0
LINE
  5
11C9
330
13FE
100
AcDbEntity
  8
8
100
AcDbLine
 10
343.172
 20
225.507
 30
0.0
 11
346.419
 21
225.507
 31
0.0
  0
LINE
  5
11CA
330
13FE
100
AcDbEntity
  8
8
100
AcDbLine
 10
345.6130000000001
 20
228.682
 30
0.0
 11
348.518
 21
228.682
 31
0.0
  0
LINE
  5
11CB
330
13FE
100
AcDbEntity
  8
8
100
AcDbLine
 10
347.311
 20
231.857
 30
0.0
 11
349.961
 21
231.857
 31
0.0
  0
LINE
  5
11CC
330
13FE
100
AcDbEntity
  8
8
100
AcDbLine
 10
348.449
 20
235.032
 30
0.0
 11
351.934
 21
235.032
 31
0.0
  0
LINE
  5
11CD
330
13FE
100
AcDbEntity
  8
8
100
AcDbLine
 10
349.139
 20
238.207
 30
0.0
 11
351.912
 21
238.207
 31
0.0
  0
LINE
  5
11CE
330
13FE
100
AcDbEntity
  8
8
100
AcDbLine
 10
349.399
 20
241.382
 30
0.0
 11
351.89
 21
241.382
 31
0.0
  0
LINE
  5
11CF
330
13FE
100
AcDbEntity
  8
8
100
AcDbLine
 10
349.4530000000001
 20
244.557
 30
0.0
 11
351.885
 21
244.557
 31
0.0
  0
LINE
  5
11D0
330
13FE
100
AcDbEntity
  8
8
100
AcDbLine
 10
349.4530000000001
 20
247.732
 30
0.0
 11
351.889
 21
247.732
 31
0.0
  0
LINE
  5
11D1
330
13FE
100
AcDbEntity
  8
8
100
AcDbLine
 10
349.4530000000001
 20
250.907
 30
0.0
 11
351.894
 21
250.907
 31
0.0
  0
LINE
  5
11D2
330
13FE
100
AcDbEntity
  8
8
100
AcDbLine
 10
349.4530000000001
 20
254.082
 30
0.0
 11
351.898
 21
254.082
 31
0.0
  0
LINE
  5
11D3
330
13FE
100
AcDbEntity
  8
8
100
AcDbLine
 10
349.4530000000001
 20
257.257
 30
0.0
 11
351.902
 21
257.257
 31
0.0
  0
LINE
  5
11D4
330
13FE
100
AcDbEntity
  8
8
100
AcDbLine
 10
349.4530000000001
 20
260.432
 30
0.0
 11
351.906
 21
260.432
 31
0.0
  0
LINE
  5
11D5
330
13FE
100
AcDbEntity
  8
8
100
AcDbLine
 10
349.4530000000001
 20
263.607
 30
0.0
 11
351.911
 21
263.607
 31
0.0
  0
LINE
  5
11D6
330
13FE
100
AcDbEntity
  8
8
100
AcDbLine
 10
349.4530000000001
 20
266.782
 30
0.0
 11
351.915
 21
266.782
 31
0.0
  0
LINE
  5
11D7
330
13FE
100
AcDbEntity
  8
8
100
AcDbLine
 10
349.4530000000001
 20
269.957
 30
0.0
 11
351.919
 21
269.957
 31
0.0
  0
LINE
  5
11D8
330
13FE
100
AcDbEntity
  8
8
100
AcDbLine
 10
349.4530000000001
 20
273.132
 30
0.0
 11
351.923
 21
273.132
 31
0.0
  0
LINE
  5
11D9
330
13FE
100
AcDbEntity
  8
8
100
AcDbLine
 10
349.4530000000001
 20
276.307
 30
0.0
 11
351.9280000000001
 21
276.307
 31
0.0
  0
LINE
  5
11DA
330
13FE
100
AcDbEntity
  8
8
100
AcDbLine
 10
349.4530000000001
 20
279.482
 30
0.0
 11
351.932
 21
279.482
 31
0.0
  0
LINE
  5
11DB
330
13FE
100
AcDbEntity
  8
8
100
AcDbLine
 10
349.4530000000001
 20
282.657
 30
0.0
 11
351.936
 21
282.657
 31
0.0
  0
LINE
  5
11DC
330
13FE
100
AcDbEntity
  8
8
100
AcDbLine
 10
349.4530000000001
 20
285.832
 30
0.0
 11
351.94
 21
285.832
 31
0.0
  0
LINE
  5
11DD
330
13FE
100
AcDbEntity
  8
8
100
AcDbLine
 10
349.4530000000001
 20
289.007
 30
0.0
 11
351.945
 21
289.007
 31
0.0
  0
LINE
  5
11DE
330
13FE
100
AcDbEntity
  8
8
100
AcDbLine
 10
349.4530000000001
 20
292.182
 30
0.0
 11
351.949
 21
292.182
 31
0.0
  0
ENDBLK
  5
11DF
330
13FE
100
AcDbEntity
  8
0
100
AcDbBlockEnd
  0
BLOCK
  5
1221
330
13FF
100
AcDbEntity
  8
0
100
AcDbBlockBegin
  2
*X2
 70
     1
 10
0.0
 20
0.0
 30
0.0
  3
*X2
  1

  0
LINE
  5
1222
330
13FF
100
AcDbEntity
  8
8
100
AcDbLine
 10
413.453
 20
177.882
 30
0.0
 11
418.689
 21
177.882
 31
0.0
  0
LINE
  5
1223
330
13FF
100
AcDbEntity
  8
8
100
AcDbLine
 10
413.453
 20
181.057
 30
0.0
 11
416.603
 21
181.057
 31
0.0
  0
LINE
  5
1224
330
13FF
100
AcDbEntity
  8
8
100
AcDbLine
 10
413.453
 20
184.232
 30
0.0
 11
416.8769999999999
 21
184.232
 31
0.0
  0
LINE
  5
1225
330
13FF
100
AcDbEntity
  8
8
100
AcDbLine
 10
413.453
 20
187.407
 30
0.0
 11
418.4029999999999
 21
187.407
 31
0.0
  0
LINE
  5
1226
330
13FF
100
AcDbEntity
  8
8
100
AcDbLine
 10
413.453
 20
190.582
 30
0.0
 11
418.453
 21
190.582
 31
0.0
  0
LINE
  5
1227
330
13FF
100
AcDbEntity
  8
8
100
AcDbLine
 10
413.453
 20
193.757
 30
0.0
 11
418.0139999999999
 21
193.757
 31
0.0
  0
LINE
  5
1228
330
13FF
100
AcDbEntity
  8
8
100
AcDbLine
 10
413.453
 20
196.932
 30
0.0
 11
416.5259999999999
 21
196.932
 31
0.0
  0
LINE
  5
1229
330
13FF
100
AcDbEntity
  8
8
100
AcDbLine
 10
413.453
 20
200.107
 30
0.0
 11
416.6859999999999
 21
200.107
 31
0.0
  0
LINE
  5
122A
330
13FF
100
AcDbEntity
  8
8
100
AcDbLine
 10
413.453
 20
203.282
 30
0.0
 11
421.9079999999999
 21
203.282
 31
0.0
  0
LINE
  5
122B
330
13FF
100
AcDbEntity
  8
8
100
AcDbLine
 10
413.453
 20
206.457
 30
0.0
 11
416.8379999999999
 21
206.457
 31
0.0
  0
LINE
  5
122C
330
13FF
100
AcDbEntity
  8
8
100
AcDbLine
 10
413.453
 20
209.632
 30
0.0
 11
416.708
 21
209.632
 31
0.0
  0
LINE
  5
122D
330
13FF
100
AcDbEntity
  8
8
100
AcDbLine
 10
412.9819999999999
 20
212.807
 30
0.0
 11
433.854
 21
212.807
 31
0.0
  0
LINE
  5
122E
330
13FF
100
AcDbEntity
  8
8
100
AcDbLine
 10
411.2359999999999
 20
215.982
 30
0.0
 11
422.453
 21
215.982
 31
0.0
  0
LINE
  5
122F
330
13FF
100
AcDbEntity
  8
8
100
AcDbLine
 10
407.318
 20
219.157
 30
0.0
 11
412.3319999999999
 21
219.157
 31
0.0
  0
LINE
  5
1230
330
13FF
100
AcDbEntity
  8
8
100
AcDbLine
 10
403.3069999999999
 20
222.332
 30
0.0
 11
407.1349999999999
 21
222.332
 31
0.0
  0
LINE
  5
1231
330
13FF
100
AcDbEntity
  8
8
100
AcDbLine
 10
400.494
 20
225.507
 30
0.0
 11
403.7409999999999
 21
225.507
 31
0.0
  0
LINE
  5
1232
330
13FF
100
AcDbEntity
  8
8
100
AcDbLine
 10
398.394
 20
228.682
 30
0.0
 11
401.299
 21
228.682
 31
0.0
  0
LINE
  5
1233
330
13FF
100
AcDbEntity
  8
8
100
AcDbLine
 10
396.945
 20
231.857
 30
0.0
 11
399.602
 21
231.857
 31
0.0
  0
LINE
  5
1234
330
13FF
100
AcDbEntity
  8
8
100
AcDbLine
 10
394.953
 20
235.032
 30
0.0
 11
398.456
 21
235.032
 31
0.0
  0
LINE
  5
1235
330
13FF
100
AcDbEntity
  8
8
100
AcDbLine
 10
394.953
 20
238.207
 30
0.0
 11
397.772
 21
238.207
 31
0.0
  0
LINE
  5
1236
330
13FF
100
AcDbEntity
  8
8
100
AcDbLine
 10
394.953
 20
241.382
 30
0.0
 11
397.5080000000001
 21
241.382
 31
0.0
  0
LINE
  5
1237
330
13FF
100
AcDbEntity
  8
8
100
AcDbLine
 10
394.953
 20
244.557
 30
0.0
 11
397.4530000000001
 21
244.557
 31
0.0
  0
LINE
  5
1238
330
13FF
100
AcDbEntity
  8
8
100
AcDbLine
 10
394.953
 20
247.732
 30
0.0
 11
397.4530000000001
 21
247.732
 31
0.0
  0
LINE
  5
1239
330
13FF
100
AcDbEntity
  8
8
100
AcDbLine
 10
394.953
 20
250.907
 30
0.0
 11
397.4530000000001
 21
250.907
 31
0.0
  0
LINE
  5
123A
330
13FF
100
AcDbEntity
  8
8
100
AcDbLine
 10
394.953
 20
254.082
 30
0.0
 11
397.4530000000001
 21
254.082
 31
0.0
  0
LINE
  5
123B
330
13FF
100
AcDbEntity
  8
8
100
AcDbLine
 10
394.953
 20
257.257
 30
0.0
 11
397.4530000000001
 21
257.257
 31
0.0
  0
LINE
  5
123C
330
13FF
100
AcDbEntity
  8
8
100
AcDbLine
 10
394.953
 20
260.432
 30
0.0
 11
397.4530000000001
 21
260.432
 31
0.0
  0
LINE
  5
123D
330
13FF
100
AcDbEntity
  8
8
100
AcDbLine
 10
394.953
 20
263.607
 30
0.0
 11
397.4530000000001
 21
263.607
 31
0.0
  0
LINE
  5
123E
330
13FF
100
AcDbEntity
  8
8
100
AcDbLine
 10
394.953
 20
266.782
 30
0.0
 11
397.4530000000001
 21
266.782
 31
0.0
  0
LINE
  5
123F
330
13FF
100
AcDbEntity
  8
8
100
AcDbLine
 10
394.953
 20
269.957
 30
0.0
 11
397.4530000000001
 21
269.957
 31
0.0
  0
LINE
  5
1240
330
13FF
100
AcDbEntity
  8
8
100
AcDbLine
 10
394.953
 20
273.132
 30
0.0
 11
397.4530000000001
 21
273.132
 31
0.0
  0
LINE
  5
1241
330
13FF
100
AcDbEntity
  8
8
100
AcDbLine
 10
394.953
 20
276.307
 30
0.0
 11
397.4530000000001
 21
276.307
 31
0.0
  0
LINE
  5
1242
330
13FF
100
AcDbEntity
  8
8
100
AcDbLine
 10
394.953
 20
279.482
 30
0.0
 11
397.4530000000001
 21
279.482
 31
0.0
  0
LINE
  5
1243
330
13FF
100
AcDbEntity
  8
8
100
AcDbLine
 10
394.953
 20
282.657
 30
0.0
 11
397.4530000000001
 21
282.657
 31
0.0
  0
LINE
  5
1244
330
13FF
100
AcDbEntity
  8
8
100
AcDbLine
 10
394.953
 20
285.832
 30
0.0
 11
397.4530000000001
 21
285.832
 31
0.0
  0
LINE
  5
1245
330
13FF
100
AcDbEntity
  8
8
100
AcDbLine
 10
394.953
 20
289.007
 30
0.0
 11
397.4530000000001
 21
289.007
 31
0.0
  0
LINE
  5
1246
330
13FF
100
AcDbEntity
  8
8
100
AcDbLine
 10
394.953
 20
292.182
 30
0.0
 11
397.4530000000001
 21
292.182
 31
0.0
  0
ENDBLK
  5
1247
330
13FF
100
AcDbEntity
  8
0
100
AcDbBlockEnd
  0
BLOCK
  5
1265
330
1400
100
AcDbEntity
  8
0
100
AcDbBlockBegin
  2
*X3
 70
     1
 10
0.0
 20
0.0
 30
0.0
  3
*X3
  1

  0
LINE
  5
1266
330
1400
100
AcDbEntity
  8
8
100
AcDbLine
 10
419.3469999999999
 20
194.289
 30
0.0
 11
424.207
 21
199.149
 31
0.0
  0
LINE
  5
1267
330
1400
100
AcDbEntity
  8
8
100
AcDbLine
 10
416.8849999999999
 20
196.317
 30
0.0
 11
422.179
 21
201.611
 31
0.0
  0
LINE
  5
1268
330
1400
100
AcDbEntity
  8
8
100
AcDbLine
 10
424.0209999999999
 20
196.61
 30
0.0
 11
418.899
 21
201.732
 31
0.0
  0
LINE
  5
1269
330
1400
100
AcDbEntity
  8
8
100
AcDbLine
 10
421.7299999999999
 20
194.41
 30
0.0
 11
416.699
 21
199.442
 31
0.0
  0
ENDBLK
  5
126A
330
1400
100
AcDbEntity
  8
0
100
AcDbBlockEnd
  0
BLOCK
  5
1288
330
1401
100
AcDbEntity
  8
0
100
AcDbBlockBegin
  2
*X4
 70
     1
 10
0.0
 20
0.0
 30
0.0
  3
*X4
  1

  0
LINE
  5
1289
330
1401
100
AcDbEntity
  8
8
100
AcDbLine
 10
325.175
 20
194.41
 30
0.0
 11
330.2059999999999
 21
199.441
 31
0.0
  0
LINE
  5
128A
330
1401
100
AcDbEntity
  8
8
100
AcDbLine
 10
322.884
 20
196.609
 30
0.0
 11
328.0069999999999
 21
201.732
 31
0.0
  0
LINE
  5
128B
330
1401
100
AcDbEntity
  8
8
100
AcDbLine
 10
330.021
 20
196.318
 30
0.0
 11
324.727
 21
201.611
 31
0.0
  0
LINE
  5
128C
330
1401
100
AcDbEntity
  8
8
100
AcDbLine
 10
327.559
 20
194.289
 30
0.0
 11
322.699
 21
199.149
 31
0.0
  0
ENDBLK
  5
128D
330
1401
100
AcDbEntity
  8
0
100
AcDbBlockEnd
  0
BLOCK
  5
12D2
330
1402
100
AcDbEntity
  8
0
100
AcDbBlockBegin
  2
*X5
 70
     1
 10
0.0
 20
0.0
 30
0.0
  3
*X5
  1

  0
LINE
  5
12D3
330
1402
100
AcDbEntity
  8
8
100
AcDbLine
 10
318.583
 20
135.914
 30
0.0
 11
324.41
 21
130.087
 31
0.0
  0
LINE
  5
12D4
330
1402
100
AcDbEntity
  8
8
100
AcDbLine
 10
318.435
 20
145.042
 30
0.0
 11
324.282
 21
139.194
 31
0.0
  0
LINE
  5
12D5
330
1402
100
AcDbEntity
  8
8
100
AcDbLine
 10
318.287
 20
154.17
 30
0.0
 11
324.155
 21
148.302
 31
0.0
  0
LINE
  5
12D6
330
1402
100
AcDbEntity
  8
8
100
AcDbLine
 10
318.138
 20
163.299
 30
0.0
 11
323.272
 21
158.165
 31
0.0
  0
LINE
  5
12D7
330
1402
100
AcDbEntity
  8
8
100
AcDbLine
 10
317.99
 20
172.427
 30
0.0
 11
323.133
 21
167.284
 31
0.0
  0
LINE
  5
12D8
330
1402
100
AcDbEntity
  8
8
100
AcDbLine
 10
158.547
 20
340.851
 30
0.0
 11
160.354
 21
339.043
 31
0.0
  0
LINE
  5
12D9
330
1402
100
AcDbEntity
  8
8
100
AcDbLine
 10
273.917
 20
225.48
 30
0.0
 11
280.466
 21
218.931
 31
0.0
  0
LINE
  5
12DA
330
1402
100
AcDbEntity
  8
8
100
AcDbLine
 10
317.842
 20
181.555
 30
0.0
 11
322.993
 21
176.404
 31
0.0
  0
LINE
  5
12DB
330
1402
100
AcDbEntity
  8
8
100
AcDbLine
 10
161.549
 20
346.829
 30
0.0
 11
169.335
 21
339.043
 31
0.0
  0
LINE
  5
12DC
330
1402
100
AcDbEntity
  8
8
100
AcDbLine
 10
267.116
 20
241.262
 30
0.0
 11
274.486
 21
233.892
 31
0.0
  0
LINE
  5
12DD
330
1402
100
AcDbEntity
  8
8
100
AcDbLine
 10
288.448
 20
219.93
 30
0.0
 11
295.823
 21
212.555
 31
0.0
  0
LINE
  5
12DE
330
1402
100
AcDbEntity
  8
8
100
AcDbLine
 10
317.694
 20
190.683
 30
0.0
 11
322.8540000000001
 21
185.524
 31
0.0
  0
LINE
  5
12DF
330
1402
100
AcDbEntity
  8
8
100
AcDbLine
 10
170.315
 20
347.043
 30
0.0
 11
178.315
 21
339.043
 31
0.0
  0
LINE
  5
12E0
330
1402
100
AcDbEntity
  8
8
100
AcDbLine
 10
266.236
 20
251.122
 30
0.0
 11
271.52
 21
245.838
 31
0.0
  0
LINE
  5
12E1
330
1402
100
AcDbEntity
  8
8
100
AcDbLine
 10
300.201
 20
217.157
 30
0.0
 11
305.86
 21
211.498
 31
0.0
  0
LINE
  5
12E2
330
1402
100
AcDbEntity
  8
8
100
AcDbLine
 10
317.013
 20
200.345
 30
0.0
 11
322.715
 21
194.643
 31
0.0
  0
LINE
  5
12E3
330
1402
100
AcDbEntity
  8
8
100
AcDbLine
 10
179.295
 20
347.043
 30
0.0
 11
187.295
 21
339.043
 31
0.0
  0
LINE
  5
12E4
330
1402
100
AcDbEntity
  8
8
100
AcDbLine
 10
265.74
 20
260.598
 30
0.0
 11
271.024
 21
255.315
 31
0.0
  0
LINE
  5
12E5
330
1402
100
AcDbEntity
  8
8
100
AcDbLine
 10
309.295
 20
217.043
 30
0.0
 11
311.559
 21
214.779
 31
0.0
  0
LINE
  5
12E6
330
1402
100
AcDbEntity
  8
8
100
AcDbLine
 10
314.295
 20
212.043
 30
0.0
 11
322.548
 21
203.791
 31
0.0
  0
LINE
  5
12E7
330
1402
100
AcDbEntity
  8
8
100
AcDbLine
 10
188.275
 20
347.043
 30
0.0
 11
195.0459999999999
 21
340.272
 31
0.0
  0
LINE
  5
12E8
330
1402
100
AcDbEntity
  8
8
100
AcDbLine
 10
265.243
 20
270.075
 30
0.0
 11
270.527
 21
264.792
 31
0.0
  0
LINE
  5
12E9
330
1402
100
AcDbEntity
  8
8
100
AcDbLine
 10
197.256
 20
347.043
 30
0.0
 11
203.559
 21
340.74
 31
0.0
  0
LINE
  5
12EA
330
1402
100
AcDbEntity
  8
8
100
AcDbLine
 10
216.104
 20
328.195
 30
0.0
 11
225.245
 21
319.054
 31
0.0
  0
LINE
  5
12EB
330
1402
100
AcDbEntity
  8
8
100
AcDbLine
 10
264.746
 20
279.552
 30
0.0
 11
270.03
 21
274.269
 31
0.0
  0
LINE
  5
12EC
330
1402
100
AcDbEntity
  8
8
100
AcDbLine
 10
206.236
 20
347.043
 30
0.0
 11
232.071
 21
321.208
 31
0.0
  0
LINE
  5
12ED
330
1402
100
AcDbEntity
  8
8
100
AcDbLine
 10
264.25
 20
289.029
 30
0.0
 11
269.533
 21
283.746
 31
0.0
  0
LINE
  5
12EE
330
1402
100
AcDbEntity
  8
8
100
AcDbLine
 10
215.216
 20
347.043
 30
0.0
 11
235.543
 21
326.716
 31
0.0
  0
LINE
  5
12EF
330
1402
100
AcDbEntity
  8
8
100
AcDbLine
 10
263.753
 20
298.506
 30
0.0
 11
269.0370000000001
 21
293.223
 31
0.0
  0
LINE
  5
12F0
330
1402
100
AcDbEntity
  8
8
100
AcDbLine
 10
224.196
 20
347.043
 30
0.0
 11
236.889
 21
334.35
 31
0.0
  0
LINE
  5
12F1
330
1402
100
AcDbEntity
  8
8
100
AcDbLine
 10
263.256
 20
307.983
 30
0.0
 11
268.54
 21
302.7
 31
0.0
  0
LINE
  5
12F2
330
1402
100
AcDbEntity
  8
8
100
AcDbLine
 10
233.177
 20
347.043
 30
0.0
 11
240.855
 21
339.365
 31
0.0
  0
LINE
  5
12F3
330
1402
100
AcDbEntity
  8
8
100
AcDbLine
 10
262.76
 20
317.46
 30
0.0
 11
268.043
 21
312.177
 31
0.0
  0
LINE
  5
12F4
330
1402
100
AcDbEntity
  8
8
100
AcDbLine
 10
242.157
 20
347.043
 30
0.0
 11
250.085
 21
339.115
 31
0.0
  0
LINE
  5
12F5
330
1402
100
AcDbEntity
  8
8
100
AcDbLine
 10
262.263
 20
326.937
 30
0.0
 11
267.546
 21
321.654
 31
0.0
  0
LINE
  5
12F6
330
1402
100
AcDbEntity
  8
8
100
AcDbLine
 10
251.137
 20
347.043
 30
0.0
 11
267.05
 21
331.131
 31
0.0
  0
LINE
  5
12F7
330
1402
100
AcDbEntity
  8
8
100
AcDbLine
 10
260.117
 20
347.043
 30
0.0
 11
266.553
 21
340.608
 31
0.0
  0
ENDBLK
  5
12F8
330
1402
100
AcDbEntity
  8
0
100
AcDbBlockEnd
  0
BLOCK
  5
1344
330
1403
100
AcDbEntity
  8
0
100
AcDbBlockBegin
  2
*X6
 70
     1
 10
0.0
 20
0.0
 30
0.0
  3
*X6
  1

  0
LINE
  5
1345
330
1403
100
AcDbEntity
  8
8
100
AcDbLine
 10
422.629
 20
139.63
 30
0.0
 11
428.293
 21
133.966
 31
0.0
  0
LINE
  5
1346
330
1403
100
AcDbEntity
  8
8
100
AcDbLine
 10
422.753
 20
148.486
 30
0.0
 11
428.4359999999999
 21
142.804
 31
0.0
  0
LINE
  5
1347
330
1403
100
AcDbEntity
  8
8
100
AcDbLine
 10
423.5549999999999
 20
156.665
 30
0.0
 11
428.579
 21
151.641
 31
0.0
  0
LINE
  5
1348
330
1403
100
AcDbEntity
  8
8
100
AcDbLine
 10
423.763
 20
165.437
 30
0.0
 11
428.7219999999999
 21
160.478
 31
0.0
  0
LINE
  5
1349
330
1403
100
AcDbEntity
  8
8
100
AcDbLine
 10
423.9169999999999
 20
174.264
 30
0.0
 11
428.865
 21
169.315
 31
0.0
  0
LINE
  5
134A
330
1403
100
AcDbEntity
  8
8
100
AcDbLine
 10
424.0709999999999
 20
183.09
 30
0.0
 11
429.009
 21
178.152
 31
0.0
  0
LINE
  5
134B
330
1403
100
AcDbEntity
  8
8
100
AcDbLine
 10
424.225
 20
191.916
 30
0.0
 11
429.152
 21
186.989
 31
0.0
  0
LINE
  5
134C
330
1403
100
AcDbEntity
  8
8
100
AcDbLine
 10
424.379
 20
200.742
 30
0.0
 11
429.295
 21
195.826
 31
0.0
  0
LINE
  5
134D
330
1403
100
AcDbEntity
  8
8
100
AcDbLine
 10
424.666
 20
209.435
 30
0.0
 11
430.908
 21
203.194
 31
0.0
  0
LINE
  5
134E
330
1403
100
AcDbEntity
  8
8
100
AcDbLine
 10
431.038
 20
212.043
 30
0.0
 11
434.8569999999999
 21
208.224
 31
0.0
  0
LINE
  5
134F
330
1403
100
AcDbEntity
  8
8
100
AcDbLine
 10
435.7559999999999
 20
216.306
 30
0.0
 11
440.748
 21
211.314
 31
0.0
  0
LINE
  5
1350
330
1403
100
AcDbEntity
  8
8
100
AcDbLine
 10
443.999
 20
217.043
 30
0.0
 11
448.664
 21
212.378
 31
0.0
  0
LINE
  5
1351
330
1403
100
AcDbEntity
  8
8
100
AcDbLine
 10
452.115
 20
217.907
 30
0.0
 11
456.2599999999999
 21
213.762
 31
0.0
  0
LINE
  5
1352
330
1403
100
AcDbEntity
  8
8
100
AcDbLine
 10
458.708
 20
220.295
 30
0.0
 11
462.64
 21
216.363
 31
0.0
  0
LINE
  5
1353
330
1403
100
AcDbEntity
  8
8
100
AcDbLine
 10
464.245
 20
223.738
 30
0.0
 11
467.827
 21
220.156
 31
0.0
  0
LINE
  5
1354
330
1403
100
AcDbEntity
  8
8
100
AcDbLine
 10
468.853
 20
228.11
 30
0.0
 11
472.2659999999999
 21
224.697
 31
0.0
  0
LINE
  5
1355
330
1403
100
AcDbEntity
  8
8
100
AcDbLine
 10
472.1949999999999
 20
233.748
 30
0.0
 11
475.9959999999999
 21
229.947
 31
0.0
  0
LINE
  5
1356
330
1403
100
AcDbEntity
  8
8
100
AcDbLine
 10
474.455
 20
240.469
 30
0.0
 11
478.8319999999999
 21
236.091
 31
0.0
  0
LINE
  5
1357
330
1403
100
AcDbEntity
  8
8
100
AcDbLine
 10
475.52
 20
248.384
 30
0.0
 11
480.1359999999999
 21
243.768
 31
0.0
  0
LINE
  5
1358
330
1403
100
AcDbEntity
  8
8
100
AcDbLine
 10
475.9669999999999
 20
256.917
 30
0.0
 11
480.725
 21
252.159
 31
0.0
  0
LINE
  5
1359
330
1403
100
AcDbEntity
  8
8
100
AcDbLine
 10
476.4149999999999
 20
265.45
 30
0.0
 11
481.172
 21
260.692
 31
0.0
  0
LINE
  5
135A
330
1403
100
AcDbEntity
  8
8
100
AcDbLine
 10
476.8619999999999
 20
273.983
 30
0.0
 11
481.619
 21
269.225
 31
0.0
  0
LINE
  5
135B
330
1403
100
AcDbEntity
  8
8
100
AcDbLine
 10
477.309
 20
282.516
 30
0.0
 11
482.0669999999999
 21
277.758
 31
0.0
  0
LINE
  5
135C
330
1403
100
AcDbEntity
  8
8
100
AcDbLine
 10
477.756
 20
291.049
 30
0.0
 11
482.514
 21
286.291
 31
0.0
  0
LINE
  5
135D
330
1403
100
AcDbEntity
  8
8
100
AcDbLine
 10
478.203
 20
299.582
 30
0.0
 11
482.961
 21
294.825
 31
0.0
  0
LINE
  5
135E
330
1403
100
AcDbEntity
  8
8
100
AcDbLine
 10
478.6509999999999
 20
308.115
 30
0.0
 11
483.408
 21
303.358
 31
0.0
  0
LINE
  5
135F
330
1403
100
AcDbEntity
  8
8
100
AcDbLine
 10
479.098
 20
316.648
 30
0.0
 11
483.855
 21
311.891
 31
0.0
  0
LINE
  5
1360
330
1403
100
AcDbEntity
  8
8
100
AcDbLine
 10
479.545
 20
325.181
 30
0.0
 11
484.303
 21
320.424
 31
0.0
  0
LINE
  5
1361
330
1403
100
AcDbEntity
  8
8
100
AcDbLine
 10
479.9919999999999
 20
333.714
 30
0.0
 11
484.75
 21
328.957
 31
0.0
  0
LINE
  5
1362
330
1403
100
AcDbEntity
  8
8
100
AcDbLine
 10
480.439
 20
342.247
 30
0.0
 11
487.1059999999999
 21
335.58
 31
0.0
  0
LINE
  5
1363
330
1403
100
AcDbEntity
  8
8
100
AcDbLine
 10
484.624
 20
347.043
 30
0.0
 11
492.878
 21
338.789
 31
0.0
  0
LINE
  5
1364
330
1403
100
AcDbEntity
  8
8
100
AcDbLine
 10
493.604
 20
347.043
 30
0.0
 11
501.373
 21
339.274
 31
0.0
  0
LINE
  5
1365
330
1403
100
AcDbEntity
  8
8
100
AcDbLine
 10
510.813
 20
329.834
 30
0.0
 11
521.52
 21
319.128
 31
0.0
  0
LINE
  5
1366
330
1403
100
AcDbEntity
  8
8
100
AcDbLine
 10
502.584
 20
347.043
 30
0.0
 11
515.9519999999999
 21
333.675
 31
0.0
  0
LINE
  5
1367
330
1403
100
AcDbEntity
  8
8
100
AcDbLine
 10
523.451
 20
326.177
 30
0.0
 11
527.937
 21
321.69
 31
0.0
  0
LINE
  5
1368
330
1403
100
AcDbEntity
  8
8
100
AcDbLine
 10
511.5639999999999
 20
347.043
 30
0.0
 11
515.9519999999999
 21
342.655
 31
0.0
  0
LINE
  5
1369
330
1403
100
AcDbEntity
  8
8
100
AcDbLine
 10
525.951
 20
332.657
 30
0.0
 11
530.744
 21
327.864
 31
0.0
  0
LINE
  5
136A
330
1403
100
AcDbEntity
  8
8
100
AcDbLine
 10
525.952
 20
341.636
 30
0.0
 11
532.09
 21
335.4980000000001
 31
0.0
  0
LINE
  5
136B
330
1403
100
AcDbEntity
  8
8
100
AcDbLine
 10
529.529
 20
347.04
 30
0.0
 11
536.11
 21
340.458
 31
0.0
  0
LINE
  5
136C
330
1403
100
AcDbEntity
  8
8
100
AcDbLine
 10
538.508
 20
347.04
 30
0.0
 11
544.76
 21
340.789
 31
0.0
  0
LINE
  5
136D
330
1403
100
AcDbEntity
  8
8
100
AcDbLine
 10
547.488
 20
347.041
 30
0.0
 11
555.485
 21
339.043
 31
0.0
  0
LINE
  5
136E
330
1403
100
AcDbEntity
  8
8
100
AcDbLine
 10
556.468
 20
347.041
 30
0.0
 11
564.466
 21
339.043
 31
0.0
  0
LINE
  5
136F
330
1403
100
AcDbEntity
  8
8
100
AcDbLine
 10
565.4469999999999
 20
347.042
 30
0.0
 11
573.446
 21
339.043
 31
0.0
  0
LINE
  5
1370
330
1403
100
AcDbEntity
  8
8
100
AcDbLine
 10
574.427
 20
347.043
 30
0.0
 11
582.4259999999999
 21
339.043
 31
0.0
  0
LINE
  5
1371
330
1403
100
AcDbEntity
  8
8
100
AcDbLine
 10
583.4069999999999
 20
347.043
 30
0.0
 11
588.2889999999999
 21
342.161
 31
0.0
  0
ENDBLK
  5
1372
330
1403
100
AcDbEntity
  8
0
100
AcDbBlockEnd
  0
BLOCK
  5
156E
330
1418
100
AcDbEntity
  8
0
100
AcDbBlockBegin
  2
*D7
 70
     1
 10
0.0
 20
0.0
 30
0.0
  3
*D7
  1

  0
LINE
  5
156F
330
1418
100
AcDbEntity
  8
0
  6
ByBlock
100
AcDbLine
 10
49.847508
 20
366.404978
 30
0.0
 11
49.847508
 21
511.1269779999999
 31
0.0
  0
LINE
  5
1570
330
1418
100
AcDbEntity
  8
0
  6
ByBlock
100
AcDbLine
 10
479.845508
 20
366.404978
 30
0.0
 11
479.845508
 21
511.1269779999999
 31
0.0
  0
LINE
  5
1571
330
1418
100
AcDbEntity
  8
0
  6
ByBlock
100
AcDbLine
 10
62.347508
 20
506.1269779999999
 30
0.0
 11
467.345508
 21
506.1269779999999
 31
0.0
  0
SOLID
  5
1572
330
1418
100
AcDbEntity
  8
0
  6
ByBlock
100
AcDbTrace
 10
62.347508
 20
508.210311
 30
0.0
 11
62.347508
 21
504.043645
 31
0.0
 12
49.847508
 22
506.1269779999999
 32
0.0
 13
49.847508
 23
506.1269779999999
 33
0.0
  0
SOLID
  5
1573
330
1418
100
AcDbEntity
  8
0
  6
ByBlock
100
AcDbTrace
 10
467.345508
 20
508.210311
 30
0.0
 11
467.345508
 21
504.043645
 31
0.0
 12
479.845508
 22
506.1269779999999
 32
0.0
 13
479.845508
 23
506.1269779999999
 33
0.0
  0
MTEXT
  5
1574
330
1418
100
AcDbEntity
  8
0
  6
ByBlock
 62
     2
100
AcDbMText
 10
264.131508
 20
517.876978
 30
0.0
 40
17.5
 41
0.0
 71
     5
 72
     1
  1
\U+2205 430
 73
     1
 44
1.0
1001
ACAD
1000
MTEXTBEGIN
1070
    73
1070
     1
1070
    44
1040
1.0
1070
    74
1070
     0
1000
MTEXTEND
  0
POINT
  5
1575
330
1418
100
AcDbEntity
  8
DEFPOINTS
  6
ByBlock
 62
     0
100
AcDbPoint
 10
49.847508
 20
361.404978
 30
0.0
  0
POINT
  5
1576
330
1418
100
AcDbEntity
  8
DEFPOINTS
  6
ByBlock
 62
     0
100
AcDbPoint
 10
479.845508
 20
361.404978
 30
0.0
  0
POINT
  5
1577
330
1418
100
AcDbEntity
  8
DEFPOINTS
  6
ByBlock
 62
     0
100
AcDbPoint
 10
479.845508
 20
506.1269779999999
 30
0.0
  0
ENDBLK
  5
1578
330
1418
100
AcDbEntity
  8
0
100
AcDbBlockEnd
  0
BLOCK
  5
1429
330
1428
100
AcDbEntity
  8
0
100
AcDbBlockBegin
  2
KATALOG_LEER
 70
     0
 10
0.0
 20
0.0
 30
0.0
  3
KATALOG_LEER
  1

  0
ENDBLK
  5
142A
330
1428
100
AcDbEntity
  8
0
100
AcDbBlockEnd
  0
BLOCK
  5
14A3
330
1495
100
AcDbEntity
  8
0
100
AcDbBlockBegin
  2
*D10
 70
     1
 10
0.0
 20
0.0
 30
0.0
  3
*D10
  1

  0
LINE
  5
14A4
330
1495
100
AcDbEntity
  8
0
  6
ByBlock
100
AcDbLine
 10
521.418508
 20
369.404978
 30
0.0
 11
551.4185079999999
 21
369.404978
 31
0.0
  0
LINE
  5
14A5
330
1495
100
AcDbEntity
  8
0
  6
ByBlock
100
AcDbLine
 10
484.8455079999999
 20
361.404978
 30
0.0
 11
551.4185079999999
 21
361.404978
 31
0.0
  0
LINE
  5
14A6
330
1495
100
AcDbEntity
  8
0
  6
ByBlock
100
AcDbLine
 10
546.418508
 20
381.904978
 30
0.0
 11
546.418508
 21
394.404978
 31
0.0
  0
LINE
  5
14A7
330
1495
100
AcDbEntity
  8
0
  6
ByBlock
100
AcDbLine
 10
546.418508
 20
348.904978
 30
0.0
 11
546.418508
 21
323.404978
 31
0.0
  0
LINE
  5
14A8
330
1495
100
AcDbEntity
  8
0
  6
ByBlock
100
AcDbLine
 10
546.418508
 20
369.404978
 30
0.0
 11
546.418508
 21
361.404978
 31
0.0
  0
SOLID
  5
14A9
330
1495
100
AcDbEntity
  8
0
  6
ByBlock
100
AcDbTrace
 10
544.335175
 20
381.904978
 30
0.0
 11
548.501841
 21
381.904978
 31
0.0
 12
546.418508
 22
369.404978
 32
0.0
 13
546.418508
 23
369.404978
 33
0.0
  0
SOLID
  5
14AA
330
1495
100
AcDbEntity
  8
0
  6
ByBlock
100
AcDbTrace
 10
544.335175
 20
348.904978
 30
0.0
 11
548.501841
 21
348.904978
 31
0.0
 12
546.418508
 22
361.404978
 32
0.0
 13
546.418508
 23
361.404978
 33
0.0
  0
MTEXT
  5
14AB
330
1495
100
AcDbEntity
  8
0
  6
ByBlock
 62
     2
100
AcDbMText
 10
534.6685079999999
 20
329.904978
 30
0.0
 40
17.5
 41
0.0
 71
     5
 72
     1
  1
8
 11
0.0
 21
1.0
 31
0.0
 73
     1
 44
1.0
1001
ACAD
1000
MTEXTBEGIN
1070
    73
1070
     1
1070
    44
1040
1.0
1070
    74
1070
     0
1000
MTEXTEND
  0
POINT
  5
14AC
330
1495
100
AcDbEntity
  8
DEFPOINTS
  6
ByBlock
 62
     0
100
AcDbPoint
 10
516.418508
 20
369.404978
 30
0.0
  0
POINT
  5
14AD
330
1495
100
AcDbEntity
  8
DEFPOINTS
  6
ByBlock
 62
     0
100
AcDbPoint
 10
479.845508
 20
361.404978
 30
0.0
  0
POINT
  5
14AE
330
1495
100
AcDbEntity
  8
DEFPOINTS
  6
ByBlock
 62
     0
100
AcDbPoint
 10
546.418508
 20
361.404978
 30
0.0
  0
ENDBLK
  5
14AF
330
1495
100
AcDbEntity
  8
0
100
AcDbBlockEnd
  0
BLOCK
  5
14BC
330
14B0
100
AcDbEntity
  8
0
100
AcDbBlockBegin
  2
*D11
 70
     1
 10
0.0
 20
0.0
 30
0.0
  3
*D11
  1

  0
LINE
  5
14BD
330
14B0
100
AcDbEntity
  8
0
  6
ByBlock
100
AcDbLine
 10
150.845508
 20
379.404978
 30
0.0
 11
150.845508
 21
467.473978
 31
0.0
  0
LINE
  5
14BE
330
14B0
100
AcDbEntity
  8
0
  6
ByBlock
100
AcDbLine
 10
378.846508
 20
379.404978
 30
0.0
 11
378.846508
 21
467.473978
 31
0.0
  0
LINE
  5
14BF
330
14B0
100
AcDbEntity
  8
0
  6
ByBlock
100
AcDbLine
 10
163.345508
 20
462.473978
 30
0.0
 11
366.346508
 21
462.473978
 31
0.0
  0
SOLID
  5
14C0
330
14B0
100
AcDbEntity
  8
0
  6
ByBlock
100
AcDbTrace
 10
163.345508
 20
464.5573109999999
 30
0.0
 11
163.345508
 21
460.390645
 31
0.0
 12
150.845508
 22
462.473978
 32
0.0
 13
150.845508
 23
462.473978
 33
0.0
  0
SOLID
  5
14C1
330
14B0
100
AcDbEntity
  8
0
  6
ByBlock
100
AcDbTrace
 10
366.346508
 20
464.5573109999999
 30
0.0
 11
366.346508
 21
460.390645
 31
0.0
 12
378.846508
 22
462.473978
 32
0.0
 13
378.846508
 23
462.473978
 33
0.0
  0
MTEXT
  5
14C2
330
14B0
100
AcDbEntity
  8
0
  6
ByBlock
 62
     2
100
AcDbMText
 10
264.845508
 20
474.2257009999999
 30
0.0
 40
17.5
 41
0.0
 71
     5
 72
     1
  1
\U+2205 228
 73
     1
 44
1.0
1001
ACAD
1000
MTEXTBEGIN
1070
    73
1070
     1
1070
    44
1040
1.0
1070
    74
1070
     0
1000
MTEXTEND
  0
POINT
  5
14C3
330
14B0
100
AcDbEntity
  8
DEFPOINTS
  6
ByBlock
 62
     0
100
AcDbPoint
 10
150.845508
 20
374.404978
 30
0.0
  0
POINT
  5
14C4
330
14B0
100
AcDbEntity
  8
DEFPOINTS
  6
ByBlock
 62
     0
100
AcDbPoint
 10
378.846508
 20
374.404978
 30
0.0
  0
POINT
  5
14C5
330
14B0
100
AcDbEntity
  8
DEFPOINTS
  6
ByBlock
 62
     0
100
AcDbPoint
 10
378.846508
 20
462.473978
 30
0.0
  0
ENDBLK
  5
14C6
330
14B0
100
AcDbEntity
  8
0
100
AcDbBlockEnd
  0
BLOCK
  5
14EE
330
14E2
100
AcDbEntity
  8
0
100
AcDbBlockBegin
  2
*D13
 70
     1
 10
0.0
 20
0.0
 30
0.0
  3
*D13
  1

  0
LINE
  5
14EF
330
14E2
100
AcDbEntity
  8
0
  6
ByBlock
100
AcDbLine
 10
332.346508
 20
257.404978
 30
0.0
 11
454.385508
 21
257.404978
 31
0.0
  0
LINE
  5
14F0
330
14E2
100
AcDbEntity
  8
0
  6
ByBlock
100
AcDbLine
 10
293.846508
 20
317.404978
 30
0.0
 11
454.385508
 21
317.404978
 31
0.0
  0
LINE
  5
14F1
330
14E2
100
AcDbEntity
  8
0
  6
ByBlock
100
AcDbLine
 10
449.385508
 20
269.904978
 30
0.0
 11
449.385508
 21
304.904978
 31
0.0
  0
SOLID
  5
14F2
330
14E2
100
AcDbEntity
  8
0
  6
ByBlock
100
AcDbTrace
 10
447.302175
 20
269.904978
 30
0.0
 11
451.4688409999999
 21
269.904978
 31
0.0
 12
449.385508
 22
257.404978
 32
0.0
 13
449.385508
 23
257.404978
 33
0.0
  0
SOLID
  5
14F3
330
14E2
100
AcDbEntity
  8
0
  6
ByBlock
100
AcDbTrace
 10
447.302175
 20
304.904978
 30
0.0
 11
451.4688409999999
 21
304.904978
 31
0.0
 12
449.385508
 22
317.404978
 32
0.0
 13
449.385508
 23
317.404978
 33
0.0
  0
MTEXT
  5
14F4
330
14E2
100
AcDbEntity
  8
0
  6
ByBlock
 62
     2
100
AcDbMText
 10
437.635508
 20
293.928978
 30
0.0
 40
17.5
 41
0.0
 71
     5
 72
     1
  1
60
 11
0.0
 21
1.0
 31
0.0
 73
     1
 44
1.0
1001
ACAD
1000
MTEXTBEGIN
1070
    73
1070
     1
1070
    44
1040
1.0
1070
    74
1070
     0
1000
MTEXTEND
  0
POINT
  5
14F5
330
14E2
100
AcDbEntity
  8
DEFPOINTS
  6
ByBlock
 62
     0
100
AcDbPoint
 10
327.346508
 20
257.404978
 30
0.0
  0
POINT
  5
14F6
330
14E2
100
AcDbEntity
  8
DEFPOINTS
  6
ByBlock
 62
     0
100
AcDbPoint
 10
288.846508
 20
317.404978
 30
0.0
  0
POINT
  5
14F7
330
14E2
100
AcDbEntity
  8
DEFPOINTS
  6
ByBlock
 62
     0
100
AcDbPoint
 10
449.385508
 20
317.404978
 30
0.0
  0
ENDBLK
  5
14F8
330
14E2
100
AcDbEntity
  8
0
100
AcDbBlockEnd
  0
BLOCK
  5
1505
330
14F9
100
AcDbEntity
  8
0
100
AcDbBlockBegin
  2
*D14
 70
     1
 10
0.0
 20
0.0
 30
0.0
  3
*D14
  1

  0
LINE
  5
1506
330
14F9
100
AcDbEntity
  8
0
  6
ByBlock
100
AcDbLine
 10
341.727508
 20
234.404978
 30
0.0
 11
454.385508
 21
234.404978
 31
0.0
  0
LINE
  5
1507
330
14F9
100
AcDbEntity
  8
0
  6
ByBlock
100
AcDbLine
 10
424.385508
 20
149.404978
 30
0.0
 11
454.385508
 21
149.404978
 31
0.0
  0
LINE
  5
1508
330
14F9
100
AcDbEntity
  8
0
  6
ByBlock
100
AcDbLine
 10
449.385508
 20
221.904978
 30
0.0
 11
449.385508
 21
161.904978
 31
0.0
  0
SOLID
  5
1509
330
14F9
100
AcDbEntity
  8
0
  6
ByBlock
100
AcDbTrace
 10
447.302175
 20
221.904978
 30
0.0
 11
451.4688409999999
 21
221.904978
 31
0.0
 12
449.385508
 22
234.404978
 32
0.0
 13
449.385508
 23
234.404978
 33
0.0
  0
SOLID
  5
150A
330
14F9
100
AcDbEntity
  8
0
  6
ByBlock
100
AcDbTrace
 10
447.302175
 20
161.904978
 30
0.0
 11
451.4688409999999
 21
161.904978
 31
0.0
 12
449.385508
 22
149.404978
 32
0.0
 13
449.385508
 23
149.404978
 33
0.0
  0
MTEXT
  5
150B
330
14F9
100
AcDbEntity
  8
0
  6
ByBlock
 62
     2
100
AcDbMText
 10
437.635508
 20
194.488978
 30
0.0
 40
17.5
 41
0.0
 71
     5
 72
     1
  1
85
 11
0.0
 21
1.0
 31
0.0
 73
     1
 44
1.0
1001
ACAD
1000
MTEXTBEGIN
1070
    73
1070
     1
1070
    44
1040
1.0
1070
    74
1070
     0
1000
MTEXTEND
  0
POINT
  5
150C
330
14F9
100
AcDbEntity
  8
DEFPOINTS
  6
ByBlock
 62
     0
100
AcDbPoint
 10
336.727508
 20
234.404978
 30
0.0
  0
POINT
  5
150D
330
14F9
100
AcDbEntity
  8
DEFPOINTS
  6
ByBlock
 62
     0
100
AcDbPoint
 10
419.385508
 20
149.404978
 30
0.0
  0
POINT
  5
150E
330
14F9
100
AcDbEntity
  8
DEFPOINTS
  6
ByBlock
 62
     0
100
AcDbPoint
 10
449.385508
 20
149.404978
 30
0.0
  0
ENDBLK
  5
150F
330
14F9
100
AcDbEntity
  8
0
100
AcDbBlockEnd
  0
BLOCK
  5
151C
330
1510
100
AcDbEntity
  8
0
100
AcDbBlockBegin
  2
*D15
 70
     1
 10
0.0
 20
0.0
 30
0.0
  3
*D15
  1

  0
LINE
  5
151D
330
1510
100
AcDbEntity
  8
0
  6
ByBlock
100
AcDbLine
 10
324.574508
 20
149.404978
 30
0.0
 11
618.228508
 21
149.404978
 31
0.0
  0
LINE
  5
151E
330
1510
100
AcDbEntity
  8
0
  6
ByBlock
100
AcDbLine
 10
480.630508
 20
369.404978
 30
0.0
 11
618.228508
 21
369.404978
 31
0.0
  0
LINE
  5
151F
330
1510
100
AcDbEntity
  8
0
  6
ByBlock
100
AcDbLine
 10
613.228508
 20
161.904978
 30
0.0
 11
613.228508
 21
356.904978
 31
0.0
  0
SOLID
  5
1520
330
1510
100
AcDbEntity
  8
0
  6
ByBlock
100
AcDbTrace
 10
611.145175
 20
161.904978
 30
0.0
 11
615.3118409999999
 21
161.904978
 31
0.0
 12
613.228508
 22
149.404978
 32
0.0
 13
613.228508
 23
149.404978
 33
0.0
  0
SOLID
  5
1521
330
1510
100
AcDbEntity
  8
0
  6
ByBlock
100
AcDbTrace
 10
611.145175
 20
356.904978
 30
0.0
 11
615.3118409999999
 21
356.904978
 31
0.0
 12
613.228508
 22
369.404978
 32
0.0
 13
613.228508
 23
369.404978
 33
0.0
  0
MTEXT
  5
1522
330
1510
100
AcDbEntity
  8
0
  6
ByBlock
 62
     2
100
AcDbMText
 10
601.476786
 20
248.851978
 30
0.0
 40
17.5
 41
0.0
 71
     5
 72
     1
  1
220
 11
0.0
 21
1.0
 31
0.0
 73
     1
 44
1.0
1001
ACAD
1000
MTEXTBEGIN
1070
    73
1070
     1
1070
    44
1040
1.0
1070
    74
1070
     0
1000
MTEXTEND
  0
POINT
  5
1523
330
1510
100
AcDbEntity
  8
DEFPOINTS
  6
ByBlock
 62
     0
100
AcDbPoint
 10
319.574508
 20
149.404978
 30
0.0
  0
POINT
  5
1524
330
1510
100
AcDbEntity
  8
DEFPOINTS
  6
ByBlock
 62
     0
100
AcDbPoint
 10
475.630508
 20
369.404978
 30
0.0
  0
POINT
  5
1525
330
1510
100
AcDbEntity
  8
DEFPOINTS
  6
ByBlock
 62
     0
100
AcDbPoint
 10
613.228508
 20
369.404978
 30
0.0
  0
ENDBLK
  5
1526
330
1510
100
AcDbEntity
  8
0
100
AcDbBlockEnd
  0
BLOCK
  5
1678
330
1676
100
AcDbEntity
  8
0
100
AcDbBlockBegin
  2
GENAXEH
 70
     0
 10
0.0
 20
0.0
 30
0.0
  3
GENAXEH
  1

  0
LINE
  5
1677
330
1676
100
AcDbEntity
  8
0
100
AcDbLine
 10
-1.0
 20
0.0
 30
0.0
 11
1.0
 21
0.0
 31
0.0
  0
ENDBLK
  5
1679
330
1676
100
AcDbEntity
  8
0
100
AcDbBlockEnd
  0
ENDSEC
  0
SECTION
  2
ENTITIES
  0
LINE
  5
1001
330
13E1
100
AcDbEntity
  8
0
100
AcDbLine
 10
372.346508
 20
374.404978
 30
0.0
 11
366.761508
 21
267.834978
 31
0.0
  0
LINE
  5
1002
330
13E1
100
AcDbEntity
  8
0
100
AcDbLine
 10
313.846508
 20
239.404978
 30
0.0
 11
336.802508
 21
239.404978
 31
0.0
  0
LINE
  5
1003
330
13E1
100
AcDbEntity
  8
0
100
AcDbLine
 10
376.175508
 20
351.928978
 30
0.0
 11
371.754508
 21
267.572978
 31
0.0
  0
LINE
  5
1004
330
13E1
100
AcDbEntity
  8
0
100
AcDbLine
 10
372.084508
 20
369.404978
 30
0.0
 11
475.630508
 21
369.404978
 31
0.0
  0
ARC
  5
1005
330
13E1
100
AcDbEntity
  8
0
100
AcDbCircle
 10
386.161508
 20
351.404978
 30
0.0
 40
10.0
100
AcDbArc
 50
90.0
 51
177.0
  0
LINE
  5
1006
330
13E1
100
AcDbEntity
  8
0
100
AcDbLine
 10
479.845508
 20
361.404978
 30
0.0
 11
479.625508
 21
365.614978
 31
0.0
  0
ARC
  5
1007
330
13E1
100
AcDbEntity
  8
0
100
AcDbCircle
 10
475.630508
 20
365.404978
 30
0.0
 40
4.0
100
AcDbArc
 50
3.0
 51
90.0
  0
LINE
  5
1008
330
13E1
100
AcDbEntity
  8
0
100
AcDbLine
 10
386.162508
 20
361.404978
 30
0.0
 11
397.019508
 21
361.783978
 31
0.0
  0
LINE
  5
1009
330
13E1
100
AcDbEntity
  8
0
100
AcDbLine
 10
424.640508
 20
361.404978
 30
0.0
 11
479.845508
 21
361.404978
 31
0.0
  0
ARC
  5
100A
330
13E1
100
AcDbEntity
  8
0
100
AcDbCircle
 10
441.389508
 20
360.993978
 30
0.0
 40
2.5
100
AcDbArc
 50
9.463
 51
44.567
  0
ARC
  5
100B
330
13E1
100
AcDbEntity
  8
0
100
AcDbCircle
 10
441.745508
 20
361.344978
 30
0.0
 40
2.0
100
AcDbArc
 50
44.567
 51
92.0
  0
ARC
  5
100C
330
13E1
100
AcDbEntity
  8
0
100
AcDbCircle
 10
336.802508
 20
269.404978
 30
0.0
 40
30.0
100
AcDbArc
 50
270.0
 51
357.0
  0
ARC
  5
100D
330
13E1
100
AcDbEntity
  8
0
100
AcDbCircle
 10
336.802508
 20
269.404978
 30
0.0
 40
35.0
100
AcDbArc
 50
269.877
 51
357.0
  0
LINE
  5
100E
330
13E1
100
AcDbEntity
  8
0
100
AcDbLine
 10
326.006508
 20
234.404978
 30
0.0
 11
327.346508
 21
239.404978
 31
0.0
  0
LINE
  5
100F
330
13E1
100
AcDbEntity
  8
0
100
AcDbLine
 10
315.009508
 20
179.404978
 30
0.0
 11
315.917508
 21
231.404978
 31
0.0
  0
LINE
  5
1010
330
13E1
100
AcDbEntity
  8
0
100
AcDbLine
 10
319.574508
 20
149.404978
 30
0.0
 11
320.696508
 21
218.683978
 31
0.0
  0
ARC
  5
1011
330
13E1
100
AcDbEntity
  8
0
100
AcDbCircle
 10
336.6925080000001
 20
218.404978
 30
0.0
 40
16.0
100
AcDbArc
 50
89.87700000000002
 51
179.0
  0
LINE
  5
1012
330
13E1
100
AcDbEntity
  8
0
100
AcDbLine
 10
315.916508
 20
231.405978
 30
0.0
 11
317.008508
 21
234.404978
 31
0.0
  0
LINE
  5
1013
330
13E1
100
AcDbEntity
  8
0
100
AcDbLine
 10
313.847508
 20
149.417978
 30
0.0
 11
314.196508
 21
174.404978
 31
0.0
  0
LINE
  5
1014
330
13E1
100
AcDbEntity
  8
0
100
AcDbLine
 10
314.196508
 20
174.404978
 30
0.0
 11
315.009508
 21
179.404978
 31
0.0
  0
LINE
  5
1015
330
13E1
100
AcDbEntity
  8
0
100
AcDbLine
 10
150.583508
 20
369.404978
 30
0.0
 11
150.845508
 21
374.404978
 31
0.0
  0
LINE
  5
1016
330
13E1
100
AcDbEntity
  8
0
100
AcDbLine
 10
157.347508
 20
374.404978
 30
0.0
 11
162.932508
 21
267.834978
 31
0.0
  0
LINE
  5
1017
330
13E1
100
AcDbEntity
  8
0
100
AcDbLine
 10
153.518508
 20
351.928978
 30
0.0
 11
157.939508
 21
267.572978
 31
0.0
  0
LINE
  5
1018
330
13E1
100
AcDbEntity
  8
0
100
AcDbLine
 10
157.609508
 20
369.404978
 30
0.0
 11
54.06250799999999
 21
369.404978
 31
0.0
  0
LINE
  5
1019
330
13E1
100
AcDbEntity
  8
0
100
AcDbLine
 10
49.845508
 20
361.404978
 30
0.0
 11
50.066508
 21
365.614978
 31
0.0
  0
ARC
  5
101A
330
13E1
100
AcDbEntity
  8
0
100
AcDbCircle
 10
54.06250799999999
 20
365.404978
 30
0.0
 40
4.0
100
AcDbArc
 50
90.0
 51
177.0
  0
ARC
  5
101B
330
13E1
100
AcDbEntity
  8
0
100
AcDbCircle
 10
192.892508
 20
269.404978
 30
0.0
 40
30.0
100
AcDbArc
 50
183.0
 51
270.0
  0
ARC
  5
101C
330
13E1
100
AcDbEntity
  8
0
100
AcDbCircle
 10
192.892508
 20
269.404978
 30
0.0
 40
35.0
100
AcDbArc
 50
183.0
 51
270.123
  0
LINE
  5
101D
330
13E1
100
AcDbEntity
  8
0
100
AcDbLine
 10
203.685508
 20
234.404978
 30
0.0
 11
202.346508
 21
239.404978
 31
0.0
  0
LINE
  5
101E
330
13E1
100
AcDbEntity
  8
0
100
AcDbLine
 10
319.574508
 20
149.404978
 30
0.0
 11
210.120508
 21
149.404978
 31
0.0
  0
LINE
  5
101F
330
13E1
100
AcDbEntity
  8
0
100
AcDbLine
 10
214.682508
 20
179.404978
 30
0.0
 11
213.775508
 21
231.404978
 31
0.0
  0
LINE
  5
1020
330
13E1
100
AcDbEntity
  8
0
100
AcDbLine
 10
210.118508
 20
149.404978
 30
0.0
 11
208.996508
 21
218.684978
 31
0.0
  0
ARC
  5
1021
330
13E1
100
AcDbEntity
  8
0
100
AcDbCircle
 10
193.000508
 20
218.404978
 30
0.0
 40
16.0
100
AcDbArc
 50
1.0
 51
90.12299999999999
  0
LINE
  5
1022
330
13E1
100
AcDbEntity
  8
0
100
AcDbLine
 10
213.776508
 20
231.405978
 30
0.0
 11
212.684508
 21
234.404978
 31
0.0
  0
LINE
  5
1023
330
13E1
100
AcDbEntity
  8
0
100
AcDbLine
 10
215.845508
 20
149.417978
 30
0.0
 11
215.496508
 21
174.404978
 31
0.0
  0
LINE
  5
1024
330
13E1
100
AcDbEntity
  8
0
100
AcDbLine
 10
215.497508
 20
174.404978
 30
0.0
 11
214.683508
 21
179.404978
 31
0.0
  0
ARC
  5
1025
330
13E1
100
AcDbEntity
  8
0
100
AcDbCircle
 10
412.345508
 20
351.404978
 30
0.0
 40
10.0
100
AcDbArc
 50
200.0
 51
339.994
  0
LINE
  5
1026
330
13E1
100
AcDbEntity
  8
0
100
AcDbLine
 10
402.949508
 20
347.9849779999999
 30
0.0
 11
401.098508
 21
358.480978
 31
0.0
  0
LINE
  5
1027
330
13E1
100
AcDbEntity
  8
0
100
AcDbLine
 10
421.7425079999999
 20
347.983978
 30
0.0
 11
423.781508
 21
359.548978
 31
0.0
  0
ARC
  5
1028
330
13E1
100
AcDbEntity
  8
0
100
AcDbCircle
 10
427.721508
 20
358.853978
 30
0.0
 40
4.0
100
AcDbArc
 50
92.0
 51
170.0
  0
LINE
  5
1029
330
13E1
100
AcDbEntity
  8
0
100
AcDbLine
 10
427.582508
 20
362.851978
 30
0.0
 11
441.676508
 21
363.343978
 31
0.0
  0
ARC
  5
102A
330
13E1
100
AcDbEntity
  8
0
100
AcDbCircle
 10
397.158508
 20
357.786978
 30
0.0
 40
4.0
100
AcDbArc
 50
10.0
 51
92.0
  0
LINE
  5
102B
330
13E1
100
AcDbEntity
  8
0
100
AcDbLine
 10
326.506508
 20
369.404978
 30
0.0
 11
309.186508
 21
369.404978
 31
0.0
  0
LINE
  5
102C
330
13E1
100
AcDbEntity
  8
0
100
AcDbLine
 10
215.846508
 20
239.404978
 30
0.0
 11
192.892508
 21
239.404978
 31
0.0
  0
LINE
  5
102D
330
13E1
100
AcDbEntity
  8
0
100
AcDbLine
 10
379.108508
 20
369.404978
 30
0.0
 11
378.846508
 21
374.404978
 31
0.0
  0
LINE
  5
102E
330
13E1
100
AcDbEntity
  8
0
100
AcDbLine
 10
378.846508
 20
374.404978
 30
0.0
 11
327.846508
 21
374.404978
 31
0.0
  0
LINE
  5
102F
330
13E1
100
AcDbEntity
  8
0
100
AcDbLine
 10
220.506508
 20
369.404978
 30
0.0
 11
221.846508
 21
374.404978
 31
0.0
  0
LINE
  5
1030
330
13E1
100
AcDbEntity
  8
0
100
AcDbLine
 10
326.506508
 20
369.404978
 30
0.0
 11
327.846508
 21
374.404978
 31
0.0
  0
LINE
  5
1031
330
13E1
100
AcDbEntity
  8
0
100
AcDbLine
 10
203.186508
 20
369.404978
 30
0.0
 11
201.846508
 21
374.404978
 31
0.0
  0
LINE
  5
1032
330
13E1
100
AcDbEntity
  8
0
100
AcDbLine
 10
309.186508
 20
369.404978
 30
0.0
 11
307.846508
 21
374.404978
 31
0.0
  0
LINE
  5
1033
330
13E1
100
AcDbEntity
  8
0
100
AcDbLine
 10
217.401508
 20
369.404978
 30
0.0
 11
218.740508
 21
374.404978
 31
0.0
  0
LINE
  5
1034
330
13E1
100
AcDbEntity
  8
0
100
AcDbLine
 10
201.846508
 20
374.404978
 30
0.0
 11
150.845508
 21
374.404978
 31
0.0
  0
LINE
  5
1035
330
13E1
100
AcDbEntity
  8
0
100
AcDbLine
 10
312.292508
 20
369.404978
 30
0.0
 11
310.952508
 21
374.404978
 31
0.0
  0
LINE
  5
1036
330
13E1
100
AcDbEntity
  8
0
100
AcDbLine
 10
310.952508
 20
374.404978
 30
0.0
 11
218.740508
 21
374.404978
 31
0.0
  0
LINE
  5
1037
330
13E1
100
AcDbEntity
  8
0
100
AcDbLine
 10
220.506508
 20
369.404978
 30
0.0
 11
203.186508
 21
369.404978
 31
0.0
  0
ARC
  5
1038
330
13E1
100
AcDbEntity
  8
0
100
AcDbCircle
 10
143.531508
 20
351.404978
 30
0.0
 40
10.0
100
AcDbArc
 50
3.0
 51
90.0
  0
LINE
  5
1039
330
13E1
100
AcDbEntity
  8
0
100
AcDbLine
 10
143.530508
 20
361.404978
 30
0.0
 11
132.673508
 21
361.783978
 31
0.0
  0
LINE
  5
103A
330
13E1
100
AcDbEntity
  8
0
100
AcDbLine
 10
105.052508
 20
361.404978
 30
0.0
 11
49.847508
 21
361.404978
 31
0.0
  0
ARC
  5
103B
330
13E1
100
AcDbEntity
  8
0
100
AcDbCircle
 10
88.30350799999999
 20
360.993978
 30
0.0
 40
2.5
100
AcDbArc
 50
135.433
 51
170.537
  0
ARC
  5
103C
330
13E1
100
AcDbEntity
  8
0
100
AcDbCircle
 10
87.947508
 20
361.344978
 30
0.0
 40
2.0
100
AcDbArc
 50
88.0
 51
135.433
  0
ARC
  5
103D
330
13E1
100
AcDbEntity
  8
0
100
AcDbCircle
 10
117.347508
 20
351.404978
 30
0.0
 40
10.0
100
AcDbArc
 50
200.006
 51
340.0
  0
LINE
  5
103E
330
13E1
100
AcDbEntity
  8
0
100
AcDbLine
 10
126.744508
 20
347.9849779999999
 30
0.0
 11
128.594508
 21
358.480978
 31
0.0
  0
LINE
  5
103F
330
13E1
100
AcDbEntity
  8
0
100
AcDbLine
 10
107.951508
 20
347.983978
 30
0.0
 11
105.911508
 21
359.548978
 31
0.0
  0
ARC
  5
1040
330
13E1
100
AcDbEntity
  8
0
100
AcDbCircle
 10
101.971508
 20
358.853978
 30
0.0
 40
4.0
100
AcDbArc
 50
10.0
 51
88.0
  0
LINE
  5
1041
330
13E1
100
AcDbEntity
  8
0
100
AcDbLine
 10
102.111508
 20
362.851978
 30
0.0
 11
88.016508
 21
363.343978
 31
0.0
  0
ARC
  5
1042
330
13E1
100
AcDbEntity
  8
0
100
AcDbCircle
 10
132.534508
 20
357.786978
 30
0.0
 40
4.0
100
AcDbArc
 50
88.0
 51
170.0
  0
LINE
  5
1045
330
13E1
100
AcDbEntity
  8
0
100
AcDbLine
 10
312.346508
 20
196.404978
 30
0.0
 11
264.846508
 21
196.404978
 31
0.0
  0
LINE
  5
1046
330
13E1
100
AcDbEntity
  8
0
100
AcDbLine
 10
312.346508
 20
196.404978
 30
0.0
 11
312.346508
 21
199.404978
 31
0.0
  0
LINE
  5
1047
330
13E1
100
AcDbEntity
  8
0
100
AcDbLine
 10
304.846508
 20
232.074978
 30
0.0
 11
304.846508
 21
196.404978
 31
0.0
  0
LINE
  5
1048
330
13E1
100
AcDbEntity
  8
0
100
AcDbLine
 10
309.846508
 20
214.404978
 30
0.0
 11
309.846508
 21
210.061978
 31
0.0
  0
ARC
  5
1049
330
13E1
100
AcDbEntity
  8
0
100
AcDbCircle
 10
312.846508
 20
204.404978
 30
0.0
 40
5.0
100
AcDbArc
 50
141.058
 51
264.261
  0
ARC
  5
104A
330
13E1
100
AcDbEntity
  8
0
100
AcDbCircle
 10
305.846508
 20
210.061978
 30
0.0
 40
4.0
100
AcDbArc
 50
321.058
 51
0.0
  0
ARC
  5
104B
330
13E1
100
AcDbEntity
  8
0
100
AcDbCircle
 10
305.846508
 20
214.404978
 30
0.0
 40
4.0
100
AcDbArc
 50
0.0
 51
41.41
  0
ARC
  5
104C
330
13E1
100
AcDbEntity
  8
0
100
AcDbCircle
 10
311.846508
 20
219.696978
 30
0.0
 40
4.0
100
AcDbArc
 50
180.0
 51
221.41
  0
LINE
  5
104D
330
13E1
100
AcDbEntity
  8
0
100
AcDbLine
 10
326.006508
 20
234.404978
 30
0.0
 11
311.846508
 21
234.404978
 31
0.0
  0
ARC
  5
104E
330
13E1
100
AcDbEntity
  8
0
100
AcDbCircle
 10
311.846508
 20
230.404978
 30
0.0
 40
4.0
100
AcDbArc
 50
90.0
 51
180.0
  0
LINE
  5
104F
330
13E1
100
AcDbEntity
  8
0
100
AcDbLine
 10
325.8465080000001
 20
237.4049779999999
 30
0.0
 11
325.042508
 21
234.404978
 31
0.0
  0
LINE
  5
1050
330
13E1
100
AcDbEntity
  8
0
100
AcDbLine
 10
313.846508
 20
237.4049779999999
 30
0.0
 11
325.8465080000001
 21
237.4049779999999
 31
0.0
  0
LINE
  5
1051
330
13E1
100
AcDbEntity
  8
0
100
AcDbLine
 10
313.846508
 20
239.404978
 30
0.0
 11
313.846508
 21
237.4049779999999
 31
0.0
  0
LINE
  5
1052
330
13E1
100
AcDbEntity
  8
0
100
AcDbLine
 10
286.346508
 20
317.404978
 30
0.0
 11
286.346508
 21
254.744978
 31
0.0
  0
LINE
  5
1053
330
13E1
100
AcDbEntity
  8
0
100
AcDbLine
 10
288.846508
 20
317.404978
 30
0.0
 11
288.846508
 21
264.404978
 31
0.0
  0
ARC
  5
1054
330
13E1
100
AcDbEntity
  8
0
100
AcDbCircle
 10
313.846508
 20
264.404978
 30
0.0
 40
25.0
100
AcDbArc
 50
180.0
 51
270.0
  0
ARC
  5
1055
330
13E1
100
AcDbEntity
  8
0
100
AcDbCircle
 10
313.846508
 20
264.404978
 30
0.0
 40
27.5
100
AcDbArc
 50
200.566
 51
239.5729999999999
  0
ARC
  5
1056
330
13E1
100
AcDbEntity
  8
0
100
AcDbCircle
 10
294.846508
 20
232.074978
 30
0.0
 40
10.0
100
AcDbArc
 50
0.0
 51
59.55799999999999
  0
LINE
  5
1057
330
13E1
100
AcDbEntity
  8
0
100
AcDbLine
 10
264.846508
 20
317.404978
 30
0.0
 11
288.846508
 21
317.404978
 31
0.0
  0
LINE
  5
1058
330
13E1
100
AcDbEntity
  8
0
100
AcDbLine
 10
327.346508
 20
257.404978
 30
0.0
 11
289.846508
 21
257.404978
 31
0.0
  0
LINE
  5
1059
330
13E1
100
AcDbEntity
  8
0
100
AcDbLine
 10
278.314508
 20
341.226978
 30
0.0
 11
311.371508
 21
338.334978
 31
0.0
  0
LINE
  5
105A
330
13E1
100
AcDbEntity
  8
0
100
AcDbLine
 10
327.346508
 20
257.404978
 30
0.0
 11
327.346508
 21
320.901978
 31
0.0
  0
ARC
  5
105B
330
13E1
100
AcDbEntity
  8
0
100
AcDbCircle
 10
309.846508
 20
320.901978
 30
0.0
 40
17.5
100
AcDbArc
 50
0.0
 51
85.0
  0
ARC
  5
105C
330
13E1
100
AcDbEntity
  8
0
100
AcDbCircle
 10
264.846508
 20
337.404978
 30
0.0
 40
5.0
100
AcDbArc
 50
270.0
 51
90.0
  0
LINE
  5
105D
330
13E1
100
AcDbEntity
  8
0
100
AcDbLine
 10
278.096508
 20
338.735978
 30
0.0
 11
311.153508
 21
335.843978
 31
0.0
  0
LINE
  5
105E
330
13E1
100
AcDbEntity
  8
0
100
AcDbLine
 10
324.846508
 20
257.404978
 30
0.0
 11
324.846508
 21
320.901978
 31
0.0
  0
ARC
  5
105F
330
13E1
100
AcDbEntity
  8
0
100
AcDbCircle
 10
309.846508
 20
320.901978
 30
0.0
 40
15.0
100
AcDbArc
 50
0.0
 51
85.0
  0
LINE
  5
1060
330
13E1
100
AcDbEntity
  8
0
100
AcDbLine
 10
264.846508
 20
350.404978
 30
0.0
 11
272.346508
 21
350.404978
 31
0.0
  0
LINE
  5
1061
330
13E1
100
AcDbEntity
  8
0
100
AcDbLine
 10
272.346508
 20
350.404978
 30
0.0
 11
287.846508
 21
340.392978
 31
0.0
  0
ARC
  5
1062
330
13E1
100
AcDbEntity
  8
0
100
AcDbCircle
 10
325.8465080000001
 20
258.404978
 30
0.0
 40
1.0
100
AcDbArc
 50
180.0
 51
270.0
  0
LINE
  5
1063
330
13E1
100
AcDbEntity
  8
0
100
AcDbLine
 10
217.346508
 20
196.404978
 30
0.0
 11
264.846508
 21
196.404978
 31
0.0
  0
LINE
  5
1064
330
13E1
100
AcDbEntity
  8
0
100
AcDbLine
 10
217.346508
 20
196.404978
 30
0.0
 11
217.346508
 21
199.404978
 31
0.0
  0
LINE
  5
1065
330
13E1
100
AcDbEntity
  8
0
100
AcDbLine
 10
224.846508
 20
232.074978
 30
0.0
 11
224.846508
 21
196.404978
 31
0.0
  0
LINE
  5
1066
330
13E1
100
AcDbEntity
  8
0
100
AcDbLine
 10
219.846508
 20
214.404978
 30
0.0
 11
219.846508
 21
210.061978
 31
0.0
  0
ARC
  5
1067
330
13E1
100
AcDbEntity
  8
0
100
AcDbCircle
 10
216.846508
 20
204.404978
 30
0.0
 40
5.0
100
AcDbArc
 50
275.739
 51
38.942
  0
ARC
  5
1068
330
13E1
100
AcDbEntity
  8
0
100
AcDbCircle
 10
223.846508
 20
210.061978
 30
0.0
 40
4.0
100
AcDbArc
 50
180.0
 51
218.942
  0
ARC
  5
1069
330
13E1
100
AcDbEntity
  8
0
100
AcDbCircle
 10
223.846508
 20
214.404978
 30
0.0
 40
4.0
100
AcDbArc
 50
138.59
 51
180.0
  0
ARC
  5
106A
330
13E1
100
AcDbEntity
  8
0
100
AcDbCircle
 10
217.846508
 20
219.696978
 30
0.0
 40
4.0
100
AcDbArc
 50
318.59
 51
0.0
  0
LINE
  5
106B
330
13E1
100
AcDbEntity
  8
0
100
AcDbLine
 10
203.685508
 20
234.404978
 30
0.0
 11
217.846508
 21
234.404978
 31
0.0
  0
ARC
  5
106C
330
13E1
100
AcDbEntity
  8
0
100
AcDbCircle
 10
217.846508
 20
230.404978
 30
0.0
 40
4.0
100
AcDbArc
 50
0.0
 51
90.0
  0
LINE
  5
106D
330
13E1
100
AcDbEntity
  8
0
100
AcDbLine
 10
203.846508
 20
237.4049779999999
 30
0.0
 11
204.650508
 21
234.404978
 31
0.0
  0
LINE
  5
106E
330
13E1
100
AcDbEntity
  8
0
100
AcDbLine
 10
215.846508
 20
237.4049779999999
 30
0.0
 11
203.846508
 21
237.4049779999999
 31
0.0
  0
LINE
  5
106F
330
13E1
100
AcDbEntity
  8
0
100
AcDbLine
 10
215.846508
 20
239.404978
 30
0.0
 11
215.846508
 21
237.4049779999999
 31
0.0
  0
LINE
  5
1070
330
13E1
100
AcDbEntity
  8
0
100
AcDbLine
 10
243.346508
 20
317.404978
 30
0.0
 11
243.346508
 21
254.744978
 31
0.0
  0
LINE
  5
1071
330
13E1
100
AcDbEntity
  8
0
100
AcDbLine
 10
240.846508
 20
317.404978
 30
0.0
 11
240.846508
 21
264.404978
 31
0.0
  0
ARC
  5
1072
330
13E1
100
AcDbEntity
  8
0
100
AcDbCircle
 10
215.846508
 20
264.404978
 30
0.0
 40
25.0
100
AcDbArc
 50
270.0
 51
0.0
  0
ARC
  5
1073
330
13E1
100
AcDbEntity
  8
0
100
AcDbCircle
 10
215.846508
 20
264.404978
 30
0.0
 40
27.5
100
AcDbArc
 50
300.442
 51
339.434
  0
ARC
  5
1074
330
13E1
100
AcDbEntity
  8
0
100
AcDbCircle
 10
234.846508
 20
232.074978
 30
0.0
 40
10.0
100
AcDbArc
 50
120.442
 51
180.0
  0
LINE
  5
1075
330
13E1
100
AcDbEntity
  8
0
100
AcDbLine
 10
264.846508
 20
317.404978
 30
0.0
 11
240.846508
 21
317.404978
 31
0.0
  0
LINE
  5
1076
330
13E1
100
AcDbEntity
  8
0
100
AcDbLine
 10
202.346508
 20
257.404978
 30
0.0
 11
239.846508
 21
257.404978
 31
0.0
  0
LINE
  5
1077
330
13E1
100
AcDbEntity
  8
0
100
AcDbLine
 10
251.377508
 20
341.226978
 30
0.0
 11
218.321508
 21
338.334978
 31
0.0
  0
LINE
  5
1078
330
13E1
100
AcDbEntity
  8
0
100
AcDbLine
 10
202.346508
 20
257.404978
 30
0.0
 11
202.346508
 21
320.901978
 31
0.0
  0
ARC
  5
1079
330
13E1
100
AcDbEntity
  8
0
100
AcDbCircle
 10
219.846508
 20
320.901978
 30
0.0
 40
17.5
100
AcDbArc
 50
95.0
 51
180.0
  0
ARC
  5
107A
330
13E1
100
AcDbEntity
  8
0
100
AcDbCircle
 10
264.846508
 20
337.404978
 30
0.0
 40
5.0
100
AcDbArc
 50
90.0
 51
270.0
  0
LINE
  5
107B
330
13E1
100
AcDbEntity
  8
0
100
AcDbLine
 10
251.595508
 20
338.736978
 30
0.0
 11
218.538508
 21
335.844978
 31
0.0
  0
LINE
  5
107C
330
13E1
100
AcDbEntity
  8
0
100
AcDbLine
 10
204.846508
 20
257.404978
 30
0.0
 11
204.846508
 21
320.901978
 31
0.0
  0
ARC
  5
107D
330
13E1
100
AcDbEntity
  8
0
100
AcDbCircle
 10
219.846508
 20
320.901978
 30
0.0
 40
15.0
100
AcDbArc
 50
95.0
 51
180.0
  0
LINE
  5
107E
330
13E1
100
AcDbEntity
  8
0
100
AcDbLine
 10
264.846508
 20
350.404978
 30
0.0
 11
257.346508
 21
350.404978
 31
0.0
  0
LINE
  5
107F
330
13E1
100
AcDbEntity
  8
0
100
AcDbLine
 10
257.346508
 20
350.404978
 30
0.0
 11
241.846508
 21
340.392978
 31
0.0
  0
ARC
  5
1080
330
13E1
100
AcDbEntity
  8
0
100
AcDbCircle
 10
203.846508
 20
258.404978
 30
0.0
 40
1.0
100
AcDbArc
 50
270.0
 51
0.0
  0
LINE
  5
1081
330
13E1
100
AcDbEntity
  8
0
100
AcDbLine
 10
241.593508
 20
254.744978
 30
0.0
 11
288.099508
 21
254.744978
 31
0.0
  0
LINE
  5
1082
330
13E1
100
AcDbEntity
  8
0
100
AcDbLine
 10
243.275508
 20
264.848978
 30
0.0
 11
286.346508
 21
264.848978
 31
0.0
  0
LINE
  5
1083
330
13E1
100
AcDbEntity
  8
4
100
AcDbLine
 10
229.826508
 20
235.014978
 30
0.0
 11
299.627508
 21
235.014978
 31
0.0
  0
ARC
  5
1084
330
13E1
100
AcDbEntity
  8
0
100
AcDbCircle
 10
264.846508
 20
337.404978
 30
0.0
 40
6.0
100
AcDbArc
 50
210.0
 51
330.0
  0
ARC
  5
1085
330
13E1
100
AcDbEntity
  8
0
100
AcDbCircle
 10
264.846508
 20
337.404978
 30
0.0
 40
8.5
100
AcDbArc
 50
210.0
 51
330.0
  0
LINE
  5
1086
330
13E1
100
AcDbEntity
  8
0
100
AcDbLine
 10
270.042508
 20
334.404978
 30
0.0
 11
272.118508
 21
338.001978
 31
0.0
  0
LINE
  5
1087
330
13E1
100
AcDbEntity
  8
0
100
AcDbLine
 10
272.207508
 20
333.154978
 30
0.0
 11
274.283508
 21
336.7519779999999
 31
0.0
  0
LINE
  5
1088
330
13E1
100
AcDbEntity
  8
0
100
AcDbLine
 10
259.650508
 20
334.404978
 30
0.0
 11
257.573508
 21
338.001978
 31
0.0
  0
LINE
  5
1089
330
13E1
100
AcDbEntity
  8
0
100
AcDbLine
 10
257.485508
 20
333.154978
 30
0.0
 11
255.408508
 21
336.7519779999999
 31
0.0
  0
ARC
  5
108A
330
13E1
100
AcDbEntity
  8
0
100
AcDbCircle
 10
251.944508
 20
334.7519779999999
 30
0.0
 40
4.0
100
AcDbArc
 50
30.0
 51
95.0
  0
ARC
  5
108B
330
13E1
100
AcDbEntity
  8
0
100
AcDbCircle
 10
277.748508
 20
334.7519779999999
 30
0.0
 40
4.0
100
AcDbArc
 50
85.0
 51
150.0
  0
ARC
  5
108C
330
13E1
100
AcDbEntity
  8
0
100
AcDbCircle
 10
251.944508
 20
334.7519779999999
 30
0.0
 40
6.5
100
AcDbArc
 50
30.0
 51
95.0
  0
ARC
  5
108D
330
13E1
100
AcDbEntity
  8
0
100
AcDbCircle
 10
277.748508
 20
334.7519779999999
 30
0.0
 40
6.5
100
AcDbArc
 50
85.0
 51
150.0
  0
LINE
  5
108E
330
13E1
100
AcDbEntity
  8
0
100
AcDbLine
 10
221.846508
 20
221.404978
 30
0.0
 11
221.846508
 21
219.696978
 31
0.0
  0
ARC
  5
108F
330
13E1
100
AcDbEntity
  8
0
100
AcDbCircle
 10
218.846508
 20
221.404978
 30
0.0
 40
3.0
100
AcDbArc
 50
0.0
 51
90.0
  0
ARC
  5
1090
330
13E1
100
AcDbEntity
  8
0
100
AcDbCircle
 10
218.846508
 20
230.404978
 30
0.0
 40
3.0
100
AcDbArc
 50
270.0
 51
0.0
  0
LINE
  5
1091
330
13E1
100
AcDbEntity
  8
0
100
AcDbLine
 10
218.846508
 20
227.404978
 30
0.0
 11
217.846508
 21
227.404978
 31
0.0
  0
LINE
  5
1092
330
13E1
100
AcDbEntity
  8
0
100
AcDbLine
 10
217.846508
 20
224.404978
 30
0.0
 11
218.846508
 21
224.404978
 31
0.0
  0
ARC
  5
1093
330
13E1
100
AcDbEntity
  8
0
100
AcDbCircle
 10
217.846508
 20
225.904978
 30
0.0
 40
1.5
100
AcDbArc
 50
180.0
 51
270.0
  0
ARC
  5
1094
330
13E1
100
AcDbEntity
  8
0
100
AcDbCircle
 10
217.846508
 20
225.904978
 30
0.0
 40
1.5
100
AcDbArc
 50
90.0
 51
180.0
  0
LINE
  5
1095
330
13E1
100
AcDbEntity
  8
0
100
AcDbLine
 10
311.846508
 20
227.404978
 30
0.0
 11
310.846508
 21
227.404978
 31
0.0
  0
LINE
  5
1096
330
13E1
100
AcDbEntity
  8
0
100
AcDbLine
 10
311.846508
 20
224.404978
 30
0.0
 11
310.846508
 21
224.404978
 31
0.0
  0
LINE
  5
1097
330
13E1
100
AcDbEntity
  8
0
100
AcDbLine
 10
307.846508
 20
221.404978
 30
0.0
 11
307.846508
 21
219.696978
 31
0.0
  0
ARC
  5
1098
330
13E1
100
AcDbEntity
  8
0
100
AcDbCircle
 10
311.846508
 20
225.904978
 30
0.0
 40
1.5
100
AcDbArc
 50
0.0
 51
90.0
  0
ARC
  5
1099
330
13E1
100
AcDbEntity
  8
0
100
AcDbCircle
 10
311.846508
 20
225.904978
 30
0.0
 40
1.5
100
AcDbArc
 50
270.0
 51
0.0
  0
ARC
  5
109A
330
13E1
100
AcDbEntity
  8
0
100
AcDbCircle
 10
310.846508
 20
230.404978
 30
0.0
 40
3.0
100
AcDbArc
 50
180.0
 51
270.0
  0
ARC
  5
109B
330
13E1
100
AcDbEntity
  8
0
100
AcDbCircle
 10
310.846508
 20
221.404978
 30
0.0
 40
3.0
100
AcDbArc
 50
90.0
 51
180.0
  0
CIRCLE
  5
109C
330
13E1
100
AcDbEntity
  8
0
100
AcDbCircle
 10
311.786508
 20
220.465978
 30
0.0
 40
3.939999999999999
  0
CIRCLE
  5
109D
330
13E1
100
AcDbEntity
  8
0
100
AcDbCircle
 10
217.906508
 20
220.464978
 30
0.0
 40
3.939999999999999
  0
LINE
  5
109E
330
13E1
100
AcDbEntity
  8
0
100
AcDbLine
 10
407.346508
 20
373.407978
 30
0.0
 11
407.346508
 21
386.904978
 31
0.0
  0
LINE
  5
109F
330
13E1
100
AcDbEntity
  8
0
100
AcDbLine
 10
407.346508
 20
369.404978
 30
0.0
 11
407.346508
 21
369.602978
 31
0.0
  0
LINE
  5
10A0
330
13E1
100
AcDbEntity
  8
4
100
AcDbLine
 10
408.346508
 20
373.404978
 30
0.0
 11
408.346508
 21
386.904978
 31
0.0
  0
LINE
  5
10A1
330
13E1
100
AcDbEntity
  8
0
100
AcDbLine
 10
407.346508
 20
369.604978
 30
0.0
 11
407.8465079999999
 21
371.504978
 31
0.0
  0
LINE
  5
10A2
330
13E1
100
AcDbEntity
  8
4
100
AcDbLine
 10
407.8465079999999
 20
371.504978
 30
0.0
 11
408.346508
 21
373.404978
 31
0.0
  0
LINE
  5
10A3
330
13E1
100
AcDbEntity
  8
0
100
AcDbLine
 10
407.8465079999999
 20
371.504978
 30
0.0
 11
407.346508
 21
373.404978
 31
0.0
  0
LINE
  5
10A4
330
13E1
100
AcDbEntity
  8
0
100
AcDbLine
 10
407.348508
 20
398.404978
 30
0.0
 11
408.3485079999999
 21
399.404978
 31
0.0
  0
LINE
  5
10A5
330
13E1
100
AcDbEntity
  8
4
100
AcDbLine
 10
408.345508
 20
365.604978
 30
0.0
 11
407.848508
 21
367.495978
 31
0.0
  0
LINE
  5
10A6
330
13E1
100
AcDbEntity
  8
0
100
AcDbLine
 10
407.345508
 20
365.604978
 30
0.0
 11
407.843508
 21
367.495978
 31
0.0
  0
LINE
  5
10A7
330
13E1
100
AcDbEntity
  8
0
100
AcDbLine
 10
407.8465079999999
 20
367.504978
 30
0.0
 11
407.346508
 21
369.401978
 31
0.0
  0
LINE
  5
10A8
330
13E1
100
AcDbEntity
  8
0
100
AcDbLine
 10
417.345508
 20
365.604978
 30
0.0
 11
416.8485079999999
 21
367.494978
 31
0.0
  0
LINE
  5
10A9
330
13E1
100
AcDbEntity
  8
4
100
AcDbLine
 10
416.345508
 20
365.604978
 30
0.0
 11
416.843508
 21
367.494978
 31
0.0
  0
LINE
  5
10AA
330
13E1
100
AcDbEntity
  8
0
100
AcDbLine
 10
416.845508
 20
367.504978
 30
0.0
 11
417.344508
 21
369.401978
 31
0.0
  0
LINE
  5
10AB
330
13E1
100
AcDbEntity
  8
0
100
AcDbLine
 10
417.345508
 20
369.404978
 30
0.0
 11
417.345508
 21
369.601978
 31
0.0
  0
LINE
  5
10AC
330
13E1
100
AcDbEntity
  8
0
100
AcDbLine
 10
417.345508
 20
365.604978
 30
0.0
 11
407.348508
 21
365.604978
 31
0.0
  0
LINE
  5
10AD
330
13E1
100
AcDbEntity
  8
4
100
AcDbLine
 10
416.345508
 20
367.504978
 30
0.0
 11
408.3485079999999
 21
367.504978
 31
0.0
  0
LINE
  5
10AE
330
13E1
100
AcDbEntity
  8
0
100
AcDbLine
 10
417.345508
 20
369.404978
 30
0.0
 11
407.3495079999999
 21
369.404978
 31
0.0
  0
LINE
  5
10AF
330
13E1
100
AcDbEntity
  8
0
100
AcDbLine
 10
416.845508
 20
371.504978
 30
0.0
 11
417.345508
 21
373.404978
 31
0.0
  0
LINE
  5
10B0
330
13E1
100
AcDbEntity
  8
0
100
AcDbLine
 10
417.345508
 20
369.604978
 30
0.0
 11
416.845508
 21
371.504978
 31
0.0
  0
LINE
  5
10B1
330
13E1
100
AcDbEntity
  8
4
100
AcDbLine
 10
416.845508
 20
371.504978
 30
0.0
 11
416.345508
 21
373.404978
 31
0.0
  0
LINE
  5
10B2
330
13E1
100
AcDbEntity
  8
4
100
AcDbLine
 10
416.345508
 20
373.404978
 30
0.0
 11
416.3465079999999
 21
386.904978
 31
0.0
  0
LINE
  5
10B3
330
13E1
100
AcDbEntity
  8
0
100
AcDbLine
 10
417.345508
 20
373.406978
 30
0.0
 11
417.346508
 21
386.904978
 31
0.0
  0
LINE
  5
10B4
330
13E1
100
AcDbEntity
  8
0
100
AcDbLine
 10
417.346508
 20
398.404978
 30
0.0
 11
416.3465079999999
 21
399.404978
 31
0.0
  0
LINE
  5
10B5
330
13E1
100
AcDbEntity
  8
0
100
AcDbLine
 10
417.345508
 20
369.604978
 30
0.0
 11
407.348508
 21
369.604978
 31
0.0
  0
LINE
  5
10B6
330
13E1
100
AcDbEntity
  8
4
100
AcDbLine
 10
416.345508
 20
371.504978
 30
0.0
 11
408.3485079999999
 21
371.504978
 31
0.0
  0
LINE
  5
10B7
330
13E1
100
AcDbEntity
  8
0
100
AcDbLine
 10
417.345508
 20
373.404978
 30
0.0
 11
407.348508
 21
373.404978
 31
0.0
  0
LINE
  5
10B8
330
13E1
100
AcDbEntity
  8
0
100
AcDbLine
 10
417.347508
 20
398.403978
 30
0.0
 11
407.3495079999999
 21
398.403978
 31
0.0
  0
LINE
  5
10B9
330
13E1
100
AcDbEntity
  8
0
100
AcDbLine
 10
416.347508
 20
399.404978
 30
0.0
 11
408.350508
 21
399.404978
 31
0.0
  0
LINE
  5
10BA
330
13E1
100
AcDbEntity
  8
4
100
AcDbLine
 10
408.345508
 20
358.407978
 30
0.0
 11
408.345508
 21
365.604978
 31
0.0
  0
LINE
  5
10BB
330
13E1
100
AcDbEntity
  8
0
100
AcDbLine
 10
407.345508
 20
359.405978
 30
0.0
 11
407.345508
 21
369.404978
 31
0.0
  0
LINE
  5
10BC
330
13E1
100
AcDbEntity
  8
0
100
AcDbLine
 10
408.345508
 20
358.403978
 30
0.0
 11
407.346508
 21
359.403978
 31
0.0
  0
LINE
  5
10BD
330
13E1
100
AcDbEntity
  8
0
100
AcDbLine
 10
417.345508
 20
359.403978
 30
0.0
 11
407.3495079999999
 21
359.403978
 31
0.0
  0
LINE
  5
10BE
330
13E1
100
AcDbEntity
  8
0
100
AcDbLine
 10
417.345508
 20
359.404978
 30
0.0
 11
417.346508
 21
369.404978
 31
0.0
  0
LINE
  5
10BF
330
13E1
100
AcDbEntity
  8
0
100
AcDbLine
 10
416.345508
 20
358.403978
 30
0.0
 11
417.344508
 21
359.402978
 31
0.0
  0
LINE
  5
10C0
330
13E1
100
AcDbEntity
  8
4
100
AcDbLine
 10
416.345508
 20
358.406978
 30
0.0
 11
416.345508
 21
365.603978
 31
0.0
  0
LINE
  5
10C1
330
13E1
100
AcDbEntity
  8
0
100
AcDbLine
 10
416.342508
 20
358.404978
 30
0.0
 11
408.3485079999999
 21
358.404978
 31
0.0
  0
ARC
  5
10C2
330
13E1
100
AcDbEntity
  8
0
100
AcDbCircle
 10
412.346508
 20
380.729978
 30
0.0
 40
14.175
100
AcDbArc
 50
70.533
 51
109.461
  0
ARC
  5
10C3
330
13E1
100
AcDbEntity
  8
0
100
AcDbCircle
 10
412.347508
 20
401.079978
 30
0.0
 40
14.175
100
AcDbArc
 50
250.525
 51
289.46
  0
LINE
  5
10C4
330
13E1
100
AcDbEntity
  8
0
100
AcDbLine
 10
417.0715079999999
 20
387.716978
 30
0.0
 11
417.072508
 21
394.092978
 31
0.0
  0
LINE
  5
10C5
330
13E1
100
AcDbEntity
  8
0
100
AcDbLine
 10
407.6215079999999
 20
387.716978
 30
0.0
 11
407.6225079999999
 21
394.092978
 31
0.0
  0
LINE
  5
10C6
330
13E1
100
AcDbEntity
  8
0
100
AcDbLine
 10
419.238508
 20
386.903978
 30
0.0
 11
405.4565079999999
 21
386.904978
 31
0.0
  0
LINE
  5
10C7
330
13E1
100
AcDbEntity
  8
0
100
AcDbLine
 10
419.4345079999999
 20
394.903978
 30
0.0
 11
405.457508
 21
394.904978
 31
0.0
  0
LINE
  5
10C8
330
13E1
100
AcDbEntity
  8
0
100
AcDbLine
 10
421.795508
 20
387.713978
 30
0.0
 11
420.883508
 21
387.187978
 31
0.0
  0
ARC
  5
10C9
330
13E1
100
AcDbEntity
  8
0
100
AcDbCircle
 10
419.4345079999999
 20
390.7519779999999
 30
0.0
 40
3.846999999999999
100
AcDbArc
 50
232.13
 51
292.11
  0
LINE
  5
10CA
330
13E1
100
AcDbEntity
  8
0
100
AcDbLine
 10
421.7965079999999
 20
387.716978
 30
0.0
 11
421.797508
 21
394.092978
 31
0.0
  0
ARC
  5
10CB
330
13E1
100
AcDbEntity
  8
0
100
AcDbCircle
 10
419.4345079999999
 20
391.056978
 30
0.0
 40
3.848
100
AcDbArc
 50
60.0
 51
127.859
  0
LINE
  5
10CC
330
13E1
100
AcDbEntity
  8
0
100
AcDbLine
 10
421.795508
 20
394.094978
 30
0.0
 11
420.885508
 21
394.620978
 31
0.0
  0
ARC
  5
10CD
330
13E1
100
AcDbEntity
  8
0
100
AcDbCircle
 10
405.2595079999999
 20
390.752978
 30
0.0
 40
3.848
100
AcDbArc
 50
247.969
 51
307.857
  0
LINE
  5
10CE
330
13E1
100
AcDbEntity
  8
0
100
AcDbLine
 10
403.8165079999999
 20
387.185978
 30
0.0
 11
402.8985079999999
 21
387.715978
 31
0.0
  0
LINE
  5
10CF
330
13E1
100
AcDbEntity
  8
0
100
AcDbLine
 10
402.8965079999999
 20
387.718978
 30
0.0
 11
402.897508
 21
394.092978
 31
0.0
  0
LINE
  5
10D0
330
13E1
100
AcDbEntity
  8
0
100
AcDbLine
 10
403.8145079999999
 20
394.622978
 30
0.0
 11
402.8985079999999
 21
394.094978
 31
0.0
  0
ARC
  5
10D1
330
13E1
100
AcDbEntity
  8
0
100
AcDbCircle
 10
405.2595079999999
 20
391.057978
 30
0.0
 40
3.848
100
AcDbArc
 50
52.138
 51
112.063
  0
LINE
  5
10D2
330
13E1
100
AcDbEntity
  8
7
100
AcDbLine
 10
264.846508
 20
388.972978
 30
0.0
 11
264.846508
 21
137.424978
 31
0.0
  0
LINE
  5
10D3
330
13E1
100
AcDbEntity
  8
0
100
AcDbLine
 10
407.3475079999999
 20
394.904978
 30
0.0
 11
407.3475079999999
 21
398.402978
 31
0.0
  0
LINE
  5
10D4
330
13E1
100
AcDbEntity
  8
4
100
AcDbLine
 10
408.347508
 20
394.328978
 30
0.0
 11
408.347508
 21
399.4029779999999
 31
0.0
  0
LINE
  5
10D5
330
13E1
100
AcDbEntity
  8
4
100
AcDbLine
 10
416.3465079999999
 20
394.904978
 30
0.0
 11
416.347508
 21
399.401978
 31
0.0
  0
LINE
  5
10D6
330
13E1
100
AcDbEntity
  8
0
100
AcDbLine
 10
417.346508
 20
394.904978
 30
0.0
 11
417.347508
 21
398.402978
 31
0.0
  0
LINE
  5
10D8
330
13E1
100
AcDbEntity
  8
0
100
AcDbLine
 10
407.345508
 20
354.404978
 30
0.0
 11
417.344508
 21
354.404978
 31
0.0
  0
LINE
  5
10D9
330
13E1
100
AcDbEntity
  8
0
100
AcDbLine
 10
408.345508
 20
349.404978
 30
0.0
 11
416.344508
 21
349.404978
 31
0.0
  0
LINE
  5
10DA
330
13E1
100
AcDbEntity
  8
0
100
AcDbLine
 10
416.344508
 20
349.404978
 30
0.0
 11
416.342508
 21
358.404978
 31
0.0
  0
LINE
  5
10DB
330
13E1
100
AcDbEntity
  8
0
100
AcDbLine
 10
408.3485079999999
 20
358.404978
 30
0.0
 11
408.345508
 21
349.404978
 31
0.0
  0
LINE
  5
10DC
330
13E1
100
AcDbEntity
  8
4
100
AcDbLine
 10
417.345508
 20
359.403978
 30
0.0
 11
417.344508
 21
354.404978
 31
0.0
  0
LINE
  5
10DD
330
13E1
100
AcDbEntity
  8
4
100
AcDbLine
 10
407.345508
 20
359.403978
 30
0.0
 11
407.345508
 21
354.404978
 31
0.0
  0
LINE
  5
10DE
330
13E1
100
AcDbEntity
  8
0
100
AcDbLine
 10
412.345508
 20
347.095978
 30
0.0
 11
416.344508
 21
349.404978
 31
0.0
  0
LINE
  5
10DF
330
13E1
100
AcDbEntity
  8
0
100
AcDbLine
 10
408.345508
 20
349.404978
 30
0.0
 11
412.345508
 21
347.095978
 31
0.0
  0
DIMENSION
  5
10EF
330
13E1
100
AcDbEntity
  8
5
100
AcDbDimension
  2
*D7
 10
479.845508
 20
506.1269779999999
 30
0.0
 11
264.131508
 21
506.1269779999999
 31
0.0
 70
   160
  1
%%c 430
 71
     5
 42
-1.0
  3
GEN-ISO
100
AcDbAlignedDimension
 13
49.847508
 23
361.404978
 33
0.0
 14
479.845508
 24
361.404978
 34
0.0
100
AcDbRotatedDimension
  0
DIMENSION
  5
10F9
330
13E1
100
AcDbEntity
  8
5
100
AcDbDimension
  2
*D15
 10
613.228508
 20
369.404978
 30
0.0
 11
613.228508
 21
248.851978
 31
0.0
 70
   160
  1
220
 71
     5
 42
-1.0
  3
GEN-ISO
100
AcDbAlignedDimension
 13
319.574508
 23
149.404978
 33
0.0
 14
475.630508
 24
369.404978
 34
0.0
 50
90.0
100
AcDbRotatedDimension
  0
POLYLINE
  5
10FA
330
13E1
100
AcDbEntity
  8
SCHRAFFUR_RAND
100
AcDb2dPolyline
 66
     1
 10
0.0
 20
0.0
 30
0.0
 70
     1
  0
VERTEX
  5
10FB
330
10FA
100
AcDbEntity
  8
SCHRAFFUR_RAND
100
AcDbVertex
100
AcDb2dVertex
 10
325.8465080000001
 20
257.404978
 30
0.0
  0
VERTEX
  5
10FC
330
10FA
100
AcDbEntity
  8
SCHRAFFUR_RAND
100
AcDbVertex
100
AcDb2dVertex
 10
327.346508
 20
257.404978
 30
0.0
  0
VERTEX
  5
10FD
330
10FA
100
AcDbEntity
  8
SCHRAFFUR_RAND
100
AcDbVertex
100
AcDb2dVertex
 10
327.346508
 20
320.901978
 30
0.0
  0
VERTEX
  5
10FE
330
10FA
100
AcDbEntity
  8
SCHRAFFUR_RAND
100
AcDbVertex
100
AcDb2dVertex
 10
326.919508
 20
325.210978
 30
0.0
  0
VERTEX
  5
10FF
330
10FA
100
AcDbEntity
  8
SCHRAFFUR_RAND
100
AcDbVertex
100
AcDb2dVertex
 10
325.345508
 20
329.258978
 30
0.0
  0
VERTEX
  5
1100
330
10FA
100
AcDbEntity
  8
SCHRAFFUR_RAND
100
AcDbVertex
100
AcDb2dVertex
 10
322.828508
 20
332.797978
 30
0.0
  0
VERTEX
  5
1101
330
10FA
100
AcDbEntity
  8
SCHRAFFUR_RAND
100
AcDbVertex
100
AcDb2dVertex
 10
319.522508
 20
335.613978
 30
0.0
  0
VERTEX
  5
1102
330
10FA
100
AcDbEntity
  8
SCHRAFFUR_RAND
100
AcDbVertex
100
AcDb2dVertex
 10
315.627508
 20
337.533978
 30
0.0
  0
VERTEX
  5
1103
330
10FA
100
AcDbEntity
  8
SCHRAFFUR_RAND
100
AcDbVertex
100
AcDb2dVertex
 10
311.371508
 20
338.334978
 30
0.0
  0
VERTEX
  5
1104
330
10FA
100
AcDbEntity
  8
SCHRAFFUR_RAND
100
AcDbVertex
100
AcDb2dVertex
 10
287.846508
 20
340.392978
 30
0.0
  0
VERTEX
  5
1105
330
10FA
100
AcDbEntity
  8
SCHRAFFUR_RAND
100
AcDbVertex
100
AcDb2dVertex
 10
278.314508
 20
341.226978
 30
0.0
  0
VERTEX
  5
1106
330
10FA
100
AcDbEntity
  8
SCHRAFFUR_RAND
100
AcDbVertex
100
AcDb2dVertex
 10
275.852508
 20
341.082978
 30
0.0
  0
VERTEX
  5
1107
330
10FA
100
AcDbEntity
  8
SCHRAFFUR_RAND
100
AcDbVertex
100
AcDb2dVertex
 10
273.649508
 20
339.935978
 30
0.0
  0
VERTEX
  5
1108
330
10FA
100
AcDbEntity
  8
SCHRAFFUR_RAND
100
AcDbVertex
100
AcDb2dVertex
 10
272.118508
 20
338.001978
 30
0.0
  0
VERTEX
  5
1109
330
10FA
100
AcDbEntity
  8
SCHRAFFUR_RAND
100
AcDbVertex
100
AcDb2dVertex
 10
270.042508
 20
334.404978
 30
0.0
  0
VERTEX
  5
110A
330
10FA
100
AcDbEntity
  8
SCHRAFFUR_RAND
100
AcDbVertex
100
AcDb2dVertex
 10
268.436508
 20
332.4629779999999
 30
0.0
  0
VERTEX
  5
110B
330
10FA
100
AcDbEntity
  8
SCHRAFFUR_RAND
100
AcDbVertex
100
AcDb2dVertex
 10
266.116508
 20
331.429978
 30
0.0
  0
VERTEX
  5
110C
330
10FA
100
AcDbEntity
  8
SCHRAFFUR_RAND
100
AcDbVertex
100
AcDb2dVertex
 10
263.576508
 20
331.429978
 30
0.0
  0
VERTEX
  5
110D
330
10FA
100
AcDbEntity
  8
SCHRAFFUR_RAND
100
AcDbVertex
100
AcDb2dVertex
 10
261.255508
 20
332.4629779999999
 30
0.0
  0
VERTEX
  5
110E
330
10FA
100
AcDbEntity
  8
SCHRAFFUR_RAND
100
AcDbVertex
100
AcDb2dVertex
 10
259.650508
 20
334.404978
 30
0.0
  0
VERTEX
  5
110F
330
10FA
100
AcDbEntity
  8
SCHRAFFUR_RAND
100
AcDbVertex
100
AcDb2dVertex
 10
257.573508
 20
338.001978
 30
0.0
  0
VERTEX
  5
1110
330
10FA
100
AcDbEntity
  8
SCHRAFFUR_RAND
100
AcDbVertex
100
AcDb2dVertex
 10
256.043508
 20
339.935978
 30
0.0
  0
VERTEX
  5
1111
330
10FA
100
AcDbEntity
  8
SCHRAFFUR_RAND
100
AcDbVertex
100
AcDb2dVertex
 10
253.839508
 20
341.082978
 30
0.0
  0
VERTEX
  5
1112
330
10FA
100
AcDbEntity
  8
SCHRAFFUR_RAND
100
AcDbVertex
100
AcDb2dVertex
 10
251.377508
 20
341.226978
 30
0.0
  0
VERTEX
  5
1113
330
10FA
100
AcDbEntity
  8
SCHRAFFUR_RAND
100
AcDbVertex
100
AcDb2dVertex
 10
241.846508
 20
340.392978
 30
0.0
  0
VERTEX
  5
1114
330
10FA
100
AcDbEntity
  8
SCHRAFFUR_RAND
100
AcDbVertex
100
AcDb2dVertex
 10
218.321508
 20
338.334978
 30
0.0
  0
VERTEX
  5
1115
330
10FA
100
AcDbEntity
  8
SCHRAFFUR_RAND
100
AcDbVertex
100
AcDb2dVertex
 10
214.065508
 20
337.533978
 30
0.0
  0
VERTEX
  5
1116
330
10FA
100
AcDbEntity
  8
SCHRAFFUR_RAND
100
AcDbVertex
100
AcDb2dVertex
 10
210.170508
 20
335.613978
 30
0.0
  0
VERTEX
  5
1117
330
10FA
100
AcDbEntity
  8
SCHRAFFUR_RAND
100
AcDbVertex
100
AcDb2dVertex
 10
206.863508
 20
332.797978
 30
0.0
  0
VERTEX
  5
1118
330
10FA
100
AcDbEntity
  8
SCHRAFFUR_RAND
100
AcDbVertex
100
AcDb2dVertex
 10
204.347508
 20
329.258978
 30
0.0
  0
VERTEX
  5
1119
330
10FA
100
AcDbEntity
  8
SCHRAFFUR_RAND
100
AcDbVertex
100
AcDb2dVertex
 10
202.773508
 20
325.210978
 30
0.0
  0
VERTEX
  5
111A
330
10FA
100
AcDbEntity
  8
SCHRAFFUR_RAND
100
AcDbVertex
100
AcDb2dVertex
 10
202.346508
 20
320.901978
 30
0.0
  0
VERTEX
  5
111B
330
10FA
100
AcDbEntity
  8
SCHRAFFUR_RAND
100
AcDbVertex
100
AcDb2dVertex
 10
202.346508
 20
257.404978
 30
0.0
  0
VERTEX
  5
111C
330
10FA
100
AcDbEntity
  8
SCHRAFFUR_RAND
100
AcDbVertex
100
AcDb2dVertex
 10
203.846508
 20
257.404978
 30
0.0
  0
VERTEX
  5
111D
330
10FA
100
AcDbEntity
  8
SCHRAFFUR_RAND
100
AcDbVertex
100
AcDb2dVertex
 10
204.553508
 20
257.697978
 30
0.0
  0
VERTEX
  5
111E
330
10FA
100
AcDbEntity
  8
SCHRAFFUR_RAND
100
AcDbVertex
100
AcDb2dVertex
 10
204.846508
 20
258.404978
 30
0.0
  0
VERTEX
  5
111F
330
10FA
100
AcDbEntity
  8
SCHRAFFUR_RAND
100
AcDbVertex
100
AcDb2dVertex
 10
204.846508
 20
320.901978
 30
0.0
  0
VERTEX
  5
1120
330
10FA
100
AcDbEntity
  8
SCHRAFFUR_RAND
100
AcDbVertex
100
AcDb2dVertex
 10
205.397508
 20
325.318978
 30
0.0
  0
VERTEX
  5
1121
330
10FA
100
AcDbEntity
  8
SCHRAFFUR_RAND
100
AcDbVertex
100
AcDb2dVertex
 10
207.320508
 20
329.350978
 30
0.0
  0
VERTEX
  5
1122
330
10FA
100
AcDbEntity
  8
SCHRAFFUR_RAND
100
AcDbVertex
100
AcDb2dVertex
 10
210.338508
 20
332.642978
 30
0.0
  0
VERTEX
  5
1123
330
10FA
100
AcDbEntity
  8
SCHRAFFUR_RAND
100
AcDbVertex
100
AcDb2dVertex
 10
214.186508
 20
334.9099779999999
 30
0.0
  0
VERTEX
  5
1124
330
10FA
100
AcDbEntity
  8
SCHRAFFUR_RAND
100
AcDbVertex
100
AcDb2dVertex
 10
218.539508
 20
335.844978
 30
0.0
  0
VERTEX
  5
1125
330
10FA
100
AcDbEntity
  8
SCHRAFFUR_RAND
100
AcDbVertex
100
AcDb2dVertex
 10
251.595508
 20
338.736978
 30
0.0
  0
VERTEX
  5
1126
330
10FA
100
AcDbEntity
  8
SCHRAFFUR_RAND
100
AcDbVertex
100
AcDb2dVertex
 10
253.122508
 20
338.687978
 30
0.0
  0
VERTEX
  5
1127
330
10FA
100
AcDbEntity
  8
SCHRAFFUR_RAND
100
AcDbVertex
100
AcDb2dVertex
 10
254.492508
 20
337.974978
 30
0.0
  0
VERTEX
  5
1128
330
10FA
100
AcDbEntity
  8
SCHRAFFUR_RAND
100
AcDbVertex
100
AcDb2dVertex
 10
255.408508
 20
336.7519779999999
 30
0.0
  0
VERTEX
  5
1129
330
10FA
100
AcDbEntity
  8
SCHRAFFUR_RAND
100
AcDbVertex
100
AcDb2dVertex
 10
257.485508
 20
333.154978
 30
0.0
  0
VERTEX
  5
112A
330
10FA
100
AcDbEntity
  8
SCHRAFFUR_RAND
100
AcDbVertex
100
AcDb2dVertex
 10
259.312508
 20
330.810978
 30
0.0
  0
VERTEX
  5
112B
330
10FA
100
AcDbEntity
  8
SCHRAFFUR_RAND
100
AcDbVertex
100
AcDb2dVertex
 10
261.901508
 20
329.315978
 30
0.0
  0
VERTEX
  5
112C
330
10FA
100
AcDbEntity
  8
SCHRAFFUR_RAND
100
AcDbVertex
100
AcDb2dVertex
 10
264.846508
 20
328.796978
 30
0.0
  0
VERTEX
  5
112D
330
10FA
100
AcDbEntity
  8
SCHRAFFUR_RAND
100
AcDbVertex
100
AcDb2dVertex
 10
267.790508
 20
329.315978
 30
0.0
  0
VERTEX
  5
112E
330
10FA
100
AcDbEntity
  8
SCHRAFFUR_RAND
100
AcDbVertex
100
AcDb2dVertex
 10
270.379508
 20
330.810978
 30
0.0
  0
VERTEX
  5
112F
330
10FA
100
AcDbEntity
  8
SCHRAFFUR_RAND
100
AcDbVertex
100
AcDb2dVertex
 10
272.207508
 20
333.154978
 30
0.0
  0
VERTEX
  5
1130
330
10FA
100
AcDbEntity
  8
SCHRAFFUR_RAND
100
AcDbVertex
100
AcDb2dVertex
 10
274.283508
 20
336.7519779999999
 30
0.0
  0
VERTEX
  5
1131
330
10FA
100
AcDbEntity
  8
SCHRAFFUR_RAND
100
AcDbVertex
100
AcDb2dVertex
 10
275.199508
 20
337.974978
 30
0.0
  0
VERTEX
  5
1132
330
10FA
100
AcDbEntity
  8
SCHRAFFUR_RAND
100
AcDbVertex
100
AcDb2dVertex
 10
276.569508
 20
338.687978
 30
0.0
  0
VERTEX
  5
1133
330
10FA
100
AcDbEntity
  8
SCHRAFFUR_RAND
100
AcDbVertex
100
AcDb2dVertex
 10
278.096508
 20
338.735978
 30
0.0
  0
VERTEX
  5
1134
330
10FA
100
AcDbEntity
  8
SCHRAFFUR_RAND
100
AcDbVertex
100
AcDb2dVertex
 10
311.153508
 20
335.843978
 30
0.0
  0
VERTEX
  5
1135
330
10FA
100
AcDbEntity
  8
SCHRAFFUR_RAND
100
AcDbVertex
100
AcDb2dVertex
 10
315.506508
 20
334.9099779999999
 30
0.0
  0
VERTEX
  5
1136
330
10FA
100
AcDbEntity
  8
SCHRAFFUR_RAND
100
AcDbVertex
100
AcDb2dVertex
 10
319.354508
 20
332.642978
 30
0.0
  0
VERTEX
  5
1137
330
10FA
100
AcDbEntity
  8
SCHRAFFUR_RAND
100
AcDbVertex
100
AcDb2dVertex
 10
322.372508
 20
329.350978
 30
0.0
  0
VERTEX
  5
1138
330
10FA
100
AcDbEntity
  8
SCHRAFFUR_RAND
100
AcDbVertex
100
AcDb2dVertex
 10
324.294508
 20
325.318978
 30
0.0
  0
VERTEX
  5
1139
330
10FA
100
AcDbEntity
  8
SCHRAFFUR_RAND
100
AcDbVertex
100
AcDb2dVertex
 10
324.846508
 20
320.901978
 30
0.0
  0
VERTEX
  5
113A
330
10FA
100
AcDbEntity
  8
SCHRAFFUR_RAND
100
AcDbVertex
100
AcDb2dVertex
 10
324.846508
 20
258.404978
 30
0.0
  0
VERTEX
  5
113B
330
10FA
100
AcDbEntity
  8
SCHRAFFUR_RAND
100
AcDbVertex
100
AcDb2dVertex
 10
325.139508
 20
257.697978
 30
0.0
  0
VERTEX
  5
113C
330
10FA
100
AcDbEntity
  8
SCHRAFFUR_RAND
100
AcDbVertex
100
AcDb2dVertex
 10
325.8465080000001
 20
257.404978
 30
0.0
  0
SEQEND
  5
113D
330
10FA
100
AcDbEntity
  8
SCHRAFFUR_RAND
  0
INSERT
  5
1179
330
13E1
100
AcDbEntity
  8
8
100
AcDbBlockReference
  2
*X0
 10
-108.606492
 20
22.361978
 30
0.0
1001
ACAD
1000
HATCH
1002
{
1070
    19
1000
ANSI31,_I
1040
3.174999999999999
1040
0.0
1002
}
  0
POLYLINE
  5
117A
330
13E1
100
AcDbEntity
  8
SCHRAFFUR_RAND
100
AcDb2dPolyline
 66
     1
 10
0.0
 20
0.0
 30
0.0
 70
     1
  0
VERTEX
  5
117B
330
117A
100
AcDbEntity
  8
SCHRAFFUR_RAND
100
AcDbVertex
100
AcDb2dVertex
 10
239.846508
 20
257.404978
 30
0.0
  0
VERTEX
  5
117C
330
117A
100
AcDbEntity
  8
SCHRAFFUR_RAND
100
AcDbVertex
100
AcDb2dVertex
 10
239.018508
 20
254.806978
 30
0.0
  0
VERTEX
  5
117D
330
117A
100
AcDbEntity
  8
SCHRAFFUR_RAND
100
AcDbVertex
100
AcDb2dVertex
 10
236.700508
 20
250.470978
 30
0.0
  0
VERTEX
  5
117E
330
117A
100
AcDbEntity
  8
SCHRAFFUR_RAND
100
AcDbVertex
100
AcDb2dVertex
 10
233.581508
 20
246.669978
 30
0.0
  0
VERTEX
  5
117F
330
117A
100
AcDbEntity
  8
SCHRAFFUR_RAND
100
AcDbVertex
100
AcDb2dVertex
 10
229.780508
 20
243.550978
 30
0.0
  0
VERTEX
  5
1180
330
117A
100
AcDbEntity
  8
SCHRAFFUR_RAND
100
AcDbVertex
100
AcDb2dVertex
 10
225.444508
 20
241.232978
 30
0.0
  0
VERTEX
  5
1181
330
117A
100
AcDbEntity
  8
SCHRAFFUR_RAND
100
AcDbVertex
100
AcDb2dVertex
 10
220.739508
 20
239.805978
 30
0.0
  0
VERTEX
  5
1182
330
117A
100
AcDbEntity
  8
SCHRAFFUR_RAND
100
AcDbVertex
100
AcDb2dVertex
 10
215.846508
 20
239.404978
 30
0.0
  0
VERTEX
  5
1183
330
117A
100
AcDbEntity
  8
SCHRAFFUR_RAND
100
AcDbVertex
100
AcDb2dVertex
 10
215.846508
 20
237.4049779999999
 30
0.0
  0
VERTEX
  5
1184
330
117A
100
AcDbEntity
  8
SCHRAFFUR_RAND
100
AcDbVertex
100
AcDb2dVertex
 10
203.846508
 20
237.4049779999999
 30
0.0
  0
VERTEX
  5
1185
330
117A
100
AcDbEntity
  8
SCHRAFFUR_RAND
100
AcDbVertex
100
AcDb2dVertex
 10
204.650508
 20
234.404978
 30
0.0
  0
VERTEX
  5
1186
330
117A
100
AcDbEntity
  8
SCHRAFFUR_RAND
100
AcDbVertex
100
AcDb2dVertex
 10
217.846508
 20
234.404978
 30
0.0
  0
VERTEX
  5
1187
330
117A
100
AcDbEntity
  8
SCHRAFFUR_RAND
100
AcDbVertex
100
AcDb2dVertex
 10
219.408508
 20
234.175978
 30
0.0
  0
VERTEX
  5
1188
330
117A
100
AcDbEntity
  8
SCHRAFFUR_RAND
100
AcDbVertex
100
AcDb2dVertex
 10
220.732508
 20
233.290978
 30
0.0
  0
VERTEX
  5
1189
330
117A
100
AcDbEntity
  8
SCHRAFFUR_RAND
100
AcDbVertex
100
AcDb2dVertex
 10
221.616508
 20
231.966978
 30
0.0
  0
VERTEX
  5
118A
330
117A
100
AcDbEntity
  8
SCHRAFFUR_RAND
100
AcDbVertex
100
AcDb2dVertex
 10
221.846508
 20
230.404978
 30
0.0
  0
VERTEX
  5
118B
330
117A
100
AcDbEntity
  8
SCHRAFFUR_RAND
100
AcDbVertex
100
AcDb2dVertex
 10
221.514508
 20
228.864978
 30
0.0
  0
VERTEX
  5
118C
330
117A
100
AcDbEntity
  8
SCHRAFFUR_RAND
100
AcDbVertex
100
AcDb2dVertex
 10
220.386508
 20
227.736978
 30
0.0
  0
VERTEX
  5
118D
330
117A
100
AcDbEntity
  8
SCHRAFFUR_RAND
100
AcDbVertex
100
AcDb2dVertex
 10
218.846508
 20
227.404978
 30
0.0
  0
VERTEX
  5
118E
330
117A
100
AcDbEntity
  8
SCHRAFFUR_RAND
100
AcDbVertex
100
AcDb2dVertex
 10
217.846508
 20
227.404978
 30
0.0
  0
VERTEX
  5
118F
330
117A
100
AcDbEntity
  8
SCHRAFFUR_RAND
100
AcDbVertex
100
AcDb2dVertex
 10
217.055508
 20
227.274978
 30
0.0
  0
VERTEX
  5
1190
330
117A
100
AcDbEntity
  8
SCHRAFFUR_RAND
100
AcDbVertex
100
AcDb2dVertex
 10
216.476508
 20
226.695978
 30
0.0
  0
VERTEX
  5
1191
330
117A
100
AcDbEntity
  8
SCHRAFFUR_RAND
100
AcDbVertex
100
AcDb2dVertex
 10
216.346508
 20
225.904978
 30
0.0
  0
VERTEX
  5
1192
330
117A
100
AcDbEntity
  8
SCHRAFFUR_RAND
100
AcDbVertex
100
AcDb2dVertex
 10
216.476508
 20
225.114978
 30
0.0
  0
VERTEX
  5
1193
330
117A
100
AcDbEntity
  8
SCHRAFFUR_RAND
100
AcDbVertex
100
AcDb2dVertex
 10
217.055508
 20
224.535978
 30
0.0
  0
VERTEX
  5
1194
330
117A
100
AcDbEntity
  8
SCHRAFFUR_RAND
100
AcDbVertex
100
AcDb2dVertex
 10
217.846508
 20
224.404978
 30
0.0
  0
VERTEX
  5
1195
330
117A
100
AcDbEntity
  8
SCHRAFFUR_RAND
100
AcDbVertex
100
AcDb2dVertex
 10
218.846508
 20
224.404978
 30
0.0
  0
VERTEX
  5
1196
330
117A
100
AcDbEntity
  8
SCHRAFFUR_RAND
100
AcDbVertex
100
AcDb2dVertex
 10
220.386508
 20
224.073978
 30
0.0
  0
VERTEX
  5
1197
330
117A
100
AcDbEntity
  8
SCHRAFFUR_RAND
100
AcDbVertex
100
AcDb2dVertex
 10
221.514508
 20
222.945978
 30
0.0
  0
VERTEX
  5
1198
330
117A
100
AcDbEntity
  8
SCHRAFFUR_RAND
100
AcDbVertex
100
AcDb2dVertex
 10
221.846508
 20
221.404978
 30
0.0
  0
VERTEX
  5
1199
330
117A
100
AcDbEntity
  8
SCHRAFFUR_RAND
100
AcDbVertex
100
AcDb2dVertex
 10
221.846508
 20
219.696978
 30
0.0
  0
VERTEX
  5
119A
330
117A
100
AcDbEntity
  8
SCHRAFFUR_RAND
100
AcDbVertex
100
AcDb2dVertex
 10
221.587508
 20
218.282978
 30
0.0
  0
VERTEX
  5
119B
330
117A
100
AcDbEntity
  8
SCHRAFFUR_RAND
100
AcDbVertex
100
AcDb2dVertex
 10
220.846508
 20
217.050978
 30
0.0
  0
VERTEX
  5
119C
330
117A
100
AcDbEntity
  8
SCHRAFFUR_RAND
100
AcDbVertex
100
AcDb2dVertex
 10
220.104508
 20
215.819978
 30
0.0
  0
VERTEX
  5
119D
330
117A
100
AcDbEntity
  8
SCHRAFFUR_RAND
100
AcDbVertex
100
AcDb2dVertex
 10
219.846508
 20
214.404978
 30
0.0
  0
VERTEX
  5
119E
330
117A
100
AcDbEntity
  8
SCHRAFFUR_RAND
100
AcDbVertex
100
AcDb2dVertex
 10
219.846508
 20
210.061978
 30
0.0
  0
VERTEX
  5
119F
330
117A
100
AcDbEntity
  8
SCHRAFFUR_RAND
100
AcDbVertex
100
AcDb2dVertex
 10
220.075508
 20
208.728978
 30
0.0
  0
VERTEX
  5
11A0
330
117A
100
AcDbEntity
  8
SCHRAFFUR_RAND
100
AcDbVertex
100
AcDb2dVertex
 10
220.735508
 20
207.547978
 30
0.0
  0
VERTEX
  5
11A1
330
117A
100
AcDbEntity
  8
SCHRAFFUR_RAND
100
AcDbVertex
100
AcDb2dVertex
 10
221.345508
 20
206.766978
 30
0.0
  0
VERTEX
  5
11A2
330
117A
100
AcDbEntity
  8
SCHRAFFUR_RAND
100
AcDbVertex
100
AcDb2dVertex
 10
221.846508
 20
204.404978
 30
0.0
  0
VERTEX
  5
11A3
330
117A
100
AcDbEntity
  8
SCHRAFFUR_RAND
100
AcDbVertex
100
AcDb2dVertex
 10
221.345508
 20
202.043978
 30
0.0
  0
VERTEX
  5
11A4
330
117A
100
AcDbEntity
  8
SCHRAFFUR_RAND
100
AcDbVertex
100
AcDb2dVertex
 10
219.732508
 20
200.223978
 30
0.0
  0
VERTEX
  5
11A5
330
117A
100
AcDbEntity
  8
SCHRAFFUR_RAND
100
AcDbVertex
100
AcDb2dVertex
 10
217.346508
 20
199.404978
 30
0.0
  0
VERTEX
  5
11A6
330
117A
100
AcDbEntity
  8
SCHRAFFUR_RAND
100
AcDbVertex
100
AcDb2dVertex
 10
217.346508
 20
196.404978
 30
0.0
  0
VERTEX
  5
11A7
330
117A
100
AcDbEntity
  8
SCHRAFFUR_RAND
100
AcDbVertex
100
AcDb2dVertex
 10
224.846508
 20
196.404978
 30
0.0
  0
VERTEX
  5
11A8
330
117A
100
AcDbEntity
  8
SCHRAFFUR_RAND
100
AcDbVertex
100
AcDb2dVertex
 10
224.846508
 20
232.074978
 30
0.0
  0
VERTEX
  5
11A9
330
117A
100
AcDbEntity
  8
SCHRAFFUR_RAND
100
AcDbVertex
100
AcDb2dVertex
 10
225.103508
 20
234.664978
 30
0.0
  0
VERTEX
  5
11AA
330
117A
100
AcDbEntity
  8
SCHRAFFUR_RAND
100
AcDbVertex
100
AcDb2dVertex
 10
226.096508
 20
237.081978
 30
0.0
  0
VERTEX
  5
11AB
330
117A
100
AcDbEntity
  8
SCHRAFFUR_RAND
100
AcDbVertex
100
AcDb2dVertex
 10
227.676508
 20
239.161978
 30
0.0
  0
VERTEX
  5
11AC
330
117A
100
AcDbEntity
  8
SCHRAFFUR_RAND
100
AcDbVertex
100
AcDb2dVertex
 10
229.779508
 20
240.696978
 30
0.0
  0
VERTEX
  5
11AD
330
117A
100
AcDbEntity
  8
SCHRAFFUR_RAND
100
AcDbVertex
100
AcDb2dVertex
 10
233.645508
 20
243.335978
 30
0.0
  0
VERTEX
  5
11AE
330
117A
100
AcDbEntity
  8
SCHRAFFUR_RAND
100
AcDbVertex
100
AcDb2dVertex
 10
236.955508
 20
246.653978
 30
0.0
  0
VERTEX
  5
11AF
330
117A
100
AcDbEntity
  8
SCHRAFFUR_RAND
100
AcDbVertex
100
AcDb2dVertex
 10
239.656508
 20
250.483978
 30
0.0
  0
VERTEX
  5
11B0
330
117A
100
AcDbEntity
  8
SCHRAFFUR_RAND
100
AcDbVertex
100
AcDb2dVertex
 10
241.593508
 20
254.744978
 30
0.0
  0
VERTEX
  5
11B1
330
117A
100
AcDbEntity
  8
SCHRAFFUR_RAND
100
AcDbVertex
100
AcDb2dVertex
 10
243.346508
 20
254.744978
 30
0.0
  0
VERTEX
  5
11B2
330
117A
100
AcDbEntity
  8
SCHRAFFUR_RAND
100
AcDbVertex
100
AcDb2dVertex
 10
243.275508
 20
264.848978
 30
0.0
  0
VERTEX
  5
11B3
330
117A
100
AcDbEntity
  8
SCHRAFFUR_RAND
100
AcDbVertex
100
AcDb2dVertex
 10
243.346508
 20
317.404978
 30
0.0
  0
VERTEX
  5
11B4
330
117A
100
AcDbEntity
  8
SCHRAFFUR_RAND
100
AcDbVertex
100
AcDb2dVertex
 10
240.846508
 20
317.404978
 30
0.0
  0
VERTEX
  5
11B5
330
117A
100
AcDbEntity
  8
SCHRAFFUR_RAND
100
AcDbVertex
100
AcDb2dVertex
 10
240.846508
 20
264.404978
 30
0.0
  0
VERTEX
  5
11B6
330
117A
100
AcDbEntity
  8
SCHRAFFUR_RAND
100
AcDbVertex
100
AcDb2dVertex
 10
240.445508
 20
259.511978
 30
0.0
  0
VERTEX
  5
11B7
330
117A
100
AcDbEntity
  8
SCHRAFFUR_RAND
100
AcDbVertex
100
AcDb2dVertex
 10
239.846508
 20
257.404978
 30
0.0
  0
SEQEND
  5
11B8
330
117A
100
AcDbEntity
  8
SCHRAFFUR_RAND
  0
INSERT
  5
11E0
330
13E1
100
AcDbEntity
  8
8
100
AcDbBlockReference
  2
*X1
 10
-108.606492
 20
22.361978
 30
0.0
1001
ACAD
1000
HATCH
1002
{
1070
    19
1000
ANSI31,_I
1040
3.174999999999999
1040
0.0
1002
}
  0
POLYLINE
  5
11E1
330
13E1
100
AcDbEntity
  8
SCHRAFFUR_RAND
100
AcDb2dPolyline
 66
     1
 10
0.0
 20
0.0
 30
0.0
 70
     1
  0
VERTEX
  5
11E2
330
11E1
100
AcDbEntity
  8
SCHRAFFUR_RAND
100
AcDbVertex
100
AcDb2dVertex
 10
304.846508
 20
196.404978
 30
0.0
  0
VERTEX
  5
11E3
330
11E1
100
AcDbEntity
  8
SCHRAFFUR_RAND
100
AcDbVertex
100
AcDb2dVertex
 10
312.346508
 20
196.404978
 30
0.0
  0
VERTEX
  5
11E4
330
11E1
100
AcDbEntity
  8
SCHRAFFUR_RAND
100
AcDbVertex
100
AcDb2dVertex
 10
312.346508
 20
199.404978
 30
0.0
  0
VERTEX
  5
11E5
330
11E1
100
AcDbEntity
  8
SCHRAFFUR_RAND
100
AcDbVertex
100
AcDb2dVertex
 10
311.716508
 20
199.456978
 30
0.0
  0
VERTEX
  5
11E6
330
11E1
100
AcDbEntity
  8
SCHRAFFUR_RAND
100
AcDbVertex
100
AcDb2dVertex
 10
309.681508
 20
200.436978
 30
0.0
  0
VERTEX
  5
11E7
330
11E1
100
AcDbEntity
  8
SCHRAFFUR_RAND
100
AcDbVertex
100
AcDb2dVertex
 10
308.273508
 20
202.202978
 30
0.0
  0
VERTEX
  5
11E8
330
11E1
100
AcDbEntity
  8
SCHRAFFUR_RAND
100
AcDbVertex
100
AcDb2dVertex
 10
307.771508
 20
204.404978
 30
0.0
  0
VERTEX
  5
11E9
330
11E1
100
AcDbEntity
  8
SCHRAFFUR_RAND
100
AcDbVertex
100
AcDb2dVertex
 10
308.273508
 20
206.606978
 30
0.0
  0
VERTEX
  5
11EA
330
11E1
100
AcDbEntity
  8
SCHRAFFUR_RAND
100
AcDbVertex
100
AcDb2dVertex
 10
308.957508
 20
207.547978
 30
0.0
  0
VERTEX
  5
11EB
330
11E1
100
AcDbEntity
  8
SCHRAFFUR_RAND
100
AcDbVertex
100
AcDb2dVertex
 10
309.617508
 20
208.728978
 30
0.0
  0
VERTEX
  5
11EC
330
11E1
100
AcDbEntity
  8
SCHRAFFUR_RAND
100
AcDbVertex
100
AcDb2dVertex
 10
309.846508
 20
210.061978
 30
0.0
  0
VERTEX
  5
11ED
330
11E1
100
AcDbEntity
  8
SCHRAFFUR_RAND
100
AcDbVertex
100
AcDb2dVertex
 10
309.846508
 20
214.404978
 30
0.0
  0
VERTEX
  5
11EE
330
11E1
100
AcDbEntity
  8
SCHRAFFUR_RAND
100
AcDbVertex
100
AcDb2dVertex
 10
309.588508
 20
215.819978
 30
0.0
  0
VERTEX
  5
11EF
330
11E1
100
AcDbEntity
  8
SCHRAFFUR_RAND
100
AcDbVertex
100
AcDb2dVertex
 10
308.846508
 20
217.050978
 30
0.0
  0
VERTEX
  5
11F0
330
11E1
100
AcDbEntity
  8
SCHRAFFUR_RAND
100
AcDbVertex
100
AcDb2dVertex
 10
308.104508
 20
218.282978
 30
0.0
  0
VERTEX
  5
11F1
330
11E1
100
AcDbEntity
  8
SCHRAFFUR_RAND
100
AcDbVertex
100
AcDb2dVertex
 10
307.846508
 20
219.696978
 30
0.0
  0
VERTEX
  5
11F2
330
11E1
100
AcDbEntity
  8
SCHRAFFUR_RAND
100
AcDbVertex
100
AcDb2dVertex
 10
307.846508
 20
221.404978
 30
0.0
  0
VERTEX
  5
11F3
330
11E1
100
AcDbEntity
  8
SCHRAFFUR_RAND
100
AcDbVertex
100
AcDb2dVertex
 10
308.183508
 20
222.942978
 30
0.0
  0
VERTEX
  5
11F4
330
11E1
100
AcDbEntity
  8
SCHRAFFUR_RAND
100
AcDbVertex
100
AcDb2dVertex
 10
309.308508
 20
224.068978
 30
0.0
  0
VERTEX
  5
11F5
330
11E1
100
AcDbEntity
  8
SCHRAFFUR_RAND
100
AcDbVertex
100
AcDb2dVertex
 10
310.846508
 20
224.404978
 30
0.0
  0
VERTEX
  5
11F6
330
11E1
100
AcDbEntity
  8
SCHRAFFUR_RAND
100
AcDbVertex
100
AcDb2dVertex
 10
311.846508
 20
224.404978
 30
0.0
  0
VERTEX
  5
11F7
330
11E1
100
AcDbEntity
  8
SCHRAFFUR_RAND
100
AcDbVertex
100
AcDb2dVertex
 10
312.634508
 20
224.540978
 30
0.0
  0
VERTEX
  5
11F8
330
11E1
100
AcDbEntity
  8
SCHRAFFUR_RAND
100
AcDbVertex
100
AcDb2dVertex
 10
313.210508
 20
225.117978
 30
0.0
  0
VERTEX
  5
11F9
330
11E1
100
AcDbEntity
  8
SCHRAFFUR_RAND
100
AcDbVertex
100
AcDb2dVertex
 10
313.3465080000001
 20
225.904978
 30
0.0
  0
VERTEX
  5
11FA
330
11E1
100
AcDbEntity
  8
SCHRAFFUR_RAND
100
AcDbVertex
100
AcDb2dVertex
 10
313.210508
 20
226.692978
 30
0.0
  0
VERTEX
  5
11FB
330
11E1
100
AcDbEntity
  8
SCHRAFFUR_RAND
100
AcDbVertex
100
AcDb2dVertex
 10
312.634508
 20
227.269978
 30
0.0
  0
VERTEX
  5
11FC
330
11E1
100
AcDbEntity
  8
SCHRAFFUR_RAND
100
AcDbVertex
100
AcDb2dVertex
 10
311.846508
 20
227.404978
 30
0.0
  0
VERTEX
  5
11FD
330
11E1
100
AcDbEntity
  8
SCHRAFFUR_RAND
100
AcDbVertex
100
AcDb2dVertex
 10
310.846508
 20
227.404978
 30
0.0
  0
VERTEX
  5
11FE
330
11E1
100
AcDbEntity
  8
SCHRAFFUR_RAND
100
AcDbVertex
100
AcDb2dVertex
 10
309.308508
 20
227.741978
 30
0.0
  0
VERTEX
  5
11FF
330
11E1
100
AcDbEntity
  8
SCHRAFFUR_RAND
100
AcDbVertex
100
AcDb2dVertex
 10
308.183508
 20
228.867978
 30
0.0
  0
VERTEX
  5
1200
330
11E1
100
AcDbEntity
  8
SCHRAFFUR_RAND
100
AcDbVertex
100
AcDb2dVertex
 10
307.846508
 20
230.404978
 30
0.0
  0
VERTEX
  5
1201
330
11E1
100
AcDbEntity
  8
SCHRAFFUR_RAND
100
AcDbVertex
100
AcDb2dVertex
 10
308.081508
 20
231.964978
 30
0.0
  0
VERTEX
  5
1202
330
11E1
100
AcDbEntity
  8
SCHRAFFUR_RAND
100
AcDbVertex
100
AcDb2dVertex
 10
308.964508
 20
233.286978
 30
0.0
  0
VERTEX
  5
1203
330
11E1
100
AcDbEntity
  8
SCHRAFFUR_RAND
100
AcDbVertex
100
AcDb2dVertex
 10
310.286508
 20
234.169978
 30
0.0
  0
VERTEX
  5
1204
330
11E1
100
AcDbEntity
  8
SCHRAFFUR_RAND
100
AcDbVertex
100
AcDb2dVertex
 10
311.846508
 20
234.404978
 30
0.0
  0
VERTEX
  5
1205
330
11E1
100
AcDbEntity
  8
SCHRAFFUR_RAND
100
AcDbVertex
100
AcDb2dVertex
 10
325.042508
 20
234.404978
 30
0.0
  0
VERTEX
  5
1206
330
11E1
100
AcDbEntity
  8
SCHRAFFUR_RAND
100
AcDbVertex
100
AcDb2dVertex
 10
325.8465080000001
 20
237.4049779999999
 30
0.0
  0
VERTEX
  5
1207
330
11E1
100
AcDbEntity
  8
SCHRAFFUR_RAND
100
AcDbVertex
100
AcDb2dVertex
 10
313.846508
 20
237.4049779999999
 30
0.0
  0
VERTEX
  5
1208
330
11E1
100
AcDbEntity
  8
SCHRAFFUR_RAND
100
AcDbVertex
100
AcDb2dVertex
 10
313.846508
 20
239.404978
 30
0.0
  0
VERTEX
  5
1209
330
11E1
100
AcDbEntity
  8
SCHRAFFUR_RAND
100
AcDbVertex
100
AcDb2dVertex
 10
308.9545080000001
 20
239.811978
 30
0.0
  0
VERTEX
  5
120A
330
11E1
100
AcDbEntity
  8
SCHRAFFUR_RAND
100
AcDbVertex
100
AcDb2dVertex
 10
304.250508
 20
241.238978
 30
0.0
  0
VERTEX
  5
120B
330
11E1
100
AcDbEntity
  8
SCHRAFFUR_RAND
100
AcDbVertex
100
AcDb2dVertex
 10
299.915508
 20
243.555978
 30
0.0
  0
VERTEX
  5
120C
330
11E1
100
AcDbEntity
  8
SCHRAFFUR_RAND
100
AcDbVertex
100
AcDb2dVertex
 10
296.1155080000001
 20
246.673978
 30
0.0
  0
VERTEX
  5
120D
330
11E1
100
AcDbEntity
  8
SCHRAFFUR_RAND
100
AcDbVertex
100
AcDb2dVertex
 10
292.997508
 20
250.473978
 30
0.0
  0
VERTEX
  5
120E
330
11E1
100
AcDbEntity
  8
SCHRAFFUR_RAND
100
AcDbVertex
100
AcDb2dVertex
 10
290.679508
 20
254.808978
 30
0.0
  0
VERTEX
  5
120F
330
11E1
100
AcDbEntity
  8
SCHRAFFUR_RAND
100
AcDbVertex
100
AcDb2dVertex
 10
289.846508
 20
257.404978
 30
0.0
  0
VERTEX
  5
1210
330
11E1
100
AcDbEntity
  8
SCHRAFFUR_RAND
100
AcDbVertex
100
AcDb2dVertex
 10
289.252508
 20
259.512978
 30
0.0
  0
VERTEX
  5
1211
330
11E1
100
AcDbEntity
  8
SCHRAFFUR_RAND
100
AcDbVertex
100
AcDb2dVertex
 10
288.846508
 20
264.404978
 30
0.0
  0
VERTEX
  5
1212
330
11E1
100
AcDbEntity
  8
SCHRAFFUR_RAND
100
AcDbVertex
100
AcDb2dVertex
 10
288.846508
 20
317.404978
 30
0.0
  0
VERTEX
  5
1213
330
11E1
100
AcDbEntity
  8
SCHRAFFUR_RAND
100
AcDbVertex
100
AcDb2dVertex
 10
286.346508
 20
317.404978
 30
0.0
  0
VERTEX
  5
1214
330
11E1
100
AcDbEntity
  8
SCHRAFFUR_RAND
100
AcDbVertex
100
AcDb2dVertex
 10
286.346508
 20
264.848978
 30
0.0
  0
VERTEX
  5
1215
330
11E1
100
AcDbEntity
  8
SCHRAFFUR_RAND
100
AcDbVertex
100
AcDb2dVertex
 10
286.346508
 20
254.744978
 30
0.0
  0
VERTEX
  5
1216
330
11E1
100
AcDbEntity
  8
SCHRAFFUR_RAND
100
AcDbVertex
100
AcDb2dVertex
 10
288.099508
 20
254.744978
 30
0.0
  0
VERTEX
  5
1217
330
11E1
100
AcDbEntity
  8
SCHRAFFUR_RAND
100
AcDbVertex
100
AcDb2dVertex
 10
290.042508
 20
250.485978
 30
0.0
  0
VERTEX
  5
1218
330
11E1
100
AcDbEntity
  8
SCHRAFFUR_RAND
100
AcDbVertex
100
AcDb2dVertex
 10
292.743508
 20
246.654978
 30
0.0
  0
VERTEX
  5
1219
330
11E1
100
AcDbEntity
  8
SCHRAFFUR_RAND
100
AcDbVertex
100
AcDb2dVertex
 10
296.055508
 20
243.336978
 30
0.0
  0
VERTEX
  5
121A
330
11E1
100
AcDbEntity
  8
SCHRAFFUR_RAND
100
AcDbVertex
100
AcDb2dVertex
 10
299.919508
 20
240.692978
 30
0.0
  0
VERTEX
  5
121B
330
11E1
100
AcDbEntity
  8
SCHRAFFUR_RAND
100
AcDbVertex
100
AcDb2dVertex
 10
302.011508
 20
239.157978
 30
0.0
  0
VERTEX
  5
121C
330
11E1
100
AcDbEntity
  8
SCHRAFFUR_RAND
100
AcDbVertex
100
AcDb2dVertex
 10
303.591508
 20
237.078978
 30
0.0
  0
VERTEX
  5
121D
330
11E1
100
AcDbEntity
  8
SCHRAFFUR_RAND
100
AcDbVertex
100
AcDb2dVertex
 10
304.583508
 20
234.663978
 30
0.0
  0
VERTEX
  5
121E
330
11E1
100
AcDbEntity
  8
SCHRAFFUR_RAND
100
AcDbVertex
100
AcDb2dVertex
 10
304.846508
 20
232.074978
 30
0.0
  0
VERTEX
  5
121F
330
11E1
100
AcDbEntity
  8
SCHRAFFUR_RAND
100
AcDbVertex
100
AcDb2dVertex
 10
304.846508
 20
196.404978
 30
0.0
  0
SEQEND
  5
1220
330
11E1
100
AcDbEntity
  8
SCHRAFFUR_RAND
  0
INSERT
  5
1248
330
13E1
100
AcDbEntity
  8
8
100
AcDbBlockReference
  2
*X2
 10
-108.606492
 20
22.361978
 30
0.0
1001
ACAD
1000
HATCH
1002
{
1070
    19
1000
ANSI31,_I
1040
3.174999999999999
1040
0.0
1002
}
  0
POLYLINE
  5
1249
330
13E1
100
AcDbEntity
  8
SCHRAFFUR_RAND
100
AcDb2dPolyline
 66
     1
 10
0.0
 20
0.0
 30
0.0
 70
     1
  0
VERTEX
  5
124A
330
1249
100
AcDbEntity
  8
SCHRAFFUR_RAND
100
AcDbVertex
100
AcDb2dVertex
 10
315.726508
 20
220.465978
 30
0.0
  0
VERTEX
  5
124B
330
1249
100
AcDbEntity
  8
SCHRAFFUR_RAND
100
AcDbVertex
100
AcDb2dVertex
 10
315.609508
 20
221.489978
 30
0.0
  0
VERTEX
  5
124C
330
1249
100
AcDbEntity
  8
SCHRAFFUR_RAND
100
AcDbVertex
100
AcDb2dVertex
 10
315.213508
 20
222.444978
 30
0.0
  0
VERTEX
  5
124D
330
1249
100
AcDbEntity
  8
SCHRAFFUR_RAND
100
AcDbVertex
100
AcDb2dVertex
 10
314.584508
 20
223.264978
 30
0.0
  0
VERTEX
  5
124E
330
1249
100
AcDbEntity
  8
SCHRAFFUR_RAND
100
AcDbVertex
100
AcDb2dVertex
 10
313.765508
 20
223.893978
 30
0.0
  0
VERTEX
  5
124F
330
1249
100
AcDbEntity
  8
SCHRAFFUR_RAND
100
AcDbVertex
100
AcDb2dVertex
 10
312.810508
 20
224.288978
 30
0.0
  0
VERTEX
  5
1250
330
1249
100
AcDbEntity
  8
SCHRAFFUR_RAND
100
AcDbVertex
100
AcDb2dVertex
 10
311.846508
 20
224.404978
 30
0.0
  0
VERTEX
  5
1251
330
1249
100
AcDbEntity
  8
SCHRAFFUR_RAND
100
AcDbVertex
100
AcDb2dVertex
 10
311.786508
 20
224.423978
 30
0.0
  0
VERTEX
  5
1252
330
1249
100
AcDbEntity
  8
SCHRAFFUR_RAND
100
AcDbVertex
100
AcDb2dVertex
 10
310.761508
 20
224.288978
 30
0.0
  0
VERTEX
  5
1253
330
1249
100
AcDbEntity
  8
SCHRAFFUR_RAND
100
AcDbVertex
100
AcDb2dVertex
 10
309.807508
 20
223.893978
 30
0.0
  0
VERTEX
  5
1254
330
1249
100
AcDbEntity
  8
SCHRAFFUR_RAND
100
AcDbVertex
100
AcDb2dVertex
 10
308.987508
 20
223.264978
 30
0.0
  0
VERTEX
  5
1255
330
1249
100
AcDbEntity
  8
SCHRAFFUR_RAND
100
AcDbVertex
100
AcDb2dVertex
 10
308.358508
 20
222.444978
 30
0.0
  0
VERTEX
  5
1256
330
1249
100
AcDbEntity
  8
SCHRAFFUR_RAND
100
AcDbVertex
100
AcDb2dVertex
 10
307.963508
 20
221.489978
 30
0.0
  0
VERTEX
  5
1257
330
1249
100
AcDbEntity
  8
SCHRAFFUR_RAND
100
AcDbVertex
100
AcDb2dVertex
 10
307.828508
 20
220.465978
 30
0.0
  0
VERTEX
  5
1258
330
1249
100
AcDbEntity
  8
SCHRAFFUR_RAND
100
AcDbVertex
100
AcDb2dVertex
 10
307.963508
 20
219.440978
 30
0.0
  0
VERTEX
  5
1259
330
1249
100
AcDbEntity
  8
SCHRAFFUR_RAND
100
AcDbVertex
100
AcDb2dVertex
 10
308.358508
 20
218.486978
 30
0.0
  0
VERTEX
  5
125A
330
1249
100
AcDbEntity
  8
SCHRAFFUR_RAND
100
AcDbVertex
100
AcDb2dVertex
 10
308.987508
 20
217.666978
 30
0.0
  0
VERTEX
  5
125B
330
1249
100
AcDbEntity
  8
SCHRAFFUR_RAND
100
AcDbVertex
100
AcDb2dVertex
 10
309.807508
 20
217.037978
 30
0.0
  0
VERTEX
  5
125C
330
1249
100
AcDbEntity
  8
SCHRAFFUR_RAND
100
AcDbVertex
100
AcDb2dVertex
 10
310.761508
 20
216.642978
 30
0.0
  0
VERTEX
  5
125D
330
1249
100
AcDbEntity
  8
SCHRAFFUR_RAND
100
AcDbVertex
100
AcDb2dVertex
 10
311.786508
 20
216.507978
 30
0.0
  0
VERTEX
  5
125E
330
1249
100
AcDbEntity
  8
SCHRAFFUR_RAND
100
AcDbVertex
100
AcDb2dVertex
 10
312.810508
 20
216.642978
 30
0.0
  0
VERTEX
  5
125F
330
1249
100
AcDbEntity
  8
SCHRAFFUR_RAND
100
AcDbVertex
100
AcDb2dVertex
 10
313.765508
 20
217.037978
 30
0.0
  0
VERTEX
  5
1260
330
1249
100
AcDbEntity
  8
SCHRAFFUR_RAND
100
AcDbVertex
100
AcDb2dVertex
 10
314.584508
 20
217.666978
 30
0.0
  0
VERTEX
  5
1261
330
1249
100
AcDbEntity
  8
SCHRAFFUR_RAND
100
AcDbVertex
100
AcDb2dVertex
 10
315.213508
 20
218.486978
 30
0.0
  0
VERTEX
  5
1262
330
1249
100
AcDbEntity
  8
SCHRAFFUR_RAND
100
AcDbVertex
100
AcDb2dVertex
 10
315.609508
 20
219.440978
 30
0.0
  0
VERTEX
  5
1263
330
1249
100
AcDbEntity
  8
SCHRAFFUR_RAND
100
AcDbVertex
100
AcDb2dVertex
 10
315.726508
 20
220.465978
 30
0.0
  0
SEQEND
  5
1264
330
1249
100
AcDbEntity
  8
SCHRAFFUR_RAND
  0
INSERT
  5
126B
330
13E1
100
AcDbEntity
  8
8
100
AcDbBlockReference
  2
*X3
 10
-108.606492
 20
22.361978
 30
0.0
1001
ACAD
1000
HATCH
1002
{
1070
    19
1000
ANSI37,_I
1040
3.174999999999999
1040
3.926999999999999
1002
}
  0
POLYLINE
  5
126C
330
13E1
100
AcDbEntity
  8
SCHRAFFUR_RAND
100
AcDb2dPolyline
 66
     1
 10
0.0
 20
0.0
 30
0.0
 70
     1
  0
VERTEX
  5
126D
330
126C
100
AcDbEntity
  8
SCHRAFFUR_RAND
100
AcDbVertex
100
AcDb2dVertex
 10
213.948508
 20
220.464978
 30
0.0
  0
VERTEX
  5
126E
330
126C
100
AcDbEntity
  8
SCHRAFFUR_RAND
100
AcDbVertex
100
AcDb2dVertex
 10
214.083508
 20
219.440978
 30
0.0
  0
VERTEX
  5
126F
330
126C
100
AcDbEntity
  8
SCHRAFFUR_RAND
100
AcDbVertex
100
AcDb2dVertex
 10
214.478508
 20
218.485978
 30
0.0
  0
VERTEX
  5
1270
330
126C
100
AcDbEntity
  8
SCHRAFFUR_RAND
100
AcDbVertex
100
AcDb2dVertex
 10
215.107508
 20
217.666978
 30
0.0
  0
VERTEX
  5
1271
330
126C
100
AcDbEntity
  8
SCHRAFFUR_RAND
100
AcDbVertex
100
AcDb2dVertex
 10
215.927508
 20
217.037978
 30
0.0
  0
VERTEX
  5
1272
330
126C
100
AcDbEntity
  8
SCHRAFFUR_RAND
100
AcDbVertex
100
AcDb2dVertex
 10
216.882508
 20
216.641978
 30
0.0
  0
VERTEX
  5
1273
330
126C
100
AcDbEntity
  8
SCHRAFFUR_RAND
100
AcDbVertex
100
AcDb2dVertex
 10
217.906508
 20
216.506978
 30
0.0
  0
VERTEX
  5
1274
330
126C
100
AcDbEntity
  8
SCHRAFFUR_RAND
100
AcDbVertex
100
AcDb2dVertex
 10
218.930508
 20
216.641978
 30
0.0
  0
VERTEX
  5
1275
330
126C
100
AcDbEntity
  8
SCHRAFFUR_RAND
100
AcDbVertex
100
AcDb2dVertex
 10
219.885508
 20
217.037978
 30
0.0
  0
VERTEX
  5
1276
330
126C
100
AcDbEntity
  8
SCHRAFFUR_RAND
100
AcDbVertex
100
AcDb2dVertex
 10
220.705508
 20
217.666978
 30
0.0
  0
VERTEX
  5
1277
330
126C
100
AcDbEntity
  8
SCHRAFFUR_RAND
100
AcDbVertex
100
AcDb2dVertex
 10
221.334508
 20
218.485978
 30
0.0
  0
VERTEX
  5
1278
330
126C
100
AcDbEntity
  8
SCHRAFFUR_RAND
100
AcDbVertex
100
AcDb2dVertex
 10
221.729508
 20
219.440978
 30
0.0
  0
VERTEX
  5
1279
330
126C
100
AcDbEntity
  8
SCHRAFFUR_RAND
100
AcDbVertex
100
AcDb2dVertex
 10
221.846508
 20
220.464978
 30
0.0
  0
VERTEX
  5
127A
330
126C
100
AcDbEntity
  8
SCHRAFFUR_RAND
100
AcDbVertex
100
AcDb2dVertex
 10
221.729508
 20
221.489978
 30
0.0
  0
VERTEX
  5
127B
330
126C
100
AcDbEntity
  8
SCHRAFFUR_RAND
100
AcDbVertex
100
AcDb2dVertex
 10
221.334508
 20
222.443978
 30
0.0
  0
VERTEX
  5
127C
330
126C
100
AcDbEntity
  8
SCHRAFFUR_RAND
100
AcDbVertex
100
AcDb2dVertex
 10
220.705508
 20
223.263978
 30
0.0
  0
VERTEX
  5
127D
330
126C
100
AcDbEntity
  8
SCHRAFFUR_RAND
100
AcDbVertex
100
AcDb2dVertex
 10
219.885508
 20
223.892978
 30
0.0
  0
VERTEX
  5
127E
330
126C
100
AcDbEntity
  8
SCHRAFFUR_RAND
100
AcDbVertex
100
AcDb2dVertex
 10
218.930508
 20
224.288978
 30
0.0
  0
VERTEX
  5
127F
330
126C
100
AcDbEntity
  8
SCHRAFFUR_RAND
100
AcDbVertex
100
AcDb2dVertex
 10
217.906508
 20
224.422978
 30
0.0
  0
VERTEX
  5
1280
330
126C
100
AcDbEntity
  8
SCHRAFFUR_RAND
100
AcDbVertex
100
AcDb2dVertex
 10
217.846508
 20
224.404978
 30
0.0
  0
VERTEX
  5
1281
330
126C
100
AcDbEntity
  8
SCHRAFFUR_RAND
100
AcDbVertex
100
AcDb2dVertex
 10
216.882508
 20
224.288978
 30
0.0
  0
VERTEX
  5
1282
330
126C
100
AcDbEntity
  8
SCHRAFFUR_RAND
100
AcDbVertex
100
AcDb2dVertex
 10
215.927508
 20
223.892978
 30
0.0
  0
VERTEX
  5
1283
330
126C
100
AcDbEntity
  8
SCHRAFFUR_RAND
100
AcDbVertex
100
AcDb2dVertex
 10
215.107508
 20
223.263978
 30
0.0
  0
VERTEX
  5
1284
330
126C
100
AcDbEntity
  8
SCHRAFFUR_RAND
100
AcDbVertex
100
AcDb2dVertex
 10
214.478508
 20
222.443978
 30
0.0
  0
VERTEX
  5
1285
330
126C
100
AcDbEntity
  8
SCHRAFFUR_RAND
100
AcDbVertex
100
AcDb2dVertex
 10
214.083508
 20
221.489978
 30
0.0
  0
VERTEX
  5
1286
330
126C
100
AcDbEntity
  8
SCHRAFFUR_RAND
100
AcDbVertex
100
AcDb2dVertex
 10
213.948508
 20
220.464978
 30
0.0
  0
SEQEND
  5
1287
330
126C
100
AcDbEntity
  8
SCHRAFFUR_RAND
  0
INSERT
  5
128E
330
13E1
100
AcDbEntity
  8
8
100
AcDbBlockReference
  2
*X4
 10
-108.606492
 20
22.361978
 30
0.0
1001
ACAD
1000
HATCH
1002
{
1070
    19
1000
ANSI37,_I
1040
3.174999999999999
1040
3.926999999999999
1002
}
  0
POLYLINE
  5
128F
330
13E1
100
AcDbEntity
  8
SCHRAFFUR_RAND
100
AcDb2dPolyline
 66
     1
 10
0.0
 20
0.0
 30
0.0
 70
     1
  0
VERTEX
  5
1290
330
128F
100
AcDbEntity
  8
SCHRAFFUR_RAND
100
AcDbVertex
100
AcDb2dVertex
 10
202.346508
 20
239.404978
 30
0.0
  0
VERTEX
  5
1291
330
128F
100
AcDbEntity
  8
SCHRAFFUR_RAND
100
AcDbVertex
100
AcDb2dVertex
 10
192.892508
 20
239.404978
 30
0.0
  0
VERTEX
  5
1292
330
128F
100
AcDbEntity
  8
SCHRAFFUR_RAND
100
AcDbVertex
100
AcDb2dVertex
 10
186.406508
 20
239.975978
 30
0.0
  0
VERTEX
  5
1293
330
128F
100
AcDbEntity
  8
SCHRAFFUR_RAND
100
AcDbVertex
100
AcDb2dVertex
 10
180.224508
 20
242.060978
 30
0.0
  0
VERTEX
  5
1294
330
128F
100
AcDbEntity
  8
SCHRAFFUR_RAND
100
AcDbVertex
100
AcDb2dVertex
 10
174.636508
 20
245.427978
 30
0.0
  0
VERTEX
  5
1295
330
128F
100
AcDbEntity
  8
SCHRAFFUR_RAND
100
AcDbVertex
100
AcDb2dVertex
 10
169.903508
 20
249.918978
 30
0.0
  0
VERTEX
  5
1296
330
128F
100
AcDbEntity
  8
SCHRAFFUR_RAND
100
AcDbVertex
100
AcDb2dVertex
 10
166.248508
 20
255.323978
 30
0.0
  0
VERTEX
  5
1297
330
128F
100
AcDbEntity
  8
SCHRAFFUR_RAND
100
AcDbVertex
100
AcDb2dVertex
 10
163.842508
 20
261.387978
 30
0.0
  0
VERTEX
  5
1298
330
128F
100
AcDbEntity
  8
SCHRAFFUR_RAND
100
AcDbVertex
100
AcDb2dVertex
 10
162.932508
 20
267.834978
 30
0.0
  0
VERTEX
  5
1299
330
128F
100
AcDbEntity
  8
SCHRAFFUR_RAND
100
AcDbVertex
100
AcDb2dVertex
 10
157.609508
 20
369.404978
 30
0.0
  0
VERTEX
  5
129A
330
128F
100
AcDbEntity
  8
SCHRAFFUR_RAND
100
AcDbVertex
100
AcDb2dVertex
 10
150.583508
 20
369.404978
 30
0.0
  0
VERTEX
  5
129B
330
128F
100
AcDbEntity
  8
SCHRAFFUR_RAND
100
AcDbVertex
100
AcDb2dVertex
 10
54.06250799999999
 20
369.404978
 30
0.0
  0
VERTEX
  5
129C
330
128F
100
AcDbEntity
  8
SCHRAFFUR_RAND
100
AcDbVertex
100
AcDb2dVertex
 10
52.057508
 20
369.021978
 30
0.0
  0
VERTEX
  5
129D
330
128F
100
AcDbEntity
  8
SCHRAFFUR_RAND
100
AcDbVertex
100
AcDb2dVertex
 10
50.555508
 20
367.596978
 30
0.0
  0
VERTEX
  5
129E
330
128F
100
AcDbEntity
  8
SCHRAFFUR_RAND
100
AcDbVertex
100
AcDb2dVertex
 10
50.066508
 20
365.614978
 30
0.0
  0
VERTEX
  5
129F
330
128F
100
AcDbEntity
  8
SCHRAFFUR_RAND
100
AcDbVertex
100
AcDb2dVertex
 10
49.845508
 20
361.404978
 30
0.0
  0
VERTEX
  5
12A0
330
128F
100
AcDbEntity
  8
SCHRAFFUR_RAND
100
AcDbVertex
100
AcDb2dVertex
 10
85.837508
 20
361.404978
 30
0.0
  0
VERTEX
  5
12A1
330
128F
100
AcDbEntity
  8
SCHRAFFUR_RAND
100
AcDbVertex
100
AcDb2dVertex
 10
86.076508
 20
362.129978
 30
0.0
  0
VERTEX
  5
12A2
330
128F
100
AcDbEntity
  8
SCHRAFFUR_RAND
100
AcDbVertex
100
AcDb2dVertex
 10
86.522508
 20
362.748978
 30
0.0
  0
VERTEX
  5
12A3
330
128F
100
AcDbEntity
  8
SCHRAFFUR_RAND
100
AcDbVertex
100
AcDb2dVertex
 10
87.20750799999999
 20
363.202978
 30
0.0
  0
VERTEX
  5
12A4
330
128F
100
AcDbEntity
  8
SCHRAFFUR_RAND
100
AcDbVertex
100
AcDb2dVertex
 10
88.016508
 20
363.343978
 30
0.0
  0
VERTEX
  5
12A5
330
128F
100
AcDbEntity
  8
SCHRAFFUR_RAND
100
AcDbVertex
100
AcDb2dVertex
 10
102.111508
 20
362.851978
 30
0.0
  0
VERTEX
  5
12A6
330
128F
100
AcDbEntity
  8
SCHRAFFUR_RAND
100
AcDbVertex
100
AcDb2dVertex
 10
103.913508
 20
362.505978
 30
0.0
  0
VERTEX
  5
12A7
330
128F
100
AcDbEntity
  8
SCHRAFFUR_RAND
100
AcDbVertex
100
AcDb2dVertex
 10
105.052508
 20
361.404978
 30
0.0
  0
VERTEX
  5
12A8
330
128F
100
AcDbEntity
  8
SCHRAFFUR_RAND
100
AcDbVertex
100
AcDb2dVertex
 10
105.911508
 20
359.548978
 30
0.0
  0
VERTEX
  5
12A9
330
128F
100
AcDbEntity
  8
SCHRAFFUR_RAND
100
AcDbVertex
100
AcDb2dVertex
 10
107.951508
 20
347.983978
 30
0.0
  0
VERTEX
  5
12AA
330
128F
100
AcDbEntity
  8
SCHRAFFUR_RAND
100
AcDbVertex
100
AcDb2dVertex
 10
109.975508
 20
344.448978
 30
0.0
  0
VERTEX
  5
12AB
330
128F
100
AcDbEntity
  8
SCHRAFFUR_RAND
100
AcDbVertex
100
AcDb2dVertex
 10
113.333508
 20
342.097978
 30
0.0
  0
VERTEX
  5
12AC
330
128F
100
AcDbEntity
  8
SCHRAFFUR_RAND
100
AcDbVertex
100
AcDb2dVertex
 10
117.348508
 20
341.268978
 30
0.0
  0
VERTEX
  5
12AD
330
128F
100
AcDbEntity
  8
SCHRAFFUR_RAND
100
AcDbVertex
100
AcDb2dVertex
 10
121.362508
 20
342.097978
 30
0.0
  0
VERTEX
  5
12AE
330
128F
100
AcDbEntity
  8
SCHRAFFUR_RAND
100
AcDbVertex
100
AcDb2dVertex
 10
124.720508
 20
344.449978
 30
0.0
  0
VERTEX
  5
12AF
330
128F
100
AcDbEntity
  8
SCHRAFFUR_RAND
100
AcDbVertex
100
AcDb2dVertex
 10
126.744508
 20
347.9849779999999
 30
0.0
  0
VERTEX
  5
12B0
330
128F
100
AcDbEntity
  8
SCHRAFFUR_RAND
100
AcDbVertex
100
AcDb2dVertex
 10
128.594508
 20
358.480978
 30
0.0
  0
VERTEX
  5
12B1
330
128F
100
AcDbEntity
  8
SCHRAFFUR_RAND
100
AcDbVertex
100
AcDb2dVertex
 10
129.246508
 20
360.2949779999999
 30
0.0
  0
VERTEX
  5
12B2
330
128F
100
AcDbEntity
  8
SCHRAFFUR_RAND
100
AcDbVertex
100
AcDb2dVertex
 10
130.764508
 20
361.524978
 30
0.0
  0
VERTEX
  5
12B3
330
128F
100
AcDbEntity
  8
SCHRAFFUR_RAND
100
AcDbVertex
100
AcDb2dVertex
 10
132.673508
 20
361.783978
 30
0.0
  0
VERTEX
  5
12B4
330
128F
100
AcDbEntity
  8
SCHRAFFUR_RAND
100
AcDbVertex
100
AcDb2dVertex
 10
143.530508
 20
361.404978
 30
0.0
  0
VERTEX
  5
12B5
330
128F
100
AcDbEntity
  8
SCHRAFFUR_RAND
100
AcDbVertex
100
AcDb2dVertex
 10
147.287508
 20
360.818978
 30
0.0
  0
VERTEX
  5
12B6
330
128F
100
AcDbEntity
  8
SCHRAFFUR_RAND
100
AcDbVertex
100
AcDb2dVertex
 10
150.508508
 20
358.756978
 30
0.0
  0
VERTEX
  5
12B7
330
128F
100
AcDbEntity
  8
SCHRAFFUR_RAND
100
AcDbVertex
100
AcDb2dVertex
 10
152.736508
 20
355.648978
 30
0.0
  0
VERTEX
  5
12B8
330
128F
100
AcDbEntity
  8
SCHRAFFUR_RAND
100
AcDbVertex
100
AcDb2dVertex
 10
153.518508
 20
351.928978
 30
0.0
  0
VERTEX
  5
12B9
330
128F
100
AcDbEntity
  8
SCHRAFFUR_RAND
100
AcDbVertex
100
AcDb2dVertex
 10
157.939508
 20
267.572978
 30
0.0
  0
VERTEX
  5
12BA
330
128F
100
AcDbEntity
  8
SCHRAFFUR_RAND
100
AcDbVertex
100
AcDb2dVertex
 10
159.025508
 20
260.046978
 30
0.0
  0
VERTEX
  5
12BB
330
128F
100
AcDbEntity
  8
SCHRAFFUR_RAND
100
AcDbVertex
100
AcDb2dVertex
 10
161.838508
 20
252.967978
 30
0.0
  0
VERTEX
  5
12BC
330
128F
100
AcDbEntity
  8
SCHRAFFUR_RAND
100
AcDbVertex
100
AcDb2dVertex
 10
166.110508
 20
246.661978
 30
0.0
  0
VERTEX
  5
12BD
330
128F
100
AcDbEntity
  8
SCHRAFFUR_RAND
100
AcDbVertex
100
AcDb2dVertex
 10
171.641508
 20
241.423978
 30
0.0
  0
VERTEX
  5
12BE
330
128F
100
AcDbEntity
  8
SCHRAFFUR_RAND
100
AcDbVertex
100
AcDb2dVertex
 10
178.171508
 20
237.501978
 30
0.0
  0
VERTEX
  5
12BF
330
128F
100
AcDbEntity
  8
SCHRAFFUR_RAND
100
AcDbVertex
100
AcDb2dVertex
 10
185.393508
 20
235.078978
 30
0.0
  0
VERTEX
  5
12C0
330
128F
100
AcDbEntity
  8
SCHRAFFUR_RAND
100
AcDbVertex
100
AcDb2dVertex
 10
192.967508
 20
234.404978
 30
0.0
  0
VERTEX
  5
12C1
330
128F
100
AcDbEntity
  8
SCHRAFFUR_RAND
100
AcDbVertex
100
AcDb2dVertex
 10
197.907508
 20
233.776978
 30
0.0
  0
VERTEX
  5
12C2
330
128F
100
AcDbEntity
  8
SCHRAFFUR_RAND
100
AcDbVertex
100
AcDb2dVertex
 10
202.377508
 20
231.536978
 30
0.0
  0
VERTEX
  5
12C3
330
128F
100
AcDbEntity
  8
SCHRAFFUR_RAND
100
AcDbVertex
100
AcDb2dVertex
 10
205.946508
 20
228.036978
 30
0.0
  0
VERTEX
  5
12C4
330
128F
100
AcDbEntity
  8
SCHRAFFUR_RAND
100
AcDbVertex
100
AcDb2dVertex
 10
208.273508
 20
223.611978
 30
0.0
  0
VERTEX
  5
12C5
330
128F
100
AcDbEntity
  8
SCHRAFFUR_RAND
100
AcDbVertex
100
AcDb2dVertex
 10
208.996508
 20
218.684978
 30
0.0
  0
VERTEX
  5
12C6
330
128F
100
AcDbEntity
  8
SCHRAFFUR_RAND
100
AcDbVertex
100
AcDb2dVertex
 10
210.120508
 20
149.404978
 30
0.0
  0
VERTEX
  5
12C7
330
128F
100
AcDbEntity
  8
SCHRAFFUR_RAND
100
AcDbVertex
100
AcDb2dVertex
 10
215.845508
 20
149.417978
 30
0.0
  0
VERTEX
  5
12C8
330
128F
100
AcDbEntity
  8
SCHRAFFUR_RAND
100
AcDbVertex
100
AcDb2dVertex
 10
215.496508
 20
174.404978
 30
0.0
  0
VERTEX
  5
12C9
330
128F
100
AcDbEntity
  8
SCHRAFFUR_RAND
100
AcDbVertex
100
AcDb2dVertex
 10
214.682508
 20
179.404978
 30
0.0
  0
VERTEX
  5
12CA
330
128F
100
AcDbEntity
  8
SCHRAFFUR_RAND
100
AcDbVertex
100
AcDb2dVertex
 10
214.076508
 20
219.070978
 30
0.0
  0
VERTEX
  5
12CB
330
128F
100
AcDbEntity
  8
SCHRAFFUR_RAND
100
AcDbVertex
100
AcDb2dVertex
 10
214.076508
 20
221.858978
 30
0.0
  0
VERTEX
  5
12CC
330
128F
100
AcDbEntity
  8
SCHRAFFUR_RAND
100
AcDbVertex
100
AcDb2dVertex
 10
213.775508
 20
231.404978
 30
0.0
  0
VERTEX
  5
12CD
330
128F
100
AcDbEntity
  8
SCHRAFFUR_RAND
100
AcDbVertex
100
AcDb2dVertex
 10
212.684508
 20
234.404978
 30
0.0
  0
VERTEX
  5
12CE
330
128F
100
AcDbEntity
  8
SCHRAFFUR_RAND
100
AcDbVertex
100
AcDb2dVertex
 10
204.650508
 20
234.404978
 30
0.0
  0
VERTEX
  5
12CF
330
128F
100
AcDbEntity
  8
SCHRAFFUR_RAND
100
AcDbVertex
100
AcDb2dVertex
 10
203.686508
 20
234.404978
 30
0.0
  0
VERTEX
  5
12D0
330
128F
100
AcDbEntity
  8
SCHRAFFUR_RAND
100
AcDbVertex
100
AcDb2dVertex
 10
202.346508
 20
239.404978
 30
0.0
  0
SEQEND
  5
12D1
330
128F
100
AcDbEntity
  8
SCHRAFFUR_RAND
  0
INSERT
  5
12F9
330
13E1
100
AcDbEntity
  8
8
100
AcDbBlockReference
  2
*X5
 10
-108.606492
 20
22.361978
 30
0.0
1001
ACAD
1000
HATCH
1002
{
1070
    19
1000
ANSI31,_I
1040
6.349999999999999
1040
-0.7850000000000001
1002
}
  0
POLYLINE
  5
12FA
330
13E1
100
AcDbEntity
  8
SCHRAFFUR_RAND
100
AcDb2dPolyline
 66
     1
 10
0.0
 20
0.0
 30
0.0
 70
     1
  0
VERTEX
  5
12FB
330
12FA
100
AcDbEntity
  8
SCHRAFFUR_RAND
100
AcDbVertex
100
AcDb2dVertex
 10
372.084508
 20
369.404978
 30
0.0
  0
VERTEX
  5
12FC
330
12FA
100
AcDbEntity
  8
SCHRAFFUR_RAND
100
AcDbVertex
100
AcDb2dVertex
 10
366.761508
 20
267.834978
 30
0.0
  0
VERTEX
  5
12FD
330
12FA
100
AcDbEntity
  8
SCHRAFFUR_RAND
100
AcDbVertex
100
AcDb2dVertex
 10
365.125508
 20
258.8719779999999
 30
0.0
  0
VERTEX
  5
12FE
330
12FA
100
AcDbEntity
  8
SCHRAFFUR_RAND
100
AcDbVertex
100
AcDb2dVertex
 10
360.679508
 20
250.883978
 30
0.0
  0
VERTEX
  5
12FF
330
12FA
100
AcDbEntity
  8
SCHRAFFUR_RAND
100
AcDbVertex
100
AcDb2dVertex
 10
354.048508
 20
244.590978
 30
0.0
  0
VERTEX
  5
1300
330
12FA
100
AcDbEntity
  8
SCHRAFFUR_RAND
100
AcDbVertex
100
AcDb2dVertex
 10
345.838508
 20
240.568978
 30
0.0
  0
VERTEX
  5
1301
330
12FA
100
AcDbEntity
  8
SCHRAFFUR_RAND
100
AcDbVertex
100
AcDb2dVertex
 10
336.802508
 20
239.404978
 30
0.0
  0
VERTEX
  5
1302
330
12FA
100
AcDbEntity
  8
SCHRAFFUR_RAND
100
AcDbVertex
100
AcDb2dVertex
 10
327.346508
 20
239.404978
 30
0.0
  0
VERTEX
  5
1303
330
12FA
100
AcDbEntity
  8
SCHRAFFUR_RAND
100
AcDbVertex
100
AcDb2dVertex
 10
326.006508
 20
234.404978
 30
0.0
  0
VERTEX
  5
1304
330
12FA
100
AcDbEntity
  8
SCHRAFFUR_RAND
100
AcDbVertex
100
AcDb2dVertex
 10
325.042508
 20
234.404978
 30
0.0
  0
VERTEX
  5
1305
330
12FA
100
AcDbEntity
  8
SCHRAFFUR_RAND
100
AcDbVertex
100
AcDb2dVertex
 10
317.008508
 20
234.404978
 30
0.0
  0
VERTEX
  5
1306
330
12FA
100
AcDbEntity
  8
SCHRAFFUR_RAND
100
AcDbVertex
100
AcDb2dVertex
 10
315.917508
 20
231.404978
 30
0.0
  0
VERTEX
  5
1307
330
12FA
100
AcDbEntity
  8
SCHRAFFUR_RAND
100
AcDbVertex
100
AcDb2dVertex
 10
315.726508
 20
220.465978
 30
0.0
  0
VERTEX
  5
1308
330
12FA
100
AcDbEntity
  8
SCHRAFFUR_RAND
100
AcDbVertex
100
AcDb2dVertex
 10
315.009508
 20
179.404978
 30
0.0
  0
VERTEX
  5
1309
330
12FA
100
AcDbEntity
  8
SCHRAFFUR_RAND
100
AcDbVertex
100
AcDb2dVertex
 10
314.196508
 20
174.404978
 30
0.0
  0
VERTEX
  5
130A
330
12FA
100
AcDbEntity
  8
SCHRAFFUR_RAND
100
AcDbVertex
100
AcDb2dVertex
 10
313.847508
 20
149.417978
 30
0.0
  0
VERTEX
  5
130B
330
12FA
100
AcDbEntity
  8
SCHRAFFUR_RAND
100
AcDbVertex
100
AcDb2dVertex
 10
319.574508
 20
149.404978
 30
0.0
  0
VERTEX
  5
130C
330
12FA
100
AcDbEntity
  8
SCHRAFFUR_RAND
100
AcDbVertex
100
AcDb2dVertex
 10
320.696508
 20
218.683978
 30
0.0
  0
VERTEX
  5
130D
330
12FA
100
AcDbEntity
  8
SCHRAFFUR_RAND
100
AcDbVertex
100
AcDb2dVertex
 10
321.793508
 20
224.815978
 30
0.0
  0
VERTEX
  5
130E
330
12FA
100
AcDbEntity
  8
SCHRAFFUR_RAND
100
AcDbVertex
100
AcDb2dVertex
 10
325.336508
 20
229.985978
 30
0.0
  0
VERTEX
  5
130F
330
12FA
100
AcDbEntity
  8
SCHRAFFUR_RAND
100
AcDbVertex
100
AcDb2dVertex
 10
330.575508
 20
233.426978
 30
0.0
  0
VERTEX
  5
1310
330
12FA
100
AcDbEntity
  8
SCHRAFFUR_RAND
100
AcDbVertex
100
AcDb2dVertex
 10
336.727508
 20
234.404978
 30
0.0
  0
VERTEX
  5
1311
330
12FA
100
AcDbEntity
  8
SCHRAFFUR_RAND
100
AcDbVertex
100
AcDb2dVertex
 10
345.559508
 20
235.291978
 30
0.0
  0
VERTEX
  5
1312
330
12FA
100
AcDbEntity
  8
SCHRAFFUR_RAND
100
AcDbVertex
100
AcDb2dVertex
 10
353.832508
 20
238.577978
 30
0.0
  0
VERTEX
  5
1313
330
12FA
100
AcDbEntity
  8
SCHRAFFUR_RAND
100
AcDbVertex
100
AcDb2dVertex
 10
361.017508
 20
243.831978
 30
0.0
  0
VERTEX
  5
1314
330
12FA
100
AcDbEntity
  8
SCHRAFFUR_RAND
100
AcDbVertex
100
AcDb2dVertex
 10
366.656508
 20
250.720978
 30
0.0
  0
VERTEX
  5
1315
330
12FA
100
AcDbEntity
  8
SCHRAFFUR_RAND
100
AcDbVertex
100
AcDb2dVertex
 10
370.387508
 20
258.802978
 30
0.0
  0
VERTEX
  5
1316
330
12FA
100
AcDbEntity
  8
SCHRAFFUR_RAND
100
AcDbVertex
100
AcDb2dVertex
 10
371.754508
 20
267.572978
 30
0.0
  0
VERTEX
  5
1317
330
12FA
100
AcDbEntity
  8
SCHRAFFUR_RAND
100
AcDbVertex
100
AcDb2dVertex
 10
376.175508
 20
351.928978
 30
0.0
  0
VERTEX
  5
1318
330
12FA
100
AcDbEntity
  8
SCHRAFFUR_RAND
100
AcDbVertex
100
AcDb2dVertex
 10
376.880508
 20
355.682978
 30
0.0
  0
VERTEX
  5
1319
330
12FA
100
AcDbEntity
  8
SCHRAFFUR_RAND
100
AcDbVertex
100
AcDb2dVertex
 10
379.126508
 20
358.817978
 30
0.0
  0
VERTEX
  5
131A
330
12FA
100
AcDbEntity
  8
SCHRAFFUR_RAND
100
AcDbVertex
100
AcDb2dVertex
 10
382.374508
 20
360.896978
 30
0.0
  0
VERTEX
  5
131B
330
12FA
100
AcDbEntity
  8
SCHRAFFUR_RAND
100
AcDbVertex
100
AcDb2dVertex
 10
386.162508
 20
361.404978
 30
0.0
  0
VERTEX
  5
131C
330
12FA
100
AcDbEntity
  8
SCHRAFFUR_RAND
100
AcDbVertex
100
AcDb2dVertex
 10
397.019508
 20
361.783978
 30
0.0
  0
VERTEX
  5
131D
330
12FA
100
AcDbEntity
  8
SCHRAFFUR_RAND
100
AcDbVertex
100
AcDb2dVertex
 10
398.963508
 20
361.599978
 30
0.0
  0
VERTEX
  5
131E
330
12FA
100
AcDbEntity
  8
SCHRAFFUR_RAND
100
AcDbVertex
100
AcDb2dVertex
 10
400.513508
 20
360.344978
 30
0.0
  0
VERTEX
  5
131F
330
12FA
100
AcDbEntity
  8
SCHRAFFUR_RAND
100
AcDbVertex
100
AcDb2dVertex
 10
401.098508
 20
358.480978
 30
0.0
  0
VERTEX
  5
1320
330
12FA
100
AcDbEntity
  8
SCHRAFFUR_RAND
100
AcDbVertex
100
AcDb2dVertex
 10
402.949508
 20
347.9849779999999
 30
0.0
  0
VERTEX
  5
1321
330
12FA
100
AcDbEntity
  8
SCHRAFFUR_RAND
100
AcDbVertex
100
AcDb2dVertex
 10
405.5075079999999
 20
343.810978
 30
0.0
  0
VERTEX
  5
1322
330
12FA
100
AcDbEntity
  8
SCHRAFFUR_RAND
100
AcDbVertex
100
AcDb2dVertex
 10
409.8725079999999
 20
341.489978
 30
0.0
  0
VERTEX
  5
1323
330
12FA
100
AcDbEntity
  8
SCHRAFFUR_RAND
100
AcDbVertex
100
AcDb2dVertex
 10
414.816508
 20
341.489978
 30
0.0
  0
VERTEX
  5
1324
330
12FA
100
AcDbEntity
  8
SCHRAFFUR_RAND
100
AcDbVertex
100
AcDb2dVertex
 10
419.182508
 20
343.809978
 30
0.0
  0
VERTEX
  5
1325
330
12FA
100
AcDbEntity
  8
SCHRAFFUR_RAND
100
AcDbVertex
100
AcDb2dVertex
 10
421.741508
 20
347.983978
 30
0.0
  0
VERTEX
  5
1326
330
12FA
100
AcDbEntity
  8
SCHRAFFUR_RAND
100
AcDbVertex
100
AcDb2dVertex
 10
423.781508
 20
359.548978
 30
0.0
  0
VERTEX
  5
1327
330
12FA
100
AcDbEntity
  8
SCHRAFFUR_RAND
100
AcDbVertex
100
AcDb2dVertex
 10
424.640508
 20
361.404978
 30
0.0
  0
VERTEX
  5
1328
330
12FA
100
AcDbEntity
  8
SCHRAFFUR_RAND
100
AcDbVertex
100
AcDb2dVertex
 10
425.0975079999999
 20
361.872978
 30
0.0
  0
VERTEX
  5
1329
330
12FA
100
AcDbEntity
  8
SCHRAFFUR_RAND
100
AcDbVertex
100
AcDb2dVertex
 10
427.582508
 20
362.851978
 30
0.0
  0
VERTEX
  5
132A
330
12FA
100
AcDbEntity
  8
SCHRAFFUR_RAND
100
AcDbVertex
100
AcDb2dVertex
 10
441.676508
 20
363.343978
 30
0.0
  0
VERTEX
  5
132B
330
12FA
100
AcDbEntity
  8
SCHRAFFUR_RAND
100
AcDbVertex
100
AcDb2dVertex
 10
442.4855079999999
 20
363.202978
 30
0.0
  0
VERTEX
  5
132C
330
12FA
100
AcDbEntity
  8
SCHRAFFUR_RAND
100
AcDbVertex
100
AcDb2dVertex
 10
443.1705079999999
 20
362.748978
 30
0.0
  0
VERTEX
  5
132D
330
12FA
100
AcDbEntity
  8
SCHRAFFUR_RAND
100
AcDbVertex
100
AcDb2dVertex
 10
443.616508
 20
362.129978
 30
0.0
  0
VERTEX
  5
132E
330
12FA
100
AcDbEntity
  8
SCHRAFFUR_RAND
100
AcDbVertex
100
AcDb2dVertex
 10
443.8555079999999
 20
361.404978
 30
0.0
  0
VERTEX
  5
132F
330
12FA
100
AcDbEntity
  8
SCHRAFFUR_RAND
100
AcDbVertex
100
AcDb2dVertex
 10
479.845508
 20
361.404978
 30
0.0
  0
VERTEX
  5
1330
330
12FA
100
AcDbEntity
  8
SCHRAFFUR_RAND
100
AcDbVertex
100
AcDb2dVertex
 10
479.625508
 20
365.614978
 30
0.0
  0
VERTEX
  5
1331
330
12FA
100
AcDbEntity
  8
SCHRAFFUR_RAND
100
AcDbVertex
100
AcDb2dVertex
 10
479.2085079999999
 20
367.640978
 30
0.0
  0
VERTEX
  5
1332
330
12FA
100
AcDbEntity
  8
SCHRAFFUR_RAND
100
AcDbVertex
100
AcDb2dVertex
 10
477.675508
 20
369.094978
 30
0.0
  0
VERTEX
  5
1333
330
12FA
100
AcDbEntity
  8
SCHRAFFUR_RAND
100
AcDbVertex
100
AcDb2dVertex
 10
475.630508
 20
369.404978
 30
0.0
  0
VERTEX
  5
1334
330
12FA
100
AcDbEntity
  8
SCHRAFFUR_RAND
100
AcDbVertex
100
AcDb2dVertex
 10
417.344508
 20
369.400978
 30
0.0
  0
VERTEX
  5
1335
330
12FA
100
AcDbEntity
  8
SCHRAFFUR_RAND
100
AcDbVertex
100
AcDb2dVertex
 10
417.345508
 20
365.604978
 30
0.0
  0
VERTEX
  5
1336
330
12FA
100
AcDbEntity
  8
SCHRAFFUR_RAND
100
AcDbVertex
100
AcDb2dVertex
 10
417.345508
 20
359.403978
 30
0.0
  0
VERTEX
  5
1337
330
12FA
100
AcDbEntity
  8
SCHRAFFUR_RAND
100
AcDbVertex
100
AcDb2dVertex
 10
417.344508
 20
354.404978
 30
0.0
  0
VERTEX
  5
1338
330
12FA
100
AcDbEntity
  8
SCHRAFFUR_RAND
100
AcDbVertex
100
AcDb2dVertex
 10
416.344508
 20
354.404978
 30
0.0
  0
VERTEX
  5
1339
330
12FA
100
AcDbEntity
  8
SCHRAFFUR_RAND
100
AcDbVertex
100
AcDb2dVertex
 10
416.344508
 20
349.404978
 30
0.0
  0
VERTEX
  5
133A
330
12FA
100
AcDbEntity
  8
SCHRAFFUR_RAND
100
AcDbVertex
100
AcDb2dVertex
 10
412.345508
 20
347.095978
 30
0.0
  0
VERTEX
  5
133B
330
12FA
100
AcDbEntity
  8
SCHRAFFUR_RAND
100
AcDbVertex
100
AcDb2dVertex
 10
408.344508
 20
349.404978
 30
0.0
  0
VERTEX
  5
133C
330
12FA
100
AcDbEntity
  8
SCHRAFFUR_RAND
100
AcDbVertex
100
AcDb2dVertex
 10
408.345508
 20
354.404978
 30
0.0
  0
VERTEX
  5
133D
330
12FA
100
AcDbEntity
  8
SCHRAFFUR_RAND
100
AcDbVertex
100
AcDb2dVertex
 10
407.345508
 20
354.404978
 30
0.0
  0
VERTEX
  5
133E
330
12FA
100
AcDbEntity
  8
SCHRAFFUR_RAND
100
AcDbVertex
100
AcDb2dVertex
 10
407.345508
 20
359.405978
 30
0.0
  0
VERTEX
  5
133F
330
12FA
100
AcDbEntity
  8
SCHRAFFUR_RAND
100
AcDbVertex
100
AcDb2dVertex
 10
407.345508
 20
365.604978
 30
0.0
  0
VERTEX
  5
1340
330
12FA
100
AcDbEntity
  8
SCHRAFFUR_RAND
100
AcDbVertex
100
AcDb2dVertex
 10
407.346508
 20
369.404978
 30
0.0
  0
VERTEX
  5
1341
330
12FA
100
AcDbEntity
  8
SCHRAFFUR_RAND
100
AcDbVertex
100
AcDb2dVertex
 10
379.108508
 20
369.404978
 30
0.0
  0
VERTEX
  5
1342
330
12FA
100
AcDbEntity
  8
SCHRAFFUR_RAND
100
AcDbVertex
100
AcDb2dVertex
 10
372.084508
 20
369.404978
 30
0.0
  0
SEQEND
  5
1343
330
12FA
100
AcDbEntity
  8
SCHRAFFUR_RAND
  0
INSERT
  5
1373
330
13E1
100
AcDbEntity
  8
8
100
AcDbBlockReference
  2
*X6
 10
-108.606492
 20
22.361978
 30
0.0
1001
ACAD
1000
HATCH
1002
{
1070
    19
1000
ANSI31,_I
1040
6.349999999999999
1040
-0.7850000000000001
1002
}
  0
DIMENSION
  5
137C
330
13E1
100
AcDbEntity
  8
5
100
AcDbDimension
  2
*D14
 10
449.385508
 20
149.404978
 30
0.0
 11
449.385508
 21
194.488978
 31
0.0
 70
   160
  1
85
 71
     5
 42
-1.0
  3
GEN-ISO
100
AcDbAlignedDimension
 13
336.727508
 23
234.404978
 33
0.0
 14
419.385508
 24
149.404978
 34
0.0
 50
270.0
100
AcDbRotatedDimension
  0
DIMENSION
  5
1386
330
13E1
100
AcDbEntity
  8
5
100
AcDbDimension
  2
*D13
 10
449.385508
 20
317.404978
 30
0.0
 11
449.385508
 21
293.928978
 31
0.0
 70
   160
  1
60
 71
     5
 42
-1.0
  3
GEN-ISO
100
AcDbAlignedDimension
 13
327.346508
 23
257.404978
 33
0.0
 14
288.846508
 24
317.404978
 34
0.0
 50
90.0
100
AcDbRotatedDimension
  0
DIMENSION
  5
139B
330
13E1
100
AcDbEntity
  8
5
100
AcDbDimension
  2
*D11
 10
378.846508
 20
462.473978
 30
0.0
 11
264.845508
 21
462.473978
 31
0.0
 70
   160
  1
%%c 228
 71
     5
 42
-1.0
  3
GEN-ISO
100
AcDbAlignedDimension
 13
150.845508
 23
374.404978
 33
0.0
 14
378.846508
 24
374.404978
 34
0.0
100
AcDbRotatedDimension
  0
DIMENSION
  5
13A5
330
13E1
100
AcDbEntity
  8
5
100
AcDbDimension
  2
*D10
 10
546.418508
 20
361.404978
 30
0.0
 11
546.418508
 21
329.904978
 31
0.0
 70
   160
  1
8
 71
     5
 42
-1.0
  3
GEN-ISO
100
AcDbAlignedDimension
 13
516.418508
 23
369.404978
 33
0.0
 14
479.845508
 24
361.404978
 34
0.0
 50
270.0
100
AcDbRotatedDimension
  0
INSERT
  5
1488
330
13E1
100
AcDbEntity
  8
0
100
AcDbBlockReference
  2
KATALOG_LEER
 10
251.839706
 20
11.304483
 30
0.0
 41
5.0
 42
5.0
 43
5.0
1001
GENIUS_GENOREF_13
1005
1489
  0
POINT
  5
1489
330
13E1
100
AcDbEntity
  8
0
 60
     1
100
AcDbPoint
 10
0.0
 20
0.0
 30
0.0
1001
GENIUS_GENOBJ-N-TIT_13
1002
{
1000
OWNER
1000
GEN
1002
}
1001
GENIUS_GENOENT_13
1002
{
1000
MYREF
1005
1489
1002
}
1002
{
1000
GRP
1005
0
1002
}
1001
GENIUS_GENOLIS_13
1002
{
1000
ENT
1005
1488
1002
}
1001
GENIUS_GENTITLE_13
1002
{
1000
SCALE
1000
1:5
1002
}
1002
{
1000
BORDER
1000
KATALOG
1002
}
1002
{
1000
TITLE
1000
KATALOG_LEER
1002
}
1002
{
1000
UNCHG
1002
{
1000
GEN-TITLE-SCA
1000
GEN-TITLE-SIZ
1002
}
1002
}
1002
{
1000
HRA
1005
1481
1002
}
1002
{
1000
HTIT
1005
1488
1002
}
1002
{
1000
GENIUSID
1005
1489
1002
}
1001
GENIUS_GENODEF_13
1002
{
1000
HIER
1070
     1
1002
}
1002
{
1000
MANEDIT
1070
     1
1002
}
1002
{
1000
NOSEL
1070
     0
1002
}
1002
{
1000
BEHIND
1070
     0
1002
}
1002
{
1000
REACTOR
1002
}
  0
LINE
  5
1556
330
13E1
100
AcDbEntity
  8
5
100
AcDbLine
 10
422.754894
 20
392.882116
 30
0.0
 11
470.7559639999999
 21
425.880713
 31
0.0
  0
LINE
  5
1557
330
13E1
100
AcDbEntity
  8
5
100
AcDbLine
 10
565.431721
 20
494.817123
 30
0.0
 11
577.522101
 21
494.817123
 31
0.0
  0
LINE
  5
1558
330
13E1
100
AcDbEntity
  8
5
100
AcDbLine
 10
562.5802179999999
 20
499.371007
 30
0.0
 11
580.373603
 21
499.371007
 31
0.0
  0
LINE
  5
1559
330
13E1
100
AcDbEntity
  8
5
100
AcDbLine
 10
568.169165
 20
490.4453929999999
 30
0.0
 11
574.784657
 21
490.4453929999999
 31
0.0
  0
LINE
  5
155A
330
13E1
100
AcDbEntity
  8
5
100
AcDbLine
 10
571.476911
 20
499.371007
 30
0.0
 11
571.476911
 21
507.932312
 31
0.0
  0
LINE
  5
155B
330
13E1
100
AcDbEntity
  8
5
100
AcDbLine
 10
493.959473
 20
441.832091
 30
0.0
 11
562.056031
 21
488.6454409999999
 31
0.0
  0
ENDSEC
  0
SECTION
  2
OBJECTS
  0
DICTIONARY
  5
13D5
330
0
100
AcDbDictionary
281
     1
  3
ACAD_COLOR
350
15B7
  3
ACAD_GROUP
350
13D6
  3
ACAD_LAYOUT
350
15BA
  3
ACAD_MATERIAL
350
15B6
  3
ACAD_MLINESTYLE
350
13E4
  3
ACAD_PLOTSETTINGS
350
15BB
  3
ACAD_PLOTSTYLENAME
350
15B4
  3
ACAD_TABLESTYLE
350
15B8
  3
ACDBHEADERROUNDTRIPXREC
350
169B
  3
AcDbVariableDictionary
350
168E
  3
AcmDictionary
350
1619
  3
AMG
350
15BF
  3
AMGSNAPSETTINGS
350
1686
  0
DICTIONARY
  5
15B7
102
{ACAD_REACTORS
330
13D5
102
}
330
13D5
100
AcDbDictionary
281
     1
  0
DICTIONARY
  5
13D6
102
{ACAD_REACTORS
330
13D5
102
}
330
13D5
100
AcDbDictionary
281
     1
  0
DICTIONARY
  5
15BA
102
{ACAD_REACTORS
330
13D5
102
}
330
13D5
100
AcDbDictionary
281
     1
  3
Layout1
350
15BD
  3
Model
350
15BC
  0
DICTIONARY
  5
15B6
102
{ACAD_REACTORS
330
13D5
102
}
330
13D5
100
AcDbDictionary
281
     1
  0
DICTIONARY
  5
13E4
102
{ACAD_REACTORS
330
13D5
102
}
330
13D5
100
AcDbDictionary
281
     1
  3
STANDARD
350
13E5
  0
DICTIONARY
  5
15BB
102
{ACAD_REACTORS
330
13D5
102
}
330
13D5
100
AcDbDictionary
281
     1
  0
ACDBDICTIONARYWDFLT
  5
15B4
102
{ACAD_REACTORS
330
13D5
102
}
330
13D5
100
AcDbDictionary
281
     1
  3
Normal
350
15B5
100
AcDbDictionaryWithDefault
340
15B5
  0
DICTIONARY
  5
15B8
102
{ACAD_REACTORS
330
13D5
102
}
330
13D5
100
AcDbDictionary
281
     1
  3
Standard
350
15B9
  0
DICTIONARY
  5
169B
102
{ACAD_REACTORS
330
13D5
102
}
330
13D5
100
AcDbDictionary
281
     1
  0
DICTIONARY
  5
168E
102
{ACAD_REACTORS
330
13D5
102
}
330
13D5
100
AcDbDictionary
281
     1
  3
CTABLESTYLE
350
168F
  3
DIMASSOC
350
1698
  3
PROJECTNAME
350
1699
  0
DICTIONARY
  5
1619
102
{ACAD_REACTORS
330
13D5
102
}
330
13D5
100
AcDbDictionary
281
     1
  3
AcmStdDictionary
350
1624
  3
AMDTSECTSYM_ARROWCOLOR
350
1647
  0
DICTIONARY
  5
15BF
102
{ACAD_REACTORS
330
13D5
102
}
330
13D5
100
AcDbDictionary
281
     1
  0
DICTIONARY
  5
1686
102
{ACAD_REACTORS
330
13D5
102
}
330
13D5
100
AcDbDictionary
281
     1
  0
LAYOUT
  5
15BD
102
{ACAD_XDICTIONARY
360
169E
102
}
102
{ACAD_REACTORS
330
15BA
102
}
330
15BA
100
AcDbPlotSettings
  1

  2
Xerox Document Centre CS50 PS
  4

  6

 40
0.0
 41
0.0
 42
0.0
 43
0.0
 44
0.0
 45
0.0
 46
0.0
 47
0.0
 48
0.0
 49
0.0
140
0.0
141
0.0
142
1.0
143
1.0
 70
   688
 72
     0
 73
     0
 74
     5
  7

 75
    16
147
1.0
148
0.0
149
0.0
100
AcDbLayout
  1
Layout1
 70
     1
 71
     1
 10
0.0
 20
0.0
 11
419.8999999999999
 21
296.9
 12
0.0
 22
0.0
 32
0.0
 14
0.0
 24
0.0
 34
0.0
 15
419.8999999999999
 25
296.9
 35
0.0
146
0.0
 13
0.0
 23
0.0
 33
0.0
 16
1.0
 26
0.0
 36
0.0
 17
0.0
 27
1.0
 37
0.0
 76
     0
330
13DE
  0
LAYOUT
  5
15BC
102
{ACAD_XDICTIONARY
360
169C
102
}
102
{ACAD_REACTORS
330
15BA
102
}
330
15BA
100
AcDbPlotSettings
  1

  2
Xerox Document Centre CS50 PS
  4

  6

 40
0.0
 41
0.0
 42
0.0
 43
0.0
 44
0.0
 45
0.0
 46
0.0
 47
0.0
 48
0.0
 49
0.0
140
0.0
141
0.0
142
1.0
143
1.0
 70
  1712
 72
     0
 73
     0
 74
     0
  7

 75
     0
147
1.0
148
0.0
149
0.0
100
AcDbLayout
  1
Model
 70
     1
 71
     0
 10
0.0
 20
0.0
 11
12.0
 21
9.0
 12
0.0
 22
0.0
 32
0.0
 14
0.0
 24
0.0
 34
0.0
 15
0.0
 25
0.0
 35
0.0
146
0.0
 13
0.0
 23
0.0
 33
0.0
 16
1.0
 26
0.0
 36
0.0
 17
0.0
 27
1.0
 37
0.0
 76
     0
330
13E1
  0
MLINESTYLE
  5
13E5
102
{ACAD_REACTORS
330
13E4
102
}
330
13E4
100
AcDbMlineStyle
  2
STANDARD
 70
     0
  3

 62
   256
 51
90.0
 52
90.0
 71
     2
 49
0.5
 62
   256
  6
BYLAYER
 49
-0.5
 62
   256
  6
BYLAYER
  0
ACDBPLACEHOLDER
  5
15B5
102
{ACAD_REACTORS
330
15B4
102
}
330
15B4
  0
TABLESTYLE
  5
15B9
102
{ACAD_REACTORS
330
15B8
102
}
330
15B8
100
AcDbTableStyle
  3
Standard
 70
     0
 71
     0
 40
1.5
 41
1.5
280
     0
281
     0
  7
STANDARD
140
4.5
170
     2
 62
     0
 63
     7
283
     0
274
    -2
284
     1
 64
     0
275
    -2
285
     1
 65
     0
276
    -2
286
     1
 66
     0
277
    -2
287
     1
 67
     0
278
    -2
288
     1
 68
     0
279
    -2
289
     1
 69
     0
  7
STANDARD
140
6.0
170
     5
 62
     0
 63
     7
283
     0
274
    -2
284
     1
 64
     0
275
    -2
285
     1
 65
     0
276
    -2
286
     1
 66
     0
277
    -2
287
     1
 67
     0
278
    -2
288
     1
 68
     0
279
    -2
289
     1
 69
     0
  7
STANDARD
140
4.5
170
     5
 62
     0
 63
     7
283
     0
274
    -2
284
     1
 64
     0
275
    -2
285
     1
 65
     0
276
    -2
286
     1
 66
     0
277
    -2
287
     1
 67
     0
278
    -2
288
     1
 68
     0
279
    -2
289
     1
 69
     0
  0
DICTIONARYVAR
  5
168F
102
{ACAD_REACTORS
330
168E
102
}
330
168E
100
DictionaryVariables
280
     0
  1
STANDARD
  0
DICTIONARYVAR
  5
1698
102
{ACAD_REACTORS
330
168E
102
}
330
168E
100
DictionaryVariables
280
     0
  1
1
  0
DICTIONARYVAR
  5
1699
102
{ACAD_REACTORS
330
168E
102
}
330
168E
100
DictionaryVariables
280
     0
  1

  0
DICTIONARY
  5
1624
102
{ACAD_REACTORS
330
1619
102
}
330
1619
100
AcDbDictionary
281
     1
  0
XRECORD
  5
1647
102
{ACAD_REACTORS
330
1619
102
}
330
1619
100
AcDbXrecord
280
     1
 90
-1023410169
  0
DICTIONARY
  5
169E
330
15BD
100
AcDbDictionary
280
     1
281
     1
  3
ACAD_XREC_ROUNDTRIP
360
169F
  0
DICTIONARY
  5
169C
330
15BC
100
AcDbDictionary
280
     1
281
     1
  3
ACAD_XREC_ROUNDTRIP
360
169D
  0
XRECORD
  5
169F
102
{ACAD_REACTORS
330
169E
102
}
330
169E
100
AcDbXrecord
280
     1
102
SHADEPLOT
 70
     0
102
SHADEPLOTRESLEVEL
 70
     2
102
SHADEPLOTCUSTOMDPI
 70
   300
  0
XRECORD
  5
169D
102
{ACAD_REACTORS
330
169C
102
}
330
169C
100
AcDbXrecord
280
     1
102
SHADEPLOT
 70
     0
102
SHADEPLOTRESLEVEL
 70
     2
102
SHADEPLOTCUSTOMDPI
 70
   300
  0
ENDSEC
  0
EOF
