  0
SECTION
  2
HEADER
  9
$ACADVER
  1
AC1015
  9
$ACADMAINTVER
 70
    20
  9
$DWGCODEPAGE
  3
ANSI_1252
  9
$INSBASE
 10
0.0
 20
0.0
 30
0.0
  9
$EXTMIN
 10
61.5732519423
 20
31.32478983593558
 30
0.0
  9
$EXTMAX
 10
373.0732519423
 20
262.2824878764786
 30
0.0
  9
$LIMMIN
 10
0.0
 20
0.0
  9
$LIMMAX
 10
420.0
 20
297.0
  9
$ORTHOMODE
 70
     0
  9
$REGENMODE
 70
     1
  9
$FILLMODE
 70
     1
  9
$QTEXTMODE
 70
     0
  9
$MIRRTEXT
 70
     0
  9
$LTSCALE
 40
23.1
  9
$ATTMODE
 70
     1
  9
$TEXTSIZE
 40
0.2
  9
$TRACEWID
 40
0.05
  9
$TEXTSTYLE
  7
STANDARD
  9
$CLAYER
  8
0
  9
$CELTYPE
  6
BYLAYER
  9
$CECOLOR
 62
   256
  9
$CELTSCALE
 40
1.0
  9
$DISPSILH
 70
     0
  9
$DIMSCALE
 40
1.0
  9
$DIMASZ
 40
3.5
  9
$DIMEXO
 40
2.625
  9
$DIMDLI
 40
15.96
  9
$DIMRND
 40
0.0
  9
$DIMDLE
 40
0.0
  9
$DIMEXE
 40
7.559999999999999
  9
$DIMTP
 40
0.005
  9
$DIMTM
 40
0.005
  9
$DIMTXT
 40
3.5
  9
$DIMCEN
 40
3.779999999999999
  9
$DIMTSZ
 40
0.0
  9
$DIMTOL
 70
     1
  9
$DIMLIM
 70
     0
  9
$DIMTIH
 70
     1
  9
$DIMTOH
 70
     1
  9
$DIMSE1
 70
     0
  9
$DIMSE2
 70
     0
  9
$DIMTAD
 70
     0
  9
$DIMZIN
 70
     0
  9
$DIMBLK
  1
_FILLED
  9
$DIMASO
 70
     1
  9
$DIMSHO
 70
     1
  9
$DIMPOST
  1

  9
$DIMAPOST
  1

  9
$DIMALT
 70
     0
  9
$DIMALTD
 70
     2
  9
$DIMALTF
 40
25.4
  9
$DIMLFAC
 40
1.0
  9
$DIMTOFL
 70
     0
  9
$DIMTVP
 40
0.0
  9
$DIMTIX
 70
     0
  9
$DIMSOXD
 70
     0
  9
$DIMSAH
 70
     0
  9
$DIMBLK1
  1

  9
$DIMBLK2
  1

  9
$DIMSTYLE
  2
STANDARD
  9
$DIMCLRD
 70
     0
  9
$DIMCLRE
 70
     0
  9
$DIMCLRT
 70
     0
  9
$DIMTFAC
 40
1.0
  9
$DIMGAP
 40
0.09
  9
$DIMJUST
 70
     0
  9
$DIMSD1
 70
     0
  9
$DIMSD2
 70
     0
  9
$DIMTOLJ
 70
     1
  9
$DIMTZIN
 70
     0
  9
$DIMALTZ
 70
     0
  9
$DIMALTTZ
 70
     0
  9
$DIMUPT
 70
     0
  9
$DIMDEC
 70
     4
  9
$DIMTDEC
 70
     4
  9
$DIMALTU
 70
     2
  9
$DIMALTTD
 70
     2
  9
$DIMTXSTY
  7
STANDARD
  9
$DIMAUNIT
 70
     0
  9
$DIMADEC
 70
     0
  9
$DIMALTRND
 40
0.0
  9
$DIMAZIN
 70
     0
  9
$DIMDSEP
 70
    46
  9
$DIMATFIT
 70
     3
  9
$DIMFRAC
 70
     0
  9
$DIMLDRBLK
  1

  9
$DIMLUNIT
 70
     2
  9
$DIMLWD
 70
    -2
  9
$DIMLWE
 70
    -2
  9
$DIMTMOVE
 70
     0
  9
$LUNITS
 70
     2
  9
$LUPREC
 70
     2
  9
$SKETCHINC
 40
0.1
  9
$FILLETRAD
 40
0.0
  9
$AUNITS
 70
     0
  9
$AUPREC
 70
     0
  9
$MENU
  1
.
  9
$ELEVATION
 40
0.0
  9
$PELEVATION
 40
0.0
  9
$THICKNESS
 40
0.0
  9
$LIMCHECK
 70
     0
  9
$CHAMFERA
 40
0.0
  9
$CHAMFERB
 40
0.0
  9
$CHAMFERC
 40
0.0
  9
$CHAMFERD
 40
0.0
  9
$SKPOLY
 70
     0
  9
$TDCREATE
 40
2456324.442847893
  9
$TDUCREATE
 40
2456324.401181227
  9
$TDUPDATE
 40
2456324.443918114
  9
$TDUUPDATE
 40
2456324.402251447
  9
$TDINDWG
 40
0.0010707523
  9
$TDUSRTIMER
 40
0.0010707523
  9
$USRTIMER
 70
     1
  9
$ANGBASE
 50
0.0
  9
$ANGDIR
 70
     0
  9
$PDMODE
 70
     3
  9
$PDSIZE
 40
0.3125
  9
$PLINEWID
 40
0.0
  9
$SPLFRAME
 70
     0
  9
$SPLINETYPE
 70
     6
  9
$SPLINESEGS
 70
     8
  9
$HANDSEED
  5
60D
  9
$SURFTAB1
 70
     6
  9
$SURFTAB2
 70
     6
  9
$SURFTYPE
 70
     6
  9
$SURFU
 70
     6
  9
$SURFV
 70
     6
  9
$UCSBASE
  2

  9
$UCSNAME
  2

  9
$UCSORG
 10
0.0
 20
0.0
 30
0.0
  9
$UCSXDIR
 10
1.0
 20
0.0
 30
0.0
  9
$UCSYDIR
 10
0.0
 20
1.0
 30
0.0
  9
$UCSORTHOREF
  2

  9
$UCSORTHOVIEW
 70
     0
  9
$UCSORGTOP
 10
0.0
 20
0.0
 30
0.0
  9
$UCSORGBOTTOM
 10
0.0
 20
0.0
 30
0.0
  9
$UCSORGLEFT
 10
0.0
 20
0.0
 30
0.0
  9
$UCSORGRIGHT
 10
0.0
 20
0.0
 30
0.0
  9
$UCSORGFRONT
 10
0.0
 20
0.0
 30
0.0
  9
$UCSORGBACK
 10
0.0
 20
0.0
 30
0.0
  9
$PUCSBASE
  2

  9
$PUCSNAME
  2

  9
$PUCSORG
 10
0.0
 20
0.0
 30
0.0
  9
$PUCSXDIR
 10
1.0
 20
0.0
 30
0.0
  9
$PUCSYDIR
 10
0.0
 20
1.0
 30
0.0
  9
$PUCSORTHOREF
  2

  9
$PUCSORTHOVIEW
 70
     0
  9
$PUCSORGTOP
 10
0.0
 20
0.0
 30
0.0
  9
$PUCSORGBOTTOM
 10
0.0
 20
0.0
 30
0.0
  9
$PUCSORGLEFT
 10
0.0
 20
0.0
 30
0.0
  9
$PUCSORGRIGHT
 10
0.0
 20
0.0
 30
0.0
  9
$PUCSORGFRONT
 10
0.0
 20
0.0
 30
0.0
  9
$PUCSORGBACK
 10
0.0
 20
0.0
 30
0.0
  9
$USERI1
 70
     0
  9
$USERI2
 70
     0
  9
$USERI3
 70
     0
  9
$USERI4
 70
     0
  9
$USERI5
 70
     0
  9
$USERR1
 40
0.0
  9
$USERR2
 40
0.0
  9
$USERR3
 40
0.0
  9
$USERR4
 40
0.0
  9
$USERR5
 40
0.0
  9
$WORLDVIEW
 70
     1
  9
$SHADEDGE
 70
     3
  9
$SHADEDIF
 70
    70
  9
$TILEMODE
 70
     1
  9
$MAXACTVP
 70
    64
  9
$PINSBASE
 10
0.0
 20
0.0
 30
0.0
  9
$PLIMCHECK
 70
     0
  9
$PEXTMIN
 10
1.000000000000000E+20
 20
1.000000000000000E+20
 30
1.000000000000000E+20
  9
$PEXTMAX
 10
-1.000000000000000E+20
 20
-1.000000000000000E+20
 30
-1.000000000000000E+20
  9
$PLIMMIN
 10
0.0
 20
0.0
  9
$PLIMMAX
 10
12.0
 20
9.0
  9
$UNITMODE
 70
     0
  9
$VISRETAIN
 70
     1
  9
$PLINEGEN
 70
     0
  9
$PSLTSCALE
 70
     1
  9
$TREEDEPTH
 70
  3020
  9
$CMLSTYLE
  2
Standard
  9
$CMLJUST
 70
     0
  9
$CMLSCALE
 40
1.0
  9
$PROXYGRAPHICS
 70
     1
  9
$MEASUREMENT
 70
     1
  9
$CELWEIGHT
370
    -1
  9
$ENDCAPS
280
     0
  9
$JOINSTYLE
280
     0
  9
$LWDISPLAY
290
     0
  9
$INSUNITS
 70
     4
  9
$HYPERLINKBASE
  1

  9
$STYLESHEET
  1

  9
$XEDIT
290
     1
  9
$CEPSNTYPE
380
     0
  9
$PSTYLEMODE
290
     1
  9
$FINGERPRINTGUID
  2
{96274648-18F7-44FC-B508-9AB5F65F5EC7}
  9
$VERSIONGUID
  2
{96088C84-4251-4D88-A337-1AF808E1C7BB}
  9
$EXTNAMES
290
     1
  9
$PSVPSCALE
 40
0.0
  9
$OLESTARTUP
290
     0
  0
ENDSEC
  0
SECTION
  2
CLASSES
  0
CLASS
  1
ACDBDICTIONARYWDFLT
  2
AcDbDictionaryWithDefault
  3
ObjectDBX Classes
 90
        0
280
     0
281
     0
  0
CLASS
  1
ACDBPLACEHOLDER
  2
AcDbPlaceHolder
  3
ObjectDBX Classes
 90
        0
280
     0
281
     0
  0
CLASS
  1
LAYOUT
  2
AcDbLayout
  3
ObjectDBX Classes
 90
        0
280
     0
281
     0
  0
CLASS
  1
MATERIAL
  2
AcDbMaterial
  3
ObjectDBX Classes
 90
     1153
280
     0
281
     0
  0
CLASS
  1
VISUALSTYLE
  2
AcDbVisualStyle
  3
ObjectDBX Classes
 90
     4095
280
     0
281
     0
  0
CLASS
  1
TABLESTYLE
  2
AcDbTableStyle
  3
ObjectDBX Classes
 90
     4095
280
     0
281
     0
  0
CLASS
  1
SCALE
  2
AcDbScale
  3
ObjectDBX Classes
 90
     1153
280
     0
281
     0
  0
CLASS
  1
MLEADERSTYLE
  2
AcDbMLeaderStyle
  3
ACDB_MLEADERSTYLE_CLASS
 90
     4095
280
     0
281
     0
  0
CLASS
  1
AMGSETTINGSOBJ
  2
AmgSettingsObj
  3
"AcadM|Product Description: AutoCAD Mechanical|Company: Autodesk, Inc."
 90
     1024
280
     0
281
     0
  0
CLASS
  1
ACME_DOCUMENT
  2
AcMeDbDoc
  3
AcMeServices
 90
     1024
280
     0
281
     0
  0
CLASS
  1
ACMESCOPE
  2
AcMeScope
  3
AcMeServices
 90
     1024
280
     0
281
     0
  0
CLASS
  1
ACMECOMMANDHISTORY
  2
AcMeCommandHistory
  3
AcMeServices
 90
     1024
280
     0
281
     0
  0
CLASS
  1
ACIMSYSVARMAN
  2
AcImSysVarManager
  3
AcMeServices
 90
     1024
280
     0
281
     0
  0
CLASS
  1
ACIMINTSYSVAR
  2
AcImIntSysVar
  3
AcMeServices
 90
     1024
280
     0
281
     0
  0
CLASS
  1
ACMEDRAWINGMAN
  2
AcMeDrawingMan
  3
AcMeServices
 90
     1024
280
     0
281
     0
  0
CLASS
  1
ACMEVIEW
  2
AcMeView
  3
AcMeServices
 90
     1024
280
     0
281
     0
  0
CLASS
  1
ACDBENTITYCACHE
  2
AcMeEntityCache
  3
AcMeServices
 90
     1024
280
     0
281
     0
  0
CLASS
  1
ACMESTATEMGR
  2
AcMeStateMgr
  3
AcMeServices
 90
     1024
280
     0
281
     0
  0
CLASS
  1
ACGREFMASTER
  2
AcGrefMaster
  3
AcAttribServices
 90
     1024
280
     0
281
     0
  0
CLASS
  1
AM_DRAWING_MGR
  2
AcDmDwgMgr
  3
AcMechDwgViewMgmt
 90
     1024
280
     0
281
     0
  0
CLASS
  1
AM_DWG_DOCUMENT
  2
AcDmDwgDocument
  3
AcMechDwgViewMgmt
 90
     1024
280
     0
281
     0
  0
CLASS
  1
AM_DWG_SHEET
  2
AcDmSheet
  3
AcMechDwgViewMgmt
 90
     1024
280
     0
281
     0
  0
CLASS
  1
AM_VIEWDIMPARMAP
  2
AcDmViewDimParMap
  3
AcMechDwgViewMgmt
 90
     1024
280
     0
281
     0
  0
CLASS
  1
AMDTINTERNALREACTOR
  2
AmdtInternalReactor
  3
AcMeServices
 90
     1024
280
     0
281
     0
  0
CLASS
  1
ACIMREALSYSVAR
  2
AcImRealSysVar
  3
AcMeServices
 90
     1024
280
     0
281
     0
  0
CLASS
  1
AM_DWGMGR_NAME
  2
AcDmDwgMgrName
  3
AcMechDwgViewMgmt
 90
     1024
280
     0
281
     0
  0
CLASS
  1
ACME_DATABASE
  2
AcMeDbDatabase
  3
AcMeServices
 90
     1024
280
     0
281
     0
  0
CLASS
  1
ACRFINSADJUSTERMGR
  2
AcRfInsAdjusterMgr
  3
AcMeServices
 90
     1024
280
     0
281
     0
  0
CLASS
  1
ACGREFACADMASTER
  2
AcGrefacadMaster
  3
AcGrefServices
 90
     1024
280
     0
281
     0
  0
CLASS
  1
AMDTMENUSTATEMGR
  2
AmdtMenuStateMgr
  3
McadcomServices
 90
     1024
280
     0
281
     0
  0
CLASS
  1
AMDTMCOMMENUSTATE
  2
AmdtMcomMenuState
  3
McadcomServices
 90
     1024
280
     0
281
     0
  0
CLASS
  1
AMIMASTER
  2
AmiMaster
  3
AmiServices
 90
     1024
280
     0
281
     0
  0
CLASS
  1
MAPIAMMOUDLE
  2
MApiAmModule
  3
MApiAmServices
 90
     1024
280
     0
281
     0
  0
CLASS
  1
ACIMSTRSYSVAR
  2
AcImStrSysVar
  3
AcMeServices
 90
     1024
280
     0
281
     0
  0
CLASS
  1
AMDTADMENUSTATE
  2
AmdtAdMenuState
  3
DesignerServices
 90
     1024
280
     0
281
     0
  0
CLASS
  1
ADAPPL
  2
AcAdAppl
  3
DesignerServices
 90
     1024
280
     0
281
     0
  0
CLASS
  1
DEPMGR
  2
AcAdDepMgr
  3
DesignerServices
 90
     1024
280
     0
281
     0
  0
CLASS
  1
PARAMMGR
  2
AcAdParamMgr
  3
DesignerServices
 90
     1024
280
     0
281
     0
  0
CLASS
  1
PARAMSCOPE
  2
AcAdParamScope
  3
DesignerServices
 90
     1024
280
     0
281
     0
  0
CLASS
  1
NAMEDAPPL
  2
AcAdNamedAppl
  3
DesignerServices
 90
     1024
280
     0
281
     0
  0
CLASS
  1
AMDTDMMENUSTATE
  2
AmdtDmMenuState
  3
AcMechDwgViewMgmt
 90
     1024
280
     0
281
     0
  0
CLASS
  1
AMDTAMMENUSTATE
  2
AmdtAmMenuState
  3
DesignerAssemblies
 90
     1024
280
     0
281
     0
  0
CLASS
  1
ACAMPROJECT
  2
AcAmProject
  3
DesignerAssemblies
 90
     1024
280
     0
281
     0
  0
CLASS
  1
ACAMGRCOMPDEF
  2
AcAmGrCompDef
  3
DesignerAssemblies
 90
     1024
280
     0
281
     0
  0
CLASS
  1
ACAMCOMPDEF
  2
AcAmCompDef
  3
DesignerAssemblies
 90
     1024
280
     0
281
     0
  0
CLASS
  1
ACAMCOMPDEFMGR
  2
AcAmCompDefMgr
  3
DesignerAssemblies
 90
     1024
280
     0
281
     0
  0
CLASS
  1
AMCONTEXTMGR
  2
AcAmContextMgr
  3
DesignerAssemblies
 90
     1024
280
     0
281
     0
  0
CLASS
  1
ACAMCONTEXTMODELER
  2
AcAmContextModeler
  3
DesignerAssemblies
 90
     1024
280
     0
281
     0
  0
CLASS
  1
ACMDATADICTIONARY
  2
AcmDataDictionary
  3
"AcmSymBB|Product Description: AutoCAD Mechanical|Company: Autodesk, Inc."
 90
     1024
280
     0
281
     0
  0
CLASS
  1
CATALOGSTATE
  2
AcAmCatalogState
  3
DesignerAssemblies
 90
     1024
280
     0
281
     0
  0
CLASS
  1
ACAMGRCOMPDEFSET
  2
AcAmGrCompDefSet
  3
DesignerAssemblies
 90
     1024
280
     0
281
     0
  0
CLASS
  1
AMDTBROWSERDBTAB
  2
AmdtBrowserDbTab
  3
McadcomServices
 90
     1024
280
     0
281
     0
  0
CLASS
  1
CBROWSERAPPOBJECT
  2
CBrowserAppObject
  3
McadcomServices
 90
     1024
280
     0
281
     0
  0
CLASS
  1
DM_PLACEHOLDER
  2
AcDmSelsetPlaceholder
  3
AcMechDwgViewMgmt
 90
     1024
280
     0
281
     0
  0
CLASS
  1
ACMSTANDARDDIN
  2
AcmStandardDIN
  3
"Amdt_StdImp|Product Description: AutoCAD Mechanical|Company: Autodesk, Inc."
 90
     1024
280
     0
281
     0
  0
CLASS
  1
AMDTEDGESTANDARDDIN13715
  2
AmdtEdgeStdDIN13715
  3
"Amdt_StdImp|Product Description: AutoCAD Mechanical|Company: Autodesk, Inc."
 90
     1024
280
     0
281
     0
  0
CLASS
  1
ACMSURFSTANDARDDIN2002
  2
AcmSurfTextStdDIN2002
  3
"Amdt_StdImp|Product Description: AutoCAD Mechanical|Company: Autodesk, Inc."
 90
     1024
280
     0
281
     0
  0
CLASS
  1
ACMFCFSTANDARDDIN
  2
AcmFCFStdDIN
  3
"Amdt_StdImp|Product Description: AutoCAD Mechanical|Company: Autodesk, Inc."
 90
     1024
280
     0
281
     0
  0
CLASS
  1
ACMWELDSTANDARDDIN
  2
AcmWeldingStdDIN
  3
"Amdt_StdImp|Product Description: AutoCAD Mechanical|Company: Autodesk, Inc."
 90
     1024
280
     0
281
     0
  0
CLASS
  1
ACMIDSTANDARDDIN
  2
AcmIdStdDIN
  3
"Amdt_StdImp|Product Description: AutoCAD Mechanical|Company: Autodesk, Inc."
 90
     1024
280
     0
281
     0
  0
CLASS
  1
ACMDATUMSTANDARDDIN
  2
AcmDatumStdDIN
  3
"Amdt_StdImp|Product Description: AutoCAD Mechanical|Company: Autodesk, Inc."
 90
     1024
280
     0
281
     0
  0
CLASS
  1
ACMBOMSTANDARDDIN
  2
AcmBOMStdDIN
  3
"Amdt_StdImp|Product Description: AutoCAD Mechanical|Company: Autodesk, Inc."
 90
     1024
280
     0
281
     0
  0
CLASS
  1
ACMDETAILSTANDARDDIN
  2
AmdtDetailSymStdDIN
  3
"Amdt_StdImp|Product Description: AutoCAD Mechanical|Company: Autodesk, Inc."
 90
     1024
280
     0
281
     0
  0
CLASS
  1
ACMSECTIONSTANDARDDIN
  2
AmdtSectionSymStdDIN
  3
"Amdt_StdImp|Product Description: AutoCAD Mechanical|Company: Autodesk, Inc."
 90
     1024
280
     0
281
     0
  0
CLASS
  1
ACMCENTERLINESTANDARDDIN
  2
AmdtCenterLineStdDIN
  3
"Amdt_StdImp|Product Description: AutoCAD Mechanical|Company: Autodesk, Inc."
 90
     1024
280
     0
281
     0
  0
CLASS
  1
ACMTHREADLINESTANDARDDIN
  2
AmdtThreadLineStdDIN
  3
"Amdt_StdImp|Product Description: AutoCAD Mechanical|Company: Autodesk, Inc."
 90
     1024
280
     0
281
     0
  0
CLASS
  1
ACMNOTESTANDARDDIN
  2
AmdtNoteStdDIN
  3
"Amdt_StdImp|Product Description: AutoCAD Mechanical|Company: Autodesk, Inc."
 90
     1024
280
     0
281
     0
  0
CLASS
  1
ACMTAPERSTANDARDDIN
  2
AcmTaperStdDIN
  3
"Amdt_StdImp|Product Description: AutoCAD Mechanical|Company: Autodesk, Inc."
 90
     1024
280
     0
281
     0
  0
CLASS
  1
ACMANOOTATIONVIEWSTANDARDDIN
  2
AmdtAnViewStdDIN
  3
"Amdt_StdImp|Product Description: AutoCAD Mechanical|Company: Autodesk, Inc."
 90
     1024
280
     0
281
     0
  0
CLASS
  1
ACAMGLAYSTD
  2
AcAmgLayStd
  3
"AmgLay|Product Description: AutoCAD Mechanical|Company: Autodesk, Inc."
 90
     1024
280
     0
281
     0
  0
CLASS
  1
ACAMGDIMSTD
  2
AcAmgDimStd
  3
"AmgDim|Product Description: AutoCAD Mechanical|Company: Autodesk, Inc."
 90
     1024
280
     0
281
     0
  0
CLASS
  1
AMGOBJPROPCFG
  2
AmgObjPropCfg
  3
"AmgLay|Product Description: AutoCAD Mechanical|Company: Autodesk, Inc."
 90
     1025
280
     0
281
     0
  0
CLASS
  1
ACAMGHOLECHARTSTDDIN
  2
AcAmgHoleChartStdDIN
  3
AmgDim|Product Description: AutoCAD Mechanical|Company: Autodesk, Inc.
 90
     1024
280
     0
281
     0
  0
CLASS
  1
ACAMGTITLESTD
  2
AcAmgTitleStd
  3
"AmgTitle|Product Description: AutoCAD Mechanical|Company: Autodesk, Inc."
 90
     4095
280
     0
281
     0
  0
CLASS
  1
AMDTNOTETEMPLATEDB
  2
AmdtNoteTemplateDB
  3
AcmSymBB|Product Description: AutoCAD Mechanical|Company: Autodesk, Inc.
 90
     1024
280
     0
281
     0
  0
CLASS
  1
ACAMGFILTERDAT
  2
AcAmgFilterDat
  3
"AcadM|Product Description: AutoCAD Mechanical|Company: Autodesk, Inc."
 90
     1024
280
     0
281
     0
  0
CLASS
  1
DICTIONARYVAR
  2
AcDbDictionaryVar
  3
ObjectDBX Classes
 90
        0
280
     0
281
     0
  0
CLASS
  1
CELLSTYLEMAP
  2
AcDbCellStyleMap
  3
ObjectDBX Classes
 90
     1152
280
     0
281
     0
  0
ENDSEC
  0
SECTION
  2
TABLES
  0
TABLE
  2
VPORT
  5
8
330
0
100
AcDbSymbolTable
 70
     1
  0
VPORT
  5
1F4
330
8
100
AcDbSymbolTableRecord
100
AcDbViewportTableRecord
  2
*ACTIVE
 70
     0
 10
0.0
 20
0.0
 11
1.0
 21
1.0
 12
294.334461065343
 22
152.0619242685875
 13
0.0
 23
0.0
 14
1.0
 24
1.0
 15
0.0
 25
0.0
 16
0.0
 26
0.0
 36
1.0
 17
0.0
 27
0.0
 37
0.0
 40
308.4099692939508
 41
1.850235849056603
 42
50.0
 43
0.0
 44
0.0
 50
0.0
 51
0.0
 71
     0
 72
   100
 73
     1
 74
     1
 75
     0
 76
     0
 77
     0
 78
     0
281
     0
 65
     0
110
0.0
120
0.0
130
0.0
111
1.0
121
0.0
131
0.0
112
0.0
122
1.0
132
0.0
 79
     0
146
0.0
  0
ENDTAB
  0
TABLE
  2
LTYPE
  5
5
330
0
100
AcDbSymbolTable
 70
    22
  0
LTYPE
  5
14
330
5
100
AcDbSymbolTableRecord
100
AcDbLinetypeTableRecord
  2
BYBLOCK
 70
     0
  3

 72
    65
 73
     0
 40
0.0
  0
LTYPE
  5
15
330
5
100
AcDbSymbolTableRecord
100
AcDbLinetypeTableRecord
  2
BYLAYER
 70
     0
  3

 72
    65
 73
     0
 40
0.0
  0
LTYPE
  5
16
330
5
100
AcDbSymbolTableRecord
100
AcDbLinetypeTableRecord
  2
CONTINUOUS
 70
     0
  3
Solid line
 72
    65
 73
     0
 40
0.0
  0
LTYPE
  5
1F5
330
5
100
AcDbSymbolTableRecord
100
AcDbLinetypeTableRecord
  2
CENTER
 70
     0
  3
____ _ ____ _ ____ _ ____ _ ____ _ ____ _ ____
 72
    65
 73
     4
 40
0.6
 49
0.375
 74
     0
 49
-0.075
 74
     0
 49
0.075
 74
     0
 49
-0.075
 74
     0
  0
LTYPE
  5
1F6
330
5
100
AcDbSymbolTableRecord
100
AcDbLinetypeTableRecord
  2
HIDDEN
 70
     0
  3
- - - - - - - - - - - - - - - - - - - -
 72
    65
 73
     2
 40
0.2
 49
0.1
 74
     0
 49
-0.1
 74
     0
  0
LTYPE
  5
1F7
330
5
100
AcDbSymbolTableRecord
100
AcDbLinetypeTableRecord
  2
PHANTOM
 70
     0
  3
_____ _ _ _____ _ _ _____ _ _ _____
 72
    65
 73
     6
 40
0.8
 49
0.45
 74
     0
 49
-0.05
 74
     0
 49
0.1
 74
     0
 49
-0.05
 74
     0
 49
0.1
 74
     0
 49
-0.05
 74
     0
  0
LTYPE
  5
1F8
330
5
100
AcDbSymbolTableRecord
100
AcDbLinetypeTableRecord
  2
DOT
 70
     0
  3
. . . . . . . . . . . . . . . . . . . .
 72
    65
 73
     2
 40
0.2
 49
0.1
 74
     0
 49
-0.1
 74
     0
  0
LTYPE
  5
1F9
330
5
100
AcDbSymbolTableRecord
100
AcDbLinetypeTableRecord
  2
DASHED
 70
     0
  3
- - - - - - - - - - - - - - - - - - - -
 72
    65
 73
     2
 40
0.2
 49
0.1
 74
     0
 49
-0.1
 74
     0
  0
LTYPE
  5
4D5
330
5
100
AcDbSymbolTableRecord
100
AcDbLinetypeTableRecord
  2
PHANTOM2
 70
     0
  3
Phantom (.5x) ___ _ _ ___ _ _ ___ _ _ ___ _ _
 72
    65
 73
     6
 40
31.75
 49
15.875
 74
     0
 49
-3.174999999999999
 74
     0
 49
3.174999999999999
 74
     0
 49
-3.174999999999999
 74
     0
 49
3.174999999999999
 74
     0
 49
-3.174999999999999
 74
     0
  0
LTYPE
  5
51B
330
5
100
AcDbSymbolTableRecord
100
AcDbLinetypeTableRecord
  2
AM_ISO02W050
 70
     0
  3
__ __ __ __ __ __ __ __ __ __ __ __ __ __ __
 72
    65
 73
     2
 40
7.5
 49
6.0
 74
     0
 49
-1.5
 74
     0
  0
LTYPE
  5
51C
330
5
100
AcDbSymbolTableRecord
100
AcDbLinetypeTableRecord
  2
AM_ISO08W050
 70
     0
  3
____ . ____ . ____ . ____ . ____ . ____ . ____
 72
    65
 73
     4
 40
18.0
 49
12.0
 74
     0
 49
-1.5
 74
     0
 49
3.0
 74
     0
 49
-1.5
 74
     0
  0
LTYPE
  5
51D
330
5
100
AcDbSymbolTableRecord
100
AcDbLinetypeTableRecord
  2
AM_ISO09W050
 70
     0
  3
_____ . . _____ . . _____ . . ____ .. ____
 72
    65
 73
     6
 40
22.5
 49
12.0
 74
     0
 49
-1.5
 74
     0
 49
3.0
 74
     0
 49
-1.5
 74
     0
 49
3.0
 74
     0
 49
-1.5
 74
     0
  0
LTYPE
  5
51E
330
5
100
AcDbSymbolTableRecord
100
AcDbLinetypeTableRecord
  2
Amconstr
 70
     0
  3
_______________________
 72
    65
 73
     2
 40
9999.0
 49
9999.0
 74
     0
 49
0.0
 74
     0
  0
LTYPE
  5
51F
330
5
100
AcDbSymbolTableRecord
100
AcDbLinetypeTableRecord
  2
AM_ISO08W050x2
 70
     0
  3
__ . __ . __ . __ . __ . __
 72
    65
 73
     4
 40
9.0
 49
6.0
 74
     0
 49
-0.75
 74
     0
 49
1.5
 74
     0
 49
-0.75
 74
     0
  0
LTYPE
  5
520
330
5
100
AcDbSymbolTableRecord
100
AcDbLinetypeTableRecord
  2
AM_ISO02W050x2
 70
     0
  3
 _ _ _ _ _ _ _ _ _ _ _ _
 72
    65
 73
     2
 40
3.75
 49
3.0
 74
     0
 49
-0.75
 74
     0
  0
LTYPE
  5
523
330
5
100
AcDbSymbolTableRecord
100
AcDbLinetypeTableRecord
  2
Amzigzag
 70
     0
  3
/\/-/\/-/\/-/\/-/\/-/\/
 72
    65
 73
     2
 40
11.0001
 49
0.0001
 74
     4
 75
   136
340
522
 46
0.04
 50
0.0
 44
0.0
 45
0.0
 49
-11.0
 74
     0
  0
LTYPE
  5
524
330
5
100
AcDbSymbolTableRecord
100
AcDbLinetypeTableRecord
  2
AM_DIN_F_W050
 70
     0
  3
__ __ __ __ __ __ __ __ __ __ __ __ __ __ __
 72
    65
 73
     2
 40
6.25
 49
4.75
 74
     0
 49
-1.5
 74
     0
  0
LTYPE
  5
525
330
5
100
AcDbSymbolTableRecord
100
AcDbLinetypeTableRecord
  2
AM_DIN_G_W050
 70
     0
  3
____ . ____ . ____ . ____ . ____ . ____ . ____
 72
    65
 73
     4
 40
13.75
 49
9.75
 74
     0
 49
-1.5
 74
     0
 49
1.0
 74
     0
 49
-1.5
 74
     0
  0
LTYPE
  5
526
330
5
100
AcDbSymbolTableRecord
100
AcDbLinetypeTableRecord
  2
AM_DIN_K_W050
 70
     0
  3
_____ . . _____ . . _____ . . ____ .. ____
 72
    65
 73
     6
 40
16.25
 49
9.75
 74
     0
 49
-1.5
 74
     0
 49
1.0
 74
     0
 49
-1.5
 74
     0
 49
1.0
 74
     0
 49
-1.5
 74
     0
  0
LTYPE
  5
527
330
5
100
AcDbSymbolTableRecord
100
AcDbLinetypeTableRecord
  2
AM_DIN_G_W050x2
 70
     0
  3
__ . __ . __ . __ . __ . __
 72
    65
 73
     4
 40
6.875
 49
4.75
 74
     0
 49
-0.875
 74
     0
 49
0.375
 74
     0
 49
-0.875
 74
     0
  0
LTYPE
  5
528
330
5
100
AcDbSymbolTableRecord
100
AcDbLinetypeTableRecord
  2
AM_DIN_F_W050x2
 70
     0
  3
 _ _ _ _ _ _ _ _ _ _ _ _
 72
    65
 73
     2
 40
3.125
 49
2.25
 74
     0
 49
-0.875
 74
     0
  0
LTYPE
  5
537
330
5
100
AcDbSymbolTableRecord
100
AcDbLinetypeTableRecord
  2
ACDINWELD
 70
     0
  3
_ _ _ _ _
 72
    65
 73
     2
 40
2.0
 49
2.0
 74
     0
 49
-1.0
 74
     0
  0
LTYPE
  5
538
330
5
100
AcDbSymbolTableRecord
100
AcDbLinetypeTableRecord
  2
ACDINTGB
 70
     0
  3
__ . . __ . .
 72
    65
 73
     6
 40
9.0
 49
4.0
 74
     0
 49
-1.0
 74
     0
 49
1.0
 74
     0
 49
-1.0
 74
     0
 49
1.0
 74
     0
 49
-1.0
 74
     0
  0
LTYPE
  5
539
330
5
100
AcDbSymbolTableRecord
100
AcDbLinetypeTableRecord
  2
ACDINTGL
 70
     0
  3
_ _ _ _ _
 72
    65
 73
     2
 40
3.0
 49
2.0
 74
     0
 49
-1.0
 74
     0
  0
ENDTAB
  0
TABLE
  2
LAYER
  5
2
330
0
100
AcDbSymbolTable
 70
    31
  0
LAYER
  5
10
330
2
100
AcDbSymbolTableRecord
100
AcDbLayerTableRecord
  2
0
 70
     0
 62
     7
  6
CONTINUOUS
370
    -3
390
F
  0
LAYER
  5
1FA
330
2
100
AcDbSymbolTableRecord
100
AcDbLayerTableRecord
  2
DEFAULT_1
 70
     0
 62
     7
  6
CENTER
370
    -3
390
F
  0
LAYER
  5
1FB
330
2
100
AcDbSymbolTableRecord
100
AcDbLayerTableRecord
  2
DEFAULT_2
 70
     0
 62
     8
  6
HIDDEN
370
    -3
390
F
  0
LAYER
  5
1FC
330
2
100
AcDbSymbolTableRecord
100
AcDbLayerTableRecord
  2
DEFAULT_3
 70
     0
 62
     7
  6
PHANTOM
370
    -3
390
F
  0
LAYER
  5
1FD
330
2
100
AcDbSymbolTableRecord
100
AcDbLayerTableRecord
  2
01___PRT_ALL_DTM_PLN
 70
     0
 62
     7
  6
CONTINUOUS
370
    -3
390
F
  0
LAYER
  5
1FE
330
2
100
AcDbSymbolTableRecord
100
AcDbLayerTableRecord
  2
01___PRT_DEF_DTM_PLN
 70
     0
 62
     7
  6
CONTINUOUS
370
    -3
390
F
  0
LAYER
  5
1FF
330
2
100
AcDbSymbolTableRecord
100
AcDbLayerTableRecord
  2
02___PRT_ALL_AXES
 70
     0
 62
     7
  6
CONTINUOUS
370
    -3
390
F
  0
LAYER
  5
200
330
2
100
AcDbSymbolTableRecord
100
AcDbLayerTableRecord
  2
03___PRT_ALL_CURVES
 70
     0
 62
     7
  6
CONTINUOUS
370
    -3
390
F
  0
LAYER
  5
201
330
2
100
AcDbSymbolTableRecord
100
AcDbLayerTableRecord
  2
04___PRT_ALL_DTM_PNT
 70
     0
 62
     7
  6
CONTINUOUS
370
    -3
390
F
  0
LAYER
  5
202
330
2
100
AcDbSymbolTableRecord
100
AcDbLayerTableRecord
  2
05___PRT_ALL_DTM_CSYS
 70
     0
 62
     7
  6
CONTINUOUS
370
    -3
390
F
  0
LAYER
  5
203
330
2
100
AcDbSymbolTableRecord
100
AcDbLayerTableRecord
  2
05___PRT_DEF_DTM_CSYS
 70
     0
 62
     7
  6
CONTINUOUS
370
    -3
390
F
  0
LAYER
  5
204
330
2
100
AcDbSymbolTableRecord
100
AcDbLayerTableRecord
  2
06___PRT_ALL_SURFS
 70
     0
 62
     7
  6
CONTINUOUS
370
    -3
390
F
  0
LAYER
  5
205
330
2
100
AcDbSymbolTableRecord
100
AcDbLayerTableRecord
  2
3D_TEIL_NOTIZ
 70
     0
 62
     7
  6
CONTINUOUS
370
    -3
390
F
  0
LAYER
  5
206
330
2
100
AcDbSymbolTableRecord
100
AcDbLayerTableRecord
  2
ACHSEN
 70
     0
 62
     7
  6
CONTINUOUS
370
    -3
390
F
  0
LAYER
  5
207
330
2
100
AcDbSymbolTableRecord
100
AcDbLayerTableRecord
  2
AUSFORMSCHRAEGEN
 70
     0
 62
     7
  6
CONTINUOUS
370
    -3
390
F
  0
LAYER
  5
208
330
2
100
AcDbSymbolTableRecord
100
AcDbLayerTableRecord
  2
BEZUG
 70
     0
 62
     7
  6
CONTINUOUS
370
    -3
390
F
  0
LAYER
  5
209
330
2
100
AcDbSymbolTableRecord
100
AcDbLayerTableRecord
  2
BEZUGSACHSEN
 70
     0
 62
     7
  6
CONTINUOUS
370
    -3
390
F
  0
LAYER
  5
20A
330
2
100
AcDbSymbolTableRecord
100
AcDbLayerTableRecord
  2
BEZUGSEBENEN
 70
     0
 62
     7
  6
CONTINUOUS
370
    -3
390
F
  0
LAYER
  5
20B
330
2
100
AcDbSymbolTableRecord
100
AcDbLayerTableRecord
  2
BG_STARTBEZUEGE
 70
     0
 62
     7
  6
CONTINUOUS
370
    -3
390
F
  0
LAYER
  5
20C
330
2
100
AcDbSymbolTableRecord
100
AcDbLayerTableRecord
  2
BOHRUNGEN
 70
     0
 62
     7
  6
CONTINUOUS
370
    -3
390
F
  0
LAYER
  5
20D
330
2
100
AcDbSymbolTableRecord
100
AcDbLayerTableRecord
  2
DATUMS
 70
     0
 62
     7
  6
CONTINUOUS
370
    -3
390
F
  0
LAYER
  5
20E
330
2
100
AcDbSymbolTableRecord
100
AcDbLayerTableRecord
  2
DETAILS
 70
     0
 62
     7
  6
CONTINUOUS
370
    -3
390
F
  0
LAYER
  5
20F
330
2
100
AcDbSymbolTableRecord
100
AcDbLayerTableRecord
  2
FASEN
 70
     0
 62
     7
  6
CONTINUOUS
370
    -3
390
F
  0
LAYER
  5
210
330
2
100
AcDbSymbolTableRecord
100
AcDbLayerTableRecord
  2
GEWINDE
 70
     0
 62
     7
  6
CONTINUOUS
370
    -3
390
F
  0
LAYER
  5
211
330
2
100
AcDbSymbolTableRecord
100
AcDbLayerTableRecord
  2
HILFEN
 70
     0
 62
     7
  6
CONTINUOUS
370
    -3
390
F
  0
LAYER
  5
212
330
2
100
AcDbSymbolTableRecord
100
AcDbLayerTableRecord
  2
PLATZIERUNG
 70
     0
 62
     7
  6
CONTINUOUS
370
    -3
390
F
  0
LAYER
  5
213
330
2
100
AcDbSymbolTableRecord
100
AcDbLayerTableRecord
  2
PLAZIERUNG
 70
     0
 62
     7
  6
CONTINUOUS
370
    -3
390
F
  0
LAYER
  5
214
330
2
100
AcDbSymbolTableRecord
100
AcDbLayerTableRecord
  2
RUNDUNGEN
 70
     0
 62
     7
  6
CONTINUOUS
370
    -3
390
F
  0
LAYER
  5
215
330
2
100
AcDbSymbolTableRecord
100
AcDbLayerTableRecord
  2
TEIL_STARTBEZUEGE
 70
     0
 62
     7
  6
CONTINUOUS
370
    -3
390
F
  0
LAYER
  5
216
330
2
100
AcDbSymbolTableRecord
100
AcDbLayerTableRecord
  2
ZEICHNUNGSBEMASSUNGEN
 70
     0
 62
     7
  6
CONTINUOUS
370
    -3
390
F
  0
LAYER
  5
547
330
2
100
AcDbSymbolTableRecord
100
AcDbLayerTableRecord
  2
Defpoints
 70
     0
 62
     7
  6
CONTINUOUS
290
     0
370
    -3
390
F
  0
ENDTAB
  0
TABLE
  2
STYLE
  5
3
330
0
100
AcDbSymbolTable
 70
     6
  0
STYLE
  5
11
330
3
100
AcDbSymbolTableRecord
100
AcDbTextStyleTableRecord
  2
STANDARD
 70
     0
 40
0.0
 41
0.7
 50
0.0
 71
     0
 42
0.2
  3
txt
  4

  0
STYLE
  5
217
330
3
100
AcDbSymbolTableRecord
100
AcDbTextStyleTableRecord
  2
TEXTSTYLE_1
 70
     0
 40
0.0
 41
0.8
 50
0.0
 71
     0
 42
0.2
  3
gdt
  4

  0
STYLE
  5
218
330
3
100
AcDbSymbolTableRecord
100
AcDbTextStyleTableRecord
  2
TEXTSTYLE_2
 70
     0
 40
0.0
 41
0.7
 50
0.0
 71
     0
 42
0.2
  3
gdt
  4

  0
STYLE
  5
522
330
3
100
AcDbSymbolTableRecord
100
AcDbTextStyleTableRecord
  2

 70
     1
 40
0.0
 41
1.0
 50
0.0
 71
     0
 42
0.2
  3
genltshp.shx
  4

  0
STYLE
  5
535
330
3
100
AcDbSymbolTableRecord
100
AcDbTextStyleTableRecord
  2
ACDINTS
 70
     0
 40
1.0
 41
1.0
 50
0.0
 71
     0
 42
0.2
  3
isocp.shx
  4

  0
STYLE
  5
536
330
3
100
AcDbSymbolTableRecord
100
AcDbTextStyleTableRecord
  2
ACDINGDT
 70
     0
 40
0.0
 41
1.0
 50
0.0
 71
     0
 42
0.2
  3
amgdt.shx
  4

  0
ENDTAB
  0
TABLE
  2
VIEW
  5
6
330
0
100
AcDbSymbolTable
 70
     0
  0
ENDTAB
  0
TABLE
  2
UCS
  5
7
330
0
100
AcDbSymbolTable
 70
     0
  0
ENDTAB
  0
TABLE
  2
APPID
  5
9
330
0
100
AcDbSymbolTable
 70
    21
  0
APPID
  5
219
330
9
100
AcDbSymbolTableRecord
100
AcDbRegAppTableRecord
  2
ACAD
 70
     0
  0
APPID
  5
4AA
330
9
100
AcDbSymbolTableRecord
100
AcDbRegAppTableRecord
  2
MCAD_NO_VIS
 70
     0
  0
APPID
  5
4AB
330
9
100
AcDbSymbolTableRecord
100
AcDbRegAppTableRecord
  2
ACAD_TEMP_GRAPHIC
 70
     0
  0
APPID
  5
4D7
330
9
100
AcDbSymbolTableRecord
100
AcDbRegAppTableRecord
  2
AD_DRAW
 70
     0
  0
APPID
  5
4DA
330
9
100
AcDbSymbolTableRecord
100
AcDbRegAppTableRecord
  2
ACATTRIBSERVICES
 70
     0
  0
APPID
  5
4FA
330
9
100
AcDbSymbolTableRecord
100
AcDbRegAppTableRecord
  2
DESIGNERASSEMBLIES
 70
     0
  0
APPID
  5
500
330
9
100
AcDbSymbolTableRecord
100
AcDbRegAppTableRecord
  2
ACADM_DIM_EDIT
 70
     0
  0
APPID
  5
501
330
9
100
AcDbSymbolTableRecord
100
AcDbRegAppTableRecord
  2
AMDT_DM_ADJ
 70
     0
  0
APPID
  5
518
330
9
100
AcDbSymbolTableRecord
100
AcDbRegAppTableRecord
  2
ACAD_DSTYLE_DIMJAG
 70
     0
  0
APPID
  5
519
330
9
100
AcDbSymbolTableRecord
100
AcDbRegAppTableRecord
  2
ACAD_DSTYLE_DIMBREAK
 70
     0
  0
APPID
  5
548
330
9
100
AcDbSymbolTableRecord
100
AcDbRegAppTableRecord
  2
AcAecLayerStandard
 70
     0
  0
APPID
  5
549
330
9
100
AcDbSymbolTableRecord
100
AcDbRegAppTableRecord
  2
GENIUS_GENODEF_13
 70
     0
  0
APPID
  5
54A
330
9
100
AcDbSymbolTableRecord
100
AcDbRegAppTableRecord
  2
GENIUS_GENOBJ-N-HTC_13
 70
     0
  0
APPID
  5
54B
330
9
100
AcDbSymbolTableRecord
100
AcDbRegAppTableRecord
  2
GENIUS_GENHATCH_13
 70
     0
  0
APPID
  5
54C
330
9
100
AcDbSymbolTableRecord
100
AcDbRegAppTableRecord
  2
ACAD_EXEMPT_FROM_CAD_STANDARDS
 70
     0
  0
APPID
  5
54D
330
9
100
AcDbSymbolTableRecord
100
AcDbRegAppTableRecord
  2
ACAD_MLEADERVER
 70
     0
  0
APPID
  5
54E
330
9
100
AcDbSymbolTableRecord
100
AcDbRegAppTableRecord
  2
ACAD_DSTYLE_DIMJOGGED_JOGANGLE_SYMBOL
 70
     0
  0
APPID
  5
54F
330
9
100
AcDbSymbolTableRecord
100
AcDbRegAppTableRecord
  2
ACAD_DSTYLE_DIM_LINETYPE
 70
     0
  0
APPID
  5
550
330
9
100
AcDbSymbolTableRecord
100
AcDbRegAppTableRecord
  2
ACAD_DSTYLE_DIM_EXT1_LINETYPE
 70
     0
  0
APPID
  5
551
330
9
100
AcDbSymbolTableRecord
100
AcDbRegAppTableRecord
  2
ACAD_DSTYLE_DIM_EXT2_LINETYPE
 70
     0
  0
APPID
  5
552
330
9
100
AcDbSymbolTableRecord
100
AcDbRegAppTableRecord
  2
ACAD_DSTYLE_DIMINSPECT
 70
     0
  0
ENDTAB
  0
TABLE
  2
DIMSTYLE
  5
A
330
0
100
AcDbSymbolTable
 70
    10
100
AcDbDimStyleTable
 71
     1
340
223
  0
DIMSTYLE
105
221
330
A
100
AcDbSymbolTableRecord
100
AcDbDimStyleTableRecord
  2
STANDARD
 70
     0
 41
3.5
 47
0.005
 48
0.005
 71
     1
 73
     0
 74
     0
 77
     1
 78
     8
140
3.5
178
     5
271
     3
272
     3
284
     8
340
11
341
21C
342
21C
343
21C
344
21C
  0
DIMSTYLE
105
222
330
A
100
AcDbSymbolTableRecord
100
AcDbDimStyleTableRecord
  2
DIMSTYLE_1
 70
     0
 41
3.5
 47
0.5
 48
0.5
 73
     0
 74
     0
 77
     1
 78
     8
140
3.5
178
     5
271
     0
272
     0
284
     8
340
11
341
21C
342
21C
343
21C
344
21C
  0
DIMSTYLE
105
223
102
{ACAD_REACTORS
330
251
330
250
330
24E
330
24F
102
}
330
A
100
AcDbSymbolTableRecord
100
AcDbDimStyleTableRecord
  2
DIMSTYLE_2
 70
     0
 41
3.5
 47
0.5
 48
0.5
 73
     0
 74
     0
 77
     1
 78
     8
140
3.5
178
     5
271
     3
272
     3
284
     8
340
11
341
21C
342
21C
343
21C
344
21C
  0
DIMSTYLE
105
517
102
{ACAD_REACTORS
330
506
102
}
330
A
100
AcDbSymbolTableRecord
100
AcDbDimStyleTableRecord
  2
AM_DIN
 70
     0
  4
"
 41
3.5
 42
1.0
 43
10.0
 44
1.0
 47
0.1
 48
0.1
 73
     0
 74
     0
 77
     1
 78
     8
 79
     2
140
3.5
141
0.0
143
0.0393701
146
0.71
147
1.5
172
     1
176
   256
177
   256
178
     2
271
     2
272
     3
274
     4
283
     0
284
     8
340
11
371
    -1
372
    -1
1001
ACAD_DSTYLE_DIMJAG
1070
   388
1040
1.5
1001
ACAD_DSTYLE_DIMBREAK
1070
   391
1040
3.75
1001
ACAD_DSTYLE_DIMJOGGED_JOGANGLE_SYMBOL
1070
   384
1040
1.570796326794896
1001
ACAD_DSTYLE_DIM_LINETYPE
1070
   380
1005
14
1001
ACAD_DSTYLE_DIM_EXT1_LINETYPE
1070
   381
1005
14
1001
ACAD_DSTYLE_DIM_EXT2_LINETYPE
1070
   382
1005
14
  0
DIMSTYLE
105
529
330
A
100
AcDbSymbolTableRecord
100
AcDbDimStyleTableRecord
  2
AM_DIN$3
 70
     0
  4
"
 41
3.5
 42
1.0
 43
10.0
 44
1.0
 47
0.1
 48
0.1
 73
     0
 77
     1
 78
     8
 79
     2
140
3.5
141
0.0
143
0.0393701
146
0.71
147
1.5
176
   256
177
   256
178
     2
271
     2
272
     3
274
     4
283
     0
284
     8
288
     1
289
     0
340
11
371
    -1
372
    -1
1001
ACAD_DSTYLE_DIMBREAK
1070
   391
1040
3.75
1001
ACAD_DSTYLE_DIMJAG
1070
   388
1040
1.5
1001
ACAD_DSTYLE_DIMJOGGED_JOGANGLE_SYMBOL
1070
   384
1040
1.570796326794896
1001
ACAD_DSTYLE_DIM_LINETYPE
1070
   380
1005
14
1001
ACAD_DSTYLE_DIM_EXT1_LINETYPE
1070
   381
1005
14
1001
ACAD_DSTYLE_DIM_EXT2_LINETYPE
1070
   382
1005
14
  0
DIMSTYLE
105
52A
330
A
100
AcDbSymbolTableRecord
100
AcDbDimStyleTableRecord
  2
AM_DIN$4
 70
     0
  4
"
 41
3.5
 42
1.0
 43
10.0
 44
1.0
 47
0.1
 48
0.1
 73
     0
 77
     1
 78
     8
 79
     2
140
3.5
141
0.0
143
0.0393701
146
0.71
147
1.5
176
   256
177
   256
178
     2
271
     2
272
     3
274
     4
283
     0
284
     8
288
     1
289
     0
340
11
371
    -1
372
    -1
1001
ACAD_DSTYLE_DIMBREAK
1070
   391
1040
3.75
1001
ACAD_DSTYLE_DIMJAG
1070
   388
1040
1.5
1001
ACAD_DSTYLE_DIMJOGGED_JOGANGLE_SYMBOL
1070
   384
1040
1.570796326794896
1001
ACAD_DSTYLE_DIM_LINETYPE
1070
   380
1005
14
1001
ACAD_DSTYLE_DIM_EXT1_LINETYPE
1070
   381
1005
14
1001
ACAD_DSTYLE_DIM_EXT2_LINETYPE
1070
   382
1005
14
  0
DIMSTYLE
105
52B
330
A
100
AcDbSymbolTableRecord
100
AcDbDimStyleTableRecord
  2
AM_DIN$6
 70
     0
  4
"
 41
3.5
 42
1.0
 43
10.0
 44
1.0
 47
0.1
 48
0.1
 73
     0
 74
     0
 78
     8
 79
     2
140
3.5
141
0.0
143
0.0393701
146
0.71
147
1.5
172
     1
176
   256
177
   256
178
     2
271
     2
272
     3
274
     4
283
     0
284
     8
340
11
371
    -1
372
    -1
1001
ACAD_DSTYLE_DIMBREAK
1070
   391
1040
3.75
1001
ACAD_DSTYLE_DIMJAG
1070
   388
1040
1.5
1001
ACAD_DSTYLE_DIMJOGGED_JOGANGLE_SYMBOL
1070
   384
1040
1.570796326794896
1001
ACAD_DSTYLE_DIM_LINETYPE
1070
   380
1005
14
1001
ACAD_DSTYLE_DIM_EXT1_LINETYPE
1070
   381
1005
14
1001
ACAD_DSTYLE_DIM_EXT2_LINETYPE
1070
   382
1005
14
  0
DIMSTYLE
105
52C
330
A
100
AcDbSymbolTableRecord
100
AcDbDimStyleTableRecord
  2
AM_DIN$7
 70
     0
  4
"
 41
3.5
 42
1.0
 43
10.0
 44
1.0
 47
0.1
 48
0.1
 73
     0
 74
     0
 77
     1
 78
     8
 79
     2
140
3.5
141
0.0
143
0.0393701
146
0.71
147
1.5
172
     1
176
   256
177
   256
178
     2
271
     2
272
     3
274
     4
283
     0
284
     8
340
11
371
    -1
372
    -1
1001
ACAD_DSTYLE_DIMBREAK
1070
   391
1040
3.75
1001
ACAD_DSTYLE_DIMJAG
1070
   388
1040
1.5
1001
ACAD_DSTYLE_DIMJOGGED_JOGANGLE_SYMBOL
1070
   384
1040
1.570796326794896
1001
ACAD_DSTYLE_DIM_LINETYPE
1070
   380
1005
14
1001
ACAD_DSTYLE_DIM_EXT1_LINETYPE
1070
   381
1005
14
1001
ACAD_DSTYLE_DIM_EXT2_LINETYPE
1070
   382
1005
14
  0
DIMSTYLE
105
52D
330
A
100
AcDbSymbolTableRecord
100
AcDbDimStyleTableRecord
  2
AM_DIN$SF
 70
     0
  4
"
 41
3.5
 42
1.0
 43
10.0
 44
1.0
 47
0.1
 48
0.1
 73
     0
 74
     0
 75
     1
 76
     1
 77
     1
 78
     8
 79
     2
140
3.5
141
0.0
143
0.0393701
146
0.71
147
1.5
172
     1
176
   256
177
   256
178
     2
271
     2
272
     3
274
     4
283
     0
284
     8
340
11
371
    -1
372
    -1
1001
ACAD_DSTYLE_DIMBREAK
1070
   391
1040
3.75
1001
ACAD_DSTYLE_DIMJAG
1070
   388
1040
1.5
1001
ACAD_DSTYLE_DIMJOGGED_JOGANGLE_SYMBOL
1070
   384
1040
1.570796326794896
1001
ACAD_DSTYLE_DIM_LINETYPE
1070
   380
1005
14
1001
ACAD_DSTYLE_DIM_EXT1_LINETYPE
1070
   381
1005
14
1001
ACAD_DSTYLE_DIM_EXT2_LINETYPE
1070
   382
1005
14
  0
DIMSTYLE
105
532
330
A
100
AcDbSymbolTableRecord
100
AcDbDimStyleTableRecord
  2
AM_DIN$SH
 70
     0
  4
"
 41
3.5
 42
1.0
 43
10.0
 44
1.0
 47
0.1
 48
0.1
 73
     0
 74
     0
 75
     1
 76
     1
 77
     1
 78
     8
 79
     2
140
3.5
141
0.0
143
0.0393701
144
2.0
146
0.71
147
1.5
172
     1
173
     1
176
   256
177
   256
178
     2
271
     2
272
     3
274
     4
283
     0
284
     8
340
11
343
52E
371
    -1
372
    -1
1001
ACAD_DSTYLE_DIMBREAK
1070
   391
1040
3.75
1001
ACAD_DSTYLE_DIMJAG
1070
   388
1040
1.5
1001
ACAD_DSTYLE_DIMJOGGED_JOGANGLE_SYMBOL
1070
   384
1040
1.570796326794896
1001
ACAD_DSTYLE_DIM_LINETYPE
1070
   380
1005
14
1001
ACAD_DSTYLE_DIM_EXT1_LINETYPE
1070
   381
1005
14
1001
ACAD_DSTYLE_DIM_EXT2_LINETYPE
1070
   382
1005
14
  0
ENDTAB
  0
TABLE
  2
BLOCK_RECORD
  5
1
330
0
100
AcDbSymbolTable
 70
    12
  0
BLOCK_RECORD
  5
21A
330
1
100
AcDbSymbolTableRecord
100
AcDbBlockTableRecord
  2
*Model_Space
340
45A
  0
BLOCK_RECORD
  5
21B
330
1
100
AcDbSymbolTableRecord
100
AcDbBlockTableRecord
  2
*Paper_Space
340
45B
  0
BLOCK_RECORD
  5
21C
330
1
100
AcDbSymbolTableRecord
100
AcDbBlockTableRecord
  2
_FILLED
340
0
102
{BLKREFS
331
559
331
55A
331
563
331
564
331
56F
331
570
331
585
331
586
331
59B
331
59C
331
5A5
331
5A6
331
5AE
331
5AF
331
5B7
331
5B8
102
}
  0
BLOCK_RECORD
  5
21D
330
1
100
AcDbSymbolTableRecord
100
AcDbBlockTableRecord
  2
*D1
340
0
  0
BLOCK_RECORD
  5
21E
330
1
100
AcDbSymbolTableRecord
100
AcDbBlockTableRecord
  2
*D2
340
0
  0
BLOCK_RECORD
  5
21F
330
1
100
AcDbSymbolTableRecord
100
AcDbBlockTableRecord
  2
*D3
340
0
  0
BLOCK_RECORD
  5
220
330
1
100
AcDbSymbolTableRecord
100
AcDbBlockTableRecord
  2
*D4
340
0
  0
BLOCK_RECORD
  5
52E
330
1
100
AcDbSymbolTableRecord
100
AcDbBlockTableRecord
  2
GENAXEH
340
0
  0
ENDTAB
  0
ENDSEC
  0
SECTION
  2
BLOCKS
  0
BLOCK
  5
20
330
21A
100
AcDbEntity
  8
0
100
AcDbBlockBegin
  2
*Model_Space
 70
     0
 10
0.0
 20
0.0
 30
0.0
  3
*Model_Space
  1

  0
ENDBLK
  5
21
330
21A
100
AcDbEntity
  8
0
100
AcDbBlockEnd
  0
BLOCK
  5
1C
330
21B
100
AcDbEntity
 67
     1
  8
0
100
AcDbBlockBegin
  2
*Paper_Space
 70
     0
 10
0.0
 20
0.0
 30
0.0
  3
*Paper_Space
  1

  0
ENDBLK
  5
1D
330
21B
100
AcDbEntity
 67
     1
  8
0
100
AcDbBlockEnd
  0
BLOCK
  5
224
330
21C
100
AcDbEntity
  8
0
100
AcDbBlockBegin
  2
_FILLED
 70
     0
 10
0.0
 20
0.0
 30
0.0
  3
_FILLED
  1

  0
SOLID
  5
225
330
21C
100
AcDbEntity
  8
0
  6
ByBlock
 62
     0
100
AcDbTrace
 10
0.0
 20
0.0
 30
0.0
 11
-1.0
 21
0.125
 31
0.0
 12
-1.0
 22
-0.125
 32
0.0
 13
-1.0
 23
-0.125
 33
0.0
  0
ENDBLK
  5
226
330
21C
100
AcDbEntity
  8
0
  6
ByBlock
 62
     0
100
AcDbBlockEnd
  0
BLOCK
  5
227
330
21D
100
AcDbEntity
  8
ZEICHNUNGSBEMASSUNGEN
  6
Continuous
 62
     2
100
AcDbBlockBegin
  2
*D1
 70
     1
 10
0.0
 20
0.0
 30
0.0
  3
*D1
  1

  0
LINE
  5
5AB
330
21D
100
AcDbEntity
  8
ZEICHNUNGSBEMASSUNGEN
  6
Continuous
 62
     0
370
    -2
100
AcDbLine
 10
273.8232519423
 20
43.91470588239999
 30
0.0
 11
273.8232519423
 21
31.76978983593558
 31
0.0
  0
LINE
  5
5AC
330
21D
100
AcDbEntity
  8
ZEICHNUNGSBEMASSUNGEN
  6
Continuous
 62
     0
370
    -2
100
AcDbLine
 10
149.3232519423
 20
43.91470588239999
 30
0.0
 11
149.3232519423
 21
31.76978983593558
 31
0.0
  0
LINE
  5
5AD
330
21D
100
AcDbEntity
  8
ZEICHNUNGSBEMASSUNGEN
  6
Continuous
 62
     0
370
    -2
100
AcDbLine
 10
268.8232519423
 20
31.94978983593558
 30
0.0
 11
154.3232519423
 21
31.94978983593558
 31
0.0
  0
INSERT
  5
5AE
330
21D
100
AcDbEntity
  8
ZEICHNUNGSBEMASSUNGEN
  6
Continuous
 62
     0
370
    -2
100
AcDbBlockReference
  2
_FILLED
 10
273.8232519423
 20
31.94978983593558
 30
0.0
 41
5.0
 42
5.0
 43
5.0
  0
INSERT
  5
5AF
330
21D
100
AcDbEntity
  8
ZEICHNUNGSBEMASSUNGEN
  6
Continuous
 62
     0
370
    -2
100
AcDbBlockReference
  2
_FILLED
 10
149.3232519423
 20
31.94978983593558
 30
0.0
 41
5.0
 42
5.0
 43
5.0
 50
180.0
  0
MTEXT
  5
5B0
330
21D
100
AcDbEntity
  8
ZEICHNUNGSBEMASSUNGEN
  6
Continuous
100
AcDbMText
 10
213.4771590433766
 20
40.44978983593558
 30
0.0
 40
7.0
 41
0.0
 71
     2
 72
     1
  1
\A1;%%c125
 73
     1
 44
1.0
1001
ACAD
1000
MTEXTBEGIN
1070
    73
1070
     1
1070
    44
1040
1.0
1070
    74
1070
     0
1000
MTEXTEND
  0
POINT
  5
5B1
330
21D
100
AcDbEntity
  8
Defpoints
  6
Continuous
 62
     0
100
AcDbPoint
 10
273.8232519423
 20
43.9772058824
 30
0.0
  0
POINT
  5
5B2
330
21D
100
AcDbEntity
  8
Defpoints
  6
Continuous
 62
     0
100
AcDbPoint
 10
149.3232519423
 20
43.9772058824
 30
0.0
  0
POINT
  5
5B3
330
21D
100
AcDbEntity
  8
Defpoints
  6
Continuous
 62
     0
100
AcDbPoint
 10
149.3232519423
 20
31.94978983593558
 30
0.0
  0
ENDBLK
  5
22F
330
21D
100
AcDbEntity
  8
0
  6
ByBlock
 62
     0
100
AcDbBlockEnd
  0
BLOCK
  5
230
330
21E
100
AcDbEntity
  8
ZEICHNUNGSBEMASSUNGEN
  6
Continuous
 62
     2
100
AcDbBlockBegin
  2
*D2
 70
     1
 10
0.0
 20
0.0
 30
0.0
  3
*D2
  1

  0
LINE
  5
5A2
330
21E
100
AcDbEntity
  8
ZEICHNUNGSBEMASSUNGEN
  6
Continuous
 62
     0
370
    -2
100
AcDbLine
 10
361.0281916917
 20
192.4772058824
 30
0.0
 11
370.8085280028001
 21
192.4772058824
 31
0.0
  0
LINE
  5
5A3
330
21E
100
AcDbEntity
  8
ZEICHNUNGSBEMASSUNGEN
  6
Continuous
 62
     0
370
    -2
100
AcDbLine
 10
274.4030546792
 20
45.47720588239999
 30
0.0
 11
370.8085280028
 21
45.47720588239997
 31
0.0
  0
LINE
  5
5A4
330
21E
100
AcDbEntity
  8
ZEICHNUNGSBEMASSUNGEN
  6
Continuous
 62
     0
370
    -2
100
AcDbLine
 10
370.6285280028001
 20
187.4772058824
 30
0.0
 11
370.6285280028
 21
50.47720588239997
 31
0.0
  0
INSERT
  5
5A5
330
21E
100
AcDbEntity
  8
ZEICHNUNGSBEMASSUNGEN
  6
Continuous
 62
     0
370
    -2
100
AcDbBlockReference
  2
_FILLED
 10
370.6285280028001
 20
192.4772058824
 30
0.0
 41
5.0
 42
5.0
 43
5.0
 50
90.0
  0
INSERT
  5
5A6
330
21E
100
AcDbEntity
  8
ZEICHNUNGSBEMASSUNGEN
  6
Continuous
 62
     0
370
    -2
100
AcDbBlockReference
  2
_FILLED
 10
370.6285280028
 20
45.47720588239997
 30
0.0
 41
5.0
 42
5.0
 43
5.0
 50
270.0
  0
MTEXT
  5
5A7
330
21E
100
AcDbEntity
  8
ZEICHNUNGSBEMASSUNGEN
  6
Continuous
100
AcDbMText
 10
362.1285280028
 20
115.6247183939
 30
0.0
 40
7.0
 41
0.0
 71
     2
 72
     1
  1
\A1;147
 11
0.0000000000000001
 21
1.0
 31
0.0
 73
     1
 44
1.0
1001
ACAD
1000
MTEXTBEGIN
1070
    73
1070
     1
1070
    44
1040
1.0
1070
    74
1070
     0
1000
MTEXTEND
  0
POINT
  5
5A8
330
21E
100
AcDbEntity
  8
Defpoints
  6
Continuous
 62
     0
100
AcDbPoint
 10
360.9656916917
 20
192.4772058824
 30
0.0
  0
POINT
  5
5A9
330
21E
100
AcDbEntity
  8
Defpoints
  6
Continuous
 62
     0
100
AcDbPoint
 10
274.3405546792
 20
45.47720588239999
 30
0.0
  0
POINT
  5
5AA
330
21E
100
AcDbEntity
  8
Defpoints
  6
Continuous
 62
     0
100
AcDbPoint
 10
370.6285280028
 20
45.47720588239997
 30
0.0
  0
ENDBLK
  5
238
330
21E
100
AcDbEntity
  8
0
  6
ByBlock
 62
     0
100
AcDbBlockEnd
  0
BLOCK
  5
239
330
21F
100
AcDbEntity
  8
ZEICHNUNGSBEMASSUNGEN
  6
Continuous
 62
     2
100
AcDbBlockBegin
  2
*D3
 70
     1
 10
0.0
 20
0.0
 30
0.0
  3
*D3
  1

  0
LINE
  5
5B4
330
21F
100
AcDbEntity
  8
ZEICHNUNGSBEMASSUNGEN
  6
Continuous
 62
     0
370
    -2
100
AcDbLine
 10
361.5732519423001
 20
198.0397058824
 30
0.0
 11
361.5732519423001
 21
253.9624878764787
 31
0.0
  0
LINE
  5
5B5
330
21F
100
AcDbEntity
  8
ZEICHNUNGSBEMASSUNGEN
  6
Continuous
 62
     0
370
    -2
100
AcDbLine
 10
61.5732519423
 20
198.0397058824
 30
0.0
 11
61.5732519423
 21
253.9624878764787
 31
0.0
  0
LINE
  5
5B6
330
21F
100
AcDbEntity
  8
ZEICHNUNGSBEMASSUNGEN
  6
Continuous
 62
     0
370
    -2
100
AcDbLine
 10
356.5732519423
 20
253.7824878764786
 30
0.0
 11
66.57325194230001
 21
253.7824878764786
 31
0.0
  0
INSERT
  5
5B7
330
21F
100
AcDbEntity
  8
ZEICHNUNGSBEMASSUNGEN
  6
Continuous
 62
     0
370
    -2
100
AcDbBlockReference
  2
_FILLED
 10
361.5732519423001
 20
253.7824878764786
 30
0.0
 41
5.0
 42
5.0
 43
5.0
  0
INSERT
  5
5B8
330
21F
100
AcDbEntity
  8
ZEICHNUNGSBEMASSUNGEN
  6
Continuous
 62
     0
370
    -2
100
AcDbBlockReference
  2
_FILLED
 10
61.5732519423
 20
253.7824878764786
 30
0.0
 41
5.0
 42
5.0
 43
5.0
 50
180.0
  0
MTEXT
  5
5B9
330
21F
100
AcDbEntity
  8
ZEICHNUNGSBEMASSUNGEN
  6
Continuous
100
AcDbMText
 10
209.3999129351546
 20
262.2824878764786
 30
0.0
 40
7.0
 41
0.0
 71
     2
 72
     1
  1
\A1;%%c300
 73
     1
 44
1.0
1001
ACAD
1000
MTEXTBEGIN
1070
    73
1070
     1
1070
    44
1040
1.0
1070
    74
1070
     0
1000
MTEXTEND
  0
POINT
  5
5BA
330
21F
100
AcDbEntity
  8
Defpoints
  6
Continuous
 62
     0
100
AcDbPoint
 10
361.5732519423001
 20
197.9772058824
 30
0.0
  0
POINT
  5
5BB
330
21F
100
AcDbEntity
  8
Defpoints
  6
Continuous
 62
     0
100
AcDbPoint
 10
61.5732519423
 20
197.9772058824
 30
0.0
  0
POINT
  5
5BC
330
21F
100
AcDbEntity
  8
Defpoints
  6
Continuous
 62
     0
100
AcDbPoint
 10
61.5732519423
 20
253.7824878764786
 30
0.0
  0
ENDBLK
  5
241
330
21F
100
AcDbEntity
  8
0
  6
ByBlock
 62
     0
100
AcDbBlockEnd
  0
BLOCK
  5
242
330
220
100
AcDbEntity
  8
ZEICHNUNGSBEMASSUNGEN
  6
Continuous
 62
     2
100
AcDbBlockBegin
  2
*D4
 70
     1
 10
0.0
 20
0.0
 30
0.0
  3
*D4
  1

  0
LINE
  5
560
330
220
100
AcDbEntity
  8
ZEICHNUNGSBEMASSUNGEN
  6
Continuous
 62
     0
370
    -2
100
AcDbLine
 10
289.2954895419
 20
186.5266174082
 30
0.0
 11
289.2954895419
 21
243.4822058824
 31
0.0
  0
LINE
  5
561
330
220
100
AcDbEntity
  8
ZEICHNUNGSBEMASSUNGEN
  6
Continuous
 62
     0
370
    -2
100
AcDbLine
 10
133.8510143427
 20
186.5266174082
 30
0.0
 11
133.8510143427
 21
243.4822058824
 31
0.0
  0
LINE
  5
562
330
220
100
AcDbEntity
  8
ZEICHNUNGSBEMASSUNGEN
  6
Continuous
 62
     0
370
    -2
100
AcDbLine
 10
284.2954895419
 20
243.3022058824
 30
0.0
 11
138.8510143427
 21
243.3022058824
 31
0.0
  0
INSERT
  5
563
330
220
100
AcDbEntity
  8
ZEICHNUNGSBEMASSUNGEN
  6
Continuous
 62
     0
370
    -2
100
AcDbBlockReference
  2
_FILLED
 10
289.2954895419
 20
243.3022058824
 30
0.0
 41
5.0
 42
5.0
 43
5.0
  0
INSERT
  5
564
330
220
100
AcDbEntity
  8
ZEICHNUNGSBEMASSUNGEN
  6
Continuous
 62
     0
370
    -2
100
AcDbBlockReference
  2
_FILLED
 10
133.8510143427
 20
243.3022058824
 30
0.0
 41
5.0
 42
5.0
 43
5.0
 50
180.0
  0
MTEXT
  5
565
330
220
100
AcDbEntity
  8
ZEICHNUNGSBEMASSUNGEN
  6
Continuous
100
AcDbMText
 10
208.6565852756
 20
251.8022058824
 30
0.0
 40
7.0
 41
0.0
 71
     2
 72
     1
  1
\A1;%%c155
 73
     1
 44
1.0
1001
ACAD
1000
MTEXTBEGIN
1070
    73
1070
     1
1070
    44
1040
1.0
1070
    74
1070
     0
1000
MTEXTEND
  0
POINT
  5
566
330
220
100
AcDbEntity
  8
Defpoints
  6
Continuous
 62
     0
100
AcDbPoint
 10
289.2954895419
 20
186.4641174082
 30
0.0
  0
POINT
  5
567
330
220
100
AcDbEntity
  8
Defpoints
  6
Continuous
 62
     0
100
AcDbPoint
 10
133.8510143427
 20
186.4641174082
 30
0.0
  0
POINT
  5
568
330
220
100
AcDbEntity
  8
Defpoints
  6
Continuous
 62
     0
100
AcDbPoint
 10
133.8510143427
 20
243.3022058824
 30
0.0
  0
ENDBLK
  5
24A
330
220
100
AcDbEntity
  8
0
  6
ByBlock
 62
     0
100
AcDbBlockEnd
  0
BLOCK
  5
530
330
52E
100
AcDbEntity
  8
0
100
AcDbBlockBegin
  2
GENAXEH
 70
     0
 10
0.0
 20
0.0
 30
0.0
  3
GENAXEH
  1

  0
LINE
  5
52F
330
52E
100
AcDbEntity
  8
0
100
AcDbLine
 10
-1.0
 20
0.0
 30
0.0
 11
1.0
 21
0.0
 31
0.0
  0
ENDBLK
  5
531
330
52E
100
AcDbEntity
  8
0
100
AcDbBlockEnd
  0
ENDSEC
  0
SECTION
  2
ENTITIES
  0
HATCH
  5
24B
330
21A
100
AcDbEntity
  8
0
  6
Continuous
 62
     1
100
AcDbHatch
 10
0.0
 20
0.0
 30
0.0
210
0.0
220
0.0
230
1.0
  2
DEFAULT__1
 70
     0
 71
     0
 91
        2
 92
        1
 93
       22
 72
     1
 10
148.8773618458
 20
67.83313188060001
 11
143.663316616
 21
66.6772058824
 72
     1
 10
143.663316616
 20
66.6772058824
 11
143.4517242391
 21
65.4772058824
 72
     1
 10
143.4517242391
 20
65.4772058824
 11
142.5732892129
 21
65.4772058824
 72
     1
 10
142.5732892129
 20
65.4772058824
 11
141.0732519423
 21
66.97724396319999
 72
     1
 10
141.0732519423
 20
67.40720588239999
 11
141.0732519423
 21
66.97724396319999
 72
     4
 94
        3
 73
     1
 74
     0
 95
       11
 96
        7
 40
0.0
 40
0.0
 40
0.0
 40
0.0
 40
1.0
 40
1.0
 40
1.0
 40
2.0
 40
2.0
 40
2.0
 40
2.0
 10
141.0732519423
 20
68.40720588239999
 42
1.0
 10
140.7803587235
 20
68.40720588239999
 42
0.8047378541
 10
140.5732519423
 20
68.20009910119999
 42
0.8047378541
 10
140.5732519423
 20
67.90720588239999
 42
1.0
 10
140.5732519423
 20
67.6143126635
 42
0.8047378541
 10
140.7803587235
 20
67.40720588239999
 42
0.8047378541
 10
141.0732519423
 20
67.40720588239999
 42
1.0
 72
     1
 10
141.0732519423
 20
69.2072058824
 11
141.0732519423
 21
68.40720588239999
 72
     4
 94
        3
 73
     1
 74
     0
 95
       11
 96
        7
 40
0.0
 40
0.0
 40
0.0
 40
0.0
 40
1.0
 40
1.0
 40
1.0
 40
2.0
 40
2.0
 40
2.0
 40
2.0
 10
141.0732519423
 20
70.2072058824
 42
1.0
 10
140.7803587235
 20
70.2072058824
 42
0.8047378541
 10
140.5732519423
 20
70.00009910119999
 42
0.8047378541
 10
140.5732519423
 20
69.7072058824
 42
1.0
 10
140.5732519423
 20
69.4143126635
 42
0.8047378541
 10
140.7803587235
 20
69.2072058824
 42
0.8047378541
 10
141.0732519423
 20
69.2072058824
 42
1.0
 72
     1
 10
141.0732519423
 20
71.0072058824
 11
141.0732519423
 21
70.2072058824
 72
     4
 94
        3
 73
     1
 74
     0
 95
       11
 96
        7
 40
0.0
 40
0.0
 40
0.0
 40
0.0
 40
1.0
 40
1.0
 40
1.0
 40
2.0
 40
2.0
 40
2.0
 40
2.0
 10
141.0732519423
 20
72.0072058824
 42
1.0
 10
140.7803587235
 20
72.0072058824
 42
0.8047378541
 10
140.5732519423
 20
71.8000991012
 42
0.8047378541
 10
140.5732519423
 20
71.5072058824
 42
1.0
 10
140.5732519423
 20
71.21431266350001
 42
0.8047378541
 10
140.7803587235
 20
71.0072058824
 42
0.8047378541
 10
141.0732519423
 20
71.0072058824
 42
1.0
 72
     1
 10
141.0732519423
 20
72.8072058824
 11
141.0732519423
 21
72.0072058824
 72
     4
 94
        3
 73
     1
 74
     0
 95
       11
 96
        7
 40
0.0
 40
0.0
 40
0.0
 40
0.0
 40
1.0
 40
1.0
 40
1.0
 40
2.0
 40
2.0
 40
2.0
 40
2.0
 10
141.0732519423
 20
73.80720588239999
 42
1.0
 10
140.7803587235
 20
73.80720588239999
 42
0.8047378541
 10
140.5732519423
 20
73.6000991012
 42
0.8047378541
 10
140.5732519423
 20
73.3072058824
 42
1.0
 10
140.5732519423
 20
73.0143126635
 42
0.8047378541
 10
140.7803587235
 20
72.8072058824
 42
0.8047378541
 10
141.0732519423
 20
72.8072058824
 42
1.0
 72
     1
 10
141.0732519423
 20
74.17716824850001
 11
141.0732519423
 21
73.80720588239999
 72
     1
 10
142.5732887754
 20
75.6772058824
 11
141.0732519423
 21
74.17716824850001
 72
     1
 10
143.4517242391
 20
75.6772058824
 11
142.5732887754
 21
75.6772058824
 72
     1
 10
143.4517242391
 20
75.6772058824
 11
143.663316616
 21
74.4772058824
 72
     1
 10
143.663316616
 20
74.4772058824
 11
148.8773618458
 21
73.32127988409999
 72
     4
 94
        3
 73
     1
 74
     0
 95
        8
 96
        4
 40
0.0
 40
0.0
 40
0.0
 40
0.0
 40
1.0
 40
1.0
 40
1.0
 40
1.0
 10
148.8773618458
 20
72.83313188060001
 42
1.0
 10
149.2099627639
 20
72.9068677289
 42
0.4776264093
 10
149.2099627639
 20
73.2475440358
 42
0.4776264093
 10
148.8773618458
 20
73.32127988409999
 42
1.0
 72
     1
 10
148.8773618458
 20
72.83313188060001
 11
143.663316616
 21
71.6772058824
 72
     1
 10
143.663316616
 20
71.6772058824
 11
143.663316616
 21
69.4772058824
 72
     1
 10
143.663316616
 20
69.4772058824
 11
148.8773618458
 21
68.32127988409999
 72
     4
 94
        3
 73
     1
 74
     0
 95
        8
 96
        4
 40
0.0
 40
0.0
 40
0.0
 40
0.0
 40
1.0
 40
1.0
 40
1.0
 40
1.0
 10
148.8773618458
 20
67.83313188060001
 42
1.0
 10
149.2099627639
 20
67.9068677289
 42
0.4776264093
 10
149.2099627639
 20
68.2475440358
 42
0.4776264093
 10
148.8773618458
 20
68.32127988409999
 42
1.0
 97
        0
 92
        1
 93
       22
 72
     1
 10
274.2691420388
 20
67.83313188060001
 11
279.4831872686
 21
66.6772058824
 72
     4
 94
        3
 73
     1
 74
     0
 95
        8
 96
        4
 40
0.0
 40
0.0
 40
0.0
 40
0.0
 40
1.0
 40
1.0
 40
1.0
 40
1.0
 10
274.2691420388
 20
67.83313188060001
 42
1.0
 10
273.9365411207
 20
67.9068677289
 42
0.4776264093
 10
273.9365411207
 20
68.2475440358
 42
0.4776264093
 10
274.2691420388
 20
68.32127988409999
 42
1.0
 72
     1
 10
279.4831872686
 20
69.4772058824
 11
274.2691420388
 21
68.32127988409999
 72
     1
 10
279.4831872686
 20
71.6772058824
 11
279.4831872686
 21
69.4772058824
 72
     1
 10
274.2691420388
 20
72.83313188060001
 11
279.4831872686
 21
71.6772058824
 72
     4
 94
        3
 73
     1
 74
     0
 95
        8
 96
        4
 40
0.0
 40
0.0
 40
0.0
 40
0.0
 40
1.0
 40
1.0
 40
1.0
 40
1.0
 10
274.2691420388
 20
72.83313188060001
 42
1.0
 10
273.9365411207
 20
72.9068677289
 42
0.4776264093
 10
273.9365411207
 20
73.2475440358
 42
0.4776264093
 10
274.2691420388
 20
73.32127988409999
 42
1.0
 72
     1
 10
279.4831872686
 20
74.4772058824
 11
274.2691420388
 21
73.32127988409999
 72
     1
 10
279.6947796454
 20
75.6772058824
 11
279.4831872686
 21
74.4772058824
 72
     1
 10
280.5732151092
 20
75.6772058824
 11
279.6947796454
 21
75.6772058824
 72
     1
 10
280.5732151092
 20
75.6772058824
 11
282.0732519423
 21
74.17716824850001
 72
     1
 10
282.0732519423
 20
74.17716824850001
 11
282.0732519423
 21
73.80720588239999
 72
     4
 94
        3
 73
     1
 74
     0
 95
        8
 96
        4
 40
0.0
 40
0.0
 40
0.0
 40
0.0
 40
1.0
 40
1.0
 40
1.0
 40
1.0
 10
282.0732519423
 20
73.80720588239999
 42
1.0
 10
283.0732519423
 20
73.80720588239999
 42
0.3333333333
 10
283.0732519423
 20
72.8072058824
 42
0.3333333333
 10
282.0732519423
 20
72.8072058824
 42
1.0
 72
     1
 10
282.0732519423
 20
72.8072058824
 11
282.0732519423
 21
72.0072058824
 72
     4
 94
        3
 73
     1
 74
     0
 95
        8
 96
        4
 40
0.0
 40
0.0
 40
0.0
 40
0.0
 40
1.0
 40
1.0
 40
1.0
 40
1.0
 10
282.0732519423
 20
72.0072058824
 42
1.0
 10
283.0732519423
 20
72.0072058824
 42
0.3333333333
 10
283.0732519423
 20
71.0072058824
 42
0.3333333333
 10
282.0732519423
 20
71.0072058824
 42
1.0
 72
     1
 10
282.0732519423
 20
71.0072058824
 11
282.0732519423
 21
70.2072058824
 72
     4
 94
        3
 73
     1
 74
     0
 95
        8
 96
        4
 40
0.0
 40
0.0
 40
0.0
 40
0.0
 40
1.0
 40
1.0
 40
1.0
 40
1.0
 10
282.0732519423
 20
70.2072058824
 42
1.0
 10
283.0732519423
 20
70.2072058824
 42
0.3333333333
 10
283.0732519423
 20
69.2072058824
 42
0.3333333333
 10
282.0732519423
 20
69.2072058824
 42
1.0
 72
     1
 10
282.0732519423
 20
69.2072058824
 11
282.0732519423
 21
68.40720588239999
 72
     4
 94
        3
 73
     1
 74
     0
 95
        8
 96
        4
 40
0.0
 40
0.0
 40
0.0
 40
0.0
 40
1.0
 40
1.0
 40
1.0
 40
1.0
 10
282.0732519423
 20
68.40720588239999
 42
1.0
 10
283.0732519423
 20
68.40720588239999
 42
0.3333333333
 10
283.0732519423
 20
67.40720588239999
 42
0.3333333333
 10
282.0732519423
 20
67.40720588239999
 42
1.0
 72
     1
 10
282.0732519423
 20
67.40720588239999
 11
282.0732519423
 21
66.97724396319999
 72
     1
 10
280.5732146717
 20
65.4772058824
 11
282.0732519423
 21
66.97724396319999
 72
     1
 10
280.5732146717
 20
65.4772058824
 11
279.6947796454
 21
65.4772058824
 72
     1
 10
279.4831872686
 20
66.6772058824
 11
279.6947796454
 21
65.4772058824
 97
        0
 75
     0
 76
     0
 52
205.0
 41
0.6496695022
 77
     0
 78
     1
 53
205.0
 43
0.0
 44
0.0
 45
0.2745621957
 46
-0.5888005289000001
 79
     0
 98
        1
 10
0.0
 20
0.0
  0
HATCH
  5
24C
330
21A
100
AcDbEntity
  8
0
  6
Continuous
 62
     1
100
AcDbHatch
 10
0.0
 20
0.0
 30
0.0
210
0.0
220
0.0
230
1.0
  2
DEFAULT__2
 70
     0
 71
     0
 91
        2
 92
        1
 93
       38
 72
     1
 10
275.5732519423
 20
179.2362182743
 11
275.5732519423
 21
162.5820886
 72
     4
 94
        3
 73
     1
 74
     0
 95
        8
 96
        4
 40
0.0
 40
0.0
 40
0.0
 40
0.0
 40
1.0
 40
1.0
 40
1.0
 40
1.0
 10
276.0732519423
 20
180.1022436781
 42
1.0
 10
275.7562646442
 20
179.9192309762
 42
0.9106836024999999
 10
275.5732519423
 20
179.6022436781
 42
0.9106836024999999
 10
275.5732519423
 20
179.2362182743
 42
1.0
 72
     1
 10
276.0732519423
 20
180.1022436781
 11
282.0732519423
 21
183.5663452933
 72
     4
 94
        3
 73
     1
 74
     0
 95
        8
 96
        4
 40
0.0
 40
0.0
 40
0.0
 40
0.0
 40
1.0
 40
1.0
 40
1.0
 40
1.0
 10
282.5732519423
 20
184.432370697
 42
1.0
 10
282.5732519423
 20
184.0663452933
 42
0.9106836024999999
 10
282.3902392404
 20
183.7493579952
 42
0.9106836024999999
 10
282.0732519423
 20
183.5663452933
 42
1.0
 72
     1
 10
282.5732519423
 20
194.8550204279
 11
282.5732519423
 21
184.432370697
 72
     1
 10
282.5732519423
 20
199.4772058824
 11
282.5732519423
 21
194.8550204279
 72
     4
 94
        3
 73
     1
 74
     0
 95
        8
 96
        4
 40
0.0
 40
0.0
 40
0.0
 40
0.0
 40
1.0
 40
1.0
 40
1.0
 40
1.0
 10
282.5732519423
 20
199.4772058824
 42
1.0
 10
282.5732519423
 20
200.06299232
 42
0.8047378541
 10
282.9874655047
 20
200.4772058824
 42
0.8047378541
 10
283.5732519423
 20
200.4772058824
 42
1.0
 72
     1
 10
359.4656916917
 20
200.4772058824
 11
283.5732519423
 21
200.4772058824
 72
     4
 94
        3
 73
     1
 74
     0
 95
        8
 96
        4
 40
0.0
 40
0.0
 40
0.0
 40
0.0
 40
1.0
 40
1.0
 40
1.0
 40
1.0
 10
359.4656916917
 20
200.4772058824
 42
1.0
 10
360.589192545
 20
200.4772058824001
 42
0.8169162473
 10
361.4041512697
 20
199.7038389292
 42
0.8169162473
 10
361.4629507612
 20
198.5818777948
 42
1.0
 72
     1
 10
361.4629507612
 20
198.5818777948
 11
361.5732519423001
 21
196.4772058824
 72
     1
 10
361.5732519423001
 20
196.4772058824
 11
361.4629507612
 21
194.3725339699
 72
     4
 94
        3
 73
     1
 74
     0
 95
        8
 96
        4
 40
0.0
 40
0.0
 40
0.0
 40
0.0
 40
1.0
 40
1.0
 40
1.0
 40
1.0
 10
361.4629507612
 20
194.3725339699
 42
1.0
 10
361.4041512697
 20
193.2505728355
 42
0.8169162473
 10
360.589192545
 20
192.4772058824
 42
0.8169162473
 10
359.4656916917
 20
192.4772058824
 42
1.0
 72
     1
 10
359.4656916917
 20
192.4772058824
 11
347.5183213635
 21
192.4772058824
 72
     4
 94
        3
 73
     1
 74
     0
 95
        8
 96
        4
 40
0.0
 40
0.0
 40
0.0
 40
0.0
 40
1.0
 40
1.0
 40
1.0
 40
1.0
 10
347.5183213635
 20
192.4772058824
 42
1.0
 10
346.786270556
 20
192.4772058824
 42
0.9106836024999999
 10
346.1522959597
 20
192.8432312861
 42
0.9106836024999999
 10
345.786270556
 20
193.4772058824
 42
1.0
 72
     1
 10
345.2089202868
 20
194.4772058824
 11
345.786270556
 21
193.4772058824
 72
     4
 94
        3
 73
     1
 74
     0
 95
        8
 96
        4
 40
0.0
 40
0.0
 40
0.0
 40
0.0
 40
1.0
 40
1.0
 40
1.0
 40
1.0
 10
343.4768694792
 20
195.4772058824
 42
1.0
 10
344.2089202868
 20
195.4772058824
 42
0.9106836024999999
 10
344.8428948830001
 20
195.1111804786
 42
0.9106836024999999
 10
345.2089202868
 20
194.4772058824
 42
1.0
 72
     1
 10
343.4768694792
 20
195.4772058824
 11
326.9600032882
 21
195.4772058824
 72
     4
 94
        3
 73
     1
 74
     0
 95
        8
 96
        4
 40
0.0
 40
0.0
 40
0.0
 40
0.0
 40
1.0
 40
1.0
 40
1.0
 40
1.0
 10
325.2279524807
 20
194.4772058824
 42
1.0
 10
325.5939778845001
 20
195.1111804786
 42
0.9106836024999999
 10
326.2279524807
 20
195.4772058824
 42
0.9106836024999999
 10
326.9600032882
 20
195.4772058824
 42
1.0
 72
     1
 10
325.2279524807
 20
194.4772058824
 11
324.6506022115
 21
193.4772058824
 72
     4
 94
        3
 73
     1
 74
     0
 95
        8
 96
        4
 40
0.0
 40
0.0
 40
0.0
 40
0.0
 40
1.0
 40
1.0
 40
1.0
 40
1.0
 10
324.6506022115
 20
193.4772058824
 42
1.0
 10
324.2845768077
 20
192.8432312861
 42
0.9106836024999999
 10
323.6506022115
 20
192.4772058824
 42
0.9106836024999999
 10
322.9185514039
 20
192.4772058824
 42
1.0
 72
     1
 10
322.9185514039
 20
192.4772058824
 11
291.4405404292
 21
192.4772058824
 72
     4
 94
        3
 73
     1
 74
     0
 95
        8
 96
        4
 40
0.0
 40
0.0
 40
0.0
 40
0.0
 40
1.0
 40
1.0
 40
1.0
 40
1.0
 10
289.4412257793
 20
190.529559779
 42
1.0
 10
289.4712611252
 20
191.6765633635
 42
0.8108679623
 10
290.2931436605
 20
192.4772058824
 42
0.8108679623
 10
291.4405404292
 20
192.4772058824
 42
1.0
 72
     1
 10
289.4412257793
 20
190.529559779
 11
289.1497533044
 21
179.3986750374
 72
     4
 94
        3
 73
     1
 74
     0
 95
        8
 96
        4
 40
0.0
 40
0.0
 40
0.0
 40
0.0
 40
1.0
 40
1.0
 40
1.0
 40
1.0
 10
289.1497533044
 20
179.3986750374
 42
1.0
 10
289.1047002856
 20
177.6781696606
 42
0.8108679623
 10
287.8718764825
 20
176.4772058823
 42
0.8108679623
 10
286.1507813294
 20
176.4772058824
 42
1.0
 72
     1
 10
286.1507813295
 20
176.4772058824
 11
284.5456269079999
 21
176.4772058824
 72
     4
 94
        3
 73
     1
 74
     0
 95
        8
 96
        4
 40
0.0
 40
0.0
 40
0.0
 40
0.0
 40
1.0
 40
1.0
 40
1.0
 40
1.0
 10
281.5466549331
 20
173.5557367273
 42
1.0
 10
281.5917079519
 20
175.2762421041
 42
0.8108679623
 10
282.8245317549
 20
176.4772058824
 42
0.8108679623
 10
284.5456269081
 20
176.4772058824
 42
1.0
 72
     1
 10
281.5466549331
 20
173.5557367273
 11
281.1497533044
 21
158.3986750374
 72
     4
 94
        3
 73
     1
 74
     0
 95
        8
 96
        4
 40
0.0
 40
0.0
 40
0.0
 40
0.0
 40
1.0
 40
1.0
 40
1.0
 40
1.0
 10
281.1497533044
 20
158.3986750374
 42
1.0
 10
281.1047002856
 20
156.6781696605
 42
0.8108679623
 10
279.8718764825
 20
155.4772058822
 42
0.8108679623
 10
278.1507813293
 20
155.4772058824
 42
1.0
 72
     1
 10
278.1507813295
 20
155.4772058824
 11
277.7087036106
 21
155.4772058824
 72
     4
 94
        3
 73
     1
 74
     0
 95
        8
 96
        4
 40
0.0
 40
0.0
 40
0.0
 40
0.0
 40
1.0
 40
1.0
 40
1.0
 40
1.0
 10
275.7090082203
 20
153.5121106952
 42
1.0
 10
275.7291731473
 20
154.6673585892
 42
0.8088336325
 10
276.5532797425
 20
155.4772058838
 42
0.8088336325
 10
277.7087036131
 20
155.4772058824
 42
1.0
 72
     1
 10
275.7090082203
 20
153.5121106952
 11
273.8404023743
 21
46.4597534759
 72
     4
 94
        3
 73
     1
 74
     0
 95
        8
 96
        4
 40
0.0
 40
0.0
 40
0.0
 40
0.0
 40
1.0
 40
1.0
 40
1.0
 40
1.0
 10
273.8404023743
 20
46.4597534759
 42
1.0
 10
273.8303199108
 20
45.8821295295
 42
0.8088336328
 10
273.4182666139
 20
45.4772058824
 42
0.8088336328
 10
272.8405546792
 20
45.47720588239999
 42
1.0
 72
     1
 10
269.5732519423
 20
45.47720588239999
 11
272.8405546792
 21
45.47720588239999
 72
     4
 94
        3
 73
     1
 74
     0
 95
        8
 96
        4
 40
0.0
 40
0.0
 40
0.0
 40
0.0
 40
1.0
 40
1.0
 40
1.0
 40
1.0
 10
269.5732519423
 20
45.47720588239999
 42
1.0
 10
268.9874655047
 20
45.47720588239999
 42
0.8047378541
 10
268.5732519423
 20
45.89141944469999
 42
0.8047378541
 10
268.5732519423
 20
46.4772058824
 42
1.0
 72
     1
 10
268.5732519423
 20
160.4945086192
 11
268.5732519423
 21
46.4772058824
 72
     4
 94
        3
 73
     1
 74
     0
 95
        8
 96
        4
 40
0.0
 40
0.0
 40
0.0
 40
0.0
 40
1.0
 40
1.0
 40
1.0
 40
1.0
 10
268.5732519423
 20
160.4945086192
 42
1.0
 10
268.5732519423
 20
161.072220556
 42
0.8088336316999999
 10
268.9781755918
 20
161.4842738535
 42
0.8088336316999999
 10
269.5557995403
 20
161.4943563145
 42
1.0
 72
     1
 10
274.5907043487
 20
161.5822409048
 11
269.5557995358
 21
161.4943563144
 72
     4
 94
        3
 73
     1
 74
     0
 95
        8
 96
        4
 40
0.0
 40
0.0
 40
0.0
 40
0.0
 40
1.0
 40
1.0
 40
1.0
 40
1.0
 10
275.5732519423
 20
162.5820886
 42
1.0
 10
275.5732519423
 20
162.0043766633999
 42
0.8088336318999999
 10
275.1683282931
 20
161.592323366
 42
0.8088336318999999
 10
274.5907043449
 20
161.5822409047
 42
1.0
 97
        0
 92
        1
 93
       46
 72
     1
 10
147.5732519423
 20
179.2362182743
 11
147.5732519423
 21
162.5820886
 72
     4
 94
        3
 73
     1
 74
     0
 95
        8
 96
        4
 40
0.0
 40
0.0
 40
0.0
 40
0.0
 40
1.0
 40
1.0
 40
1.0
 40
1.0
 10
147.5732519423
 20
162.5820886
 42
1.0
 10
147.5732519423
 20
162.0043766633999
 42
0.8088336318999999
 10
147.9781755915
 20
161.592323366
 42
0.8088336318999999
 10
148.5557995397
 20
161.5822409047
 42
1.0
 72
     1
 10
148.5557995358
 20
161.5822409048
 11
153.5907043487
 21
161.4943563144
 72
     4
 94
        3
 73
     1
 74
     0
 95
        8
 96
        4
 40
0.0
 40
0.0
 40
0.0
 40
0.0
 40
1.0
 40
1.0
 40
1.0
 40
1.0
 10
154.5732519423
 20
160.4945086192
 42
1.0
 10
154.5732519423
 20
161.072220556
 42
0.8088336316999999
 10
154.1683282928
 20
161.4842738535
 42
0.8088336316999999
 10
153.5907043443
 20
161.4943563145
 42
1.0
 72
     1
 10
154.5732519423
 20
160.4945086192
 11
154.5732519423
 21
46.4772058824
 72
     4
 94
        3
 73
     1
 74
     0
 95
        8
 96
        4
 40
0.0
 40
0.0
 40
0.0
 40
0.0
 40
1.0
 40
1.0
 40
1.0
 40
1.0
 10
153.5732519423
 20
45.47720588239999
 42
1.0
 10
154.1590383799
 20
45.47720588239999
 42
0.8047378541
 10
154.5732519423
 20
45.89141944469999
 42
0.8047378541
 10
154.5732519423
 20
46.4772058824
 42
1.0
 72
     1
 10
150.3059492054
 20
45.47720588239999
 11
153.5732519423
 21
45.47720588239999
 72
     4
 94
        3
 73
     1
 74
     0
 95
        8
 96
        4
 40
0.0
 40
0.0
 40
0.0
 40
0.0
 40
1.0
 40
1.0
 40
1.0
 40
1.0
 10
149.3061015102
 20
46.4597534759
 42
1.0
 10
149.3161839737
 20
45.8821295295
 42
0.8088336328
 10
149.7282372707
 20
45.4772058824
 42
0.8088336328
 10
150.3059492054
 20
45.47720588239999
 42
1.0
 72
     1
 10
147.4374956643
 20
153.5121106952
 11
149.3061015102
 21
46.4597534759
 72
     4
 94
        3
 73
     1
 74
     0
 95
        8
 96
        4
 40
0.0
 40
0.0
 40
0.0
 40
0.0
 40
1.0
 40
1.0
 40
1.0
 40
1.0
 10
147.4374956643
 20
153.5121106952
 42
1.0
 10
147.4173307373
 20
154.6673585892
 42
0.8088336325
 10
146.5932241421
 20
155.4772058838
 42
0.8088336325
 10
145.4378002715
 20
155.4772058824
 42
1.0
 72
     1
 10
145.437800274
 20
155.4772058824
 11
144.9957225551
 21
155.4772058824
 72
     4
 94
        3
 73
     1
 74
     0
 95
        8
 96
        4
 40
0.0
 40
0.0
 40
0.0
 40
0.0
 40
1.0
 40
1.0
 40
1.0
 40
1.0
 10
141.9967505801
 20
158.3986750374
 42
1.0
 10
142.041803599
 20
156.6781696605
 42
0.8108679623
 10
143.2746274020999
 20
155.4772058822
 42
0.8108679623
 10
144.9957225553
 20
155.4772058824
 42
1.0
 72
     1
 10
141.5998489515
 20
173.5557367273
 11
141.9967505801
 21
158.3986750374
 72
     4
 94
        3
 73
     1
 74
     0
 95
        8
 96
        4
 40
0.0
 40
0.0
 40
0.0
 40
0.0
 40
1.0
 40
1.0
 40
1.0
 40
1.0
 10
141.5998489515
 20
173.5557367273
 42
1.0
 10
141.5547959326
 20
175.2762421041
 42
0.8108679623
 10
140.3219721296
 20
176.4772058824
 42
0.8108679623
 10
138.6008769765
 20
176.4772058824
 42
1.0
 72
     1
 10
138.6008769766
 20
176.4772058824
 11
136.9957225551
 21
176.4772058824
 72
     4
 94
        3
 73
     1
 74
     0
 95
        8
 96
        4
 40
0.0
 40
0.0
 40
0.0
 40
0.0
 40
1.0
 40
1.0
 40
1.0
 40
1.0
 10
133.9967505801
 20
179.3986750374
 42
1.0
 10
134.041803599
 20
177.6781696606
 42
0.8108679623
 10
135.274627402
 20
176.4772058823
 42
0.8108679623
 10
136.9957225552
 20
176.4772058824
 42
1.0
 72
     1
 10
133.7052781053
 20
190.529559779
 11
133.9967505801
 21
179.3986750374
 72
     4
 94
        3
 73
     1
 74
     0
 95
        8
 96
        4
 40
0.0
 40
0.0
 40
0.0
 40
0.0
 40
1.0
 40
1.0
 40
1.0
 40
1.0
 10
133.7052781053
 20
190.529559779
 42
1.0
 10
133.6752427594
 20
191.6765633635
 42
0.8108679623
 10
132.8533602241
 20
192.4772058824
 42
0.8108679623
 10
131.7059634553
 20
192.4772058824
 42
1.0
 72
     1
 10
131.7059634553
 20
192.4772058824
 11
100.2279524807
 21
192.4772058824
 72
     4
 94
        3
 73
     1
 74
     0
 95
        8
 96
        4
 40
0.0
 40
0.0
 40
0.0
 40
0.0
 40
1.0
 40
1.0
 40
1.0
 40
1.0
 10
98.49590167309999
 20
193.4772058824
 42
1.0
 10
98.8619270769
 20
192.8432312861
 42
0.9106836024999999
 10
99.49590167309999
 20
192.4772058824
 42
0.9106836024999999
 10
100.2279524807
 20
192.4772058824
 42
1.0
 72
     1
 10
97.9185514039
 20
194.4772058824
 11
98.49590167309999
 21
193.4772058824
 72
     4
 94
        3
 73
     1
 74
     0
 95
        8
 96
        4
 40
0.0
 40
0.0
 40
0.0
 40
0.0
 40
1.0
 40
1.0
 40
1.0
 40
1.0
 10
97.9185514039
 20
194.4772058824
 42
1.0
 10
97.55252600010001
 20
195.1111804786
 42
0.9106836024999999
 10
96.9185514039
 20
195.4772058824
 42
0.9106836024999999
 10
96.18650059629999
 20
195.4772058824
 42
1.0
 72
     1
 10
96.18650059629999
 20
195.4772058824
 11
94.69742887889999
 21
195.4772058824
 72
     1
 10
94.69742887889999
 20
195.4772058824
 11
94.74983665819999
 21
194.4772058824
 72
     1
 10
92.96978036950001
 20
194.4772058824
 11
94.74983665819999
 21
194.4772058824
 72
     1
 10
93.02218814879999
 20
195.4772058824
 11
92.96978036950001
 21
194.4772058824
 72
     1
 10
93.02218814879999
 20
195.4772058824
 11
83.7541481471
 21
195.4772058824
 72
     1
 10
83.7541481471
 20
195.4772058824
 11
83.80655592640001
 21
194.4772058824
 72
     1
 10
82.02649963769999
 20
194.4772058824
 11
83.80655592640001
 21
194.4772058824
 72
     1
 10
82.07890741699999
 20
195.4772058824
 11
82.02649963769999
 21
194.4772058824
 72
     1
 10
82.07890741699999
 20
195.4772058824
 11
79.6696344054
 21
195.4772058824
 72
     4
 94
        3
 73
     1
 74
     0
 95
        8
 96
        4
 40
0.0
 40
0.0
 40
0.0
 40
0.0
 40
1.0
 40
1.0
 40
1.0
 40
1.0
 10
79.6696344054
 20
195.4772058824
 42
1.0
 10
78.9375835978
 20
195.4772058824
 42
0.9106836024999999
 10
78.30360900159999
 20
195.1111804786
 42
0.9106836024999999
 10
77.93758359779999
 20
194.4772058824
 42
1.0
 72
     1
 10
77.93758359779999
 20
194.4772058824
 11
77.3602333286
 21
193.4772058824
 72
     4
 94
        3
 73
     1
 74
     0
 95
        8
 96
        4
 40
0.0
 40
0.0
 40
0.0
 40
0.0
 40
1.0
 40
1.0
 40
1.0
 40
1.0
 10
75.628182521
 20
192.4772058824
 42
1.0
 10
76.3602333286
 20
192.4772058824
 42
0.9106836024999999
 10
76.99420792479999
 20
192.8432312861
 42
0.9106836024999999
 10
77.3602333286
 20
193.4772058824
 42
1.0
 72
     1
 10
75.628182521
 20
192.4772058824
 11
63.6808121928
 21
192.4772058824
 72
     4
 94
        3
 73
     1
 74
     0
 95
        8
 96
        4
 40
0.0
 40
0.0
 40
0.0
 40
0.0
 40
1.0
 40
1.0
 40
1.0
 40
1.0
 10
61.6835531233
 20
194.3725339699
 42
1.0
 10
61.74235261479999
 20
193.2505728355
 42
0.8169162473
 10
62.5573113396
 20
192.4772058824
 42
0.8169162473
 10
63.6808121928
 20
192.4772058824
 42
1.0
 72
     1
 10
61.5732519423
 20
196.4772058824
 11
61.6835531233
 21
194.3725339699
 72
     1
 10
61.6835531233
 20
198.5818777948
 11
61.5732519423
 21
196.4772058824
 72
     4
 94
        3
 73
     1
 74
     0
 95
        8
 96
        4
 40
0.0
 40
0.0
 40
0.0
 40
0.0
 40
1.0
 40
1.0
 40
1.0
 40
1.0
 10
63.6808121928
 20
200.4772058824
 42
1.0
 10
62.5573113396
 20
200.4772058824001
 42
0.8169162473
 10
61.74235261479999
 20
199.7038389292
 42
0.8169162473
 10
61.6835531233
 20
198.5818777948
 42
1.0
 72
     1
 10
139.5732519423
 20
200.4772058824
 11
63.6808121928
 21
200.4772058824
 72
     4
 94
        3
 73
     1
 74
     0
 95
        8
 96
        4
 40
0.0
 40
0.0
 40
0.0
 40
0.0
 40
1.0
 40
1.0
 40
1.0
 40
1.0
 10
140.5732519423
 20
199.4772058824
 42
1.0
 10
140.5732519423
 20
200.06299232
 42
0.8047378541
 10
140.1590383799
 20
200.4772058824
 42
0.8047378541
 10
139.5732519423
 20
200.4772058824
 42
1.0
 72
     1
 10
140.5732519423
 20
199.4772058824
 11
140.5732519423
 21
194.8550204279
 72
     1
 10
140.5732519423
 20
194.8550204279
 11
140.5732519423
 21
184.432370697
 72
     4
 94
        3
 73
     1
 74
     0
 95
        8
 96
        4
 40
0.0
 40
0.0
 40
0.0
 40
0.0
 40
1.0
 40
1.0
 40
1.0
 40
1.0
 10
140.5732519423
 20
184.432370697
 42
1.0
 10
140.5732519423
 20
184.0663452933
 42
0.9106836024999999
 10
140.7562646442
 20
183.7493579952
 42
0.9106836024999999
 10
141.0732519423
 20
183.5663452933
 42
1.0
 72
     1
 10
147.0732519423
 20
180.1022436781
 11
141.0732519423
 21
183.5663452933
 72
     4
 94
        3
 73
     1
 74
     0
 95
        8
 96
        4
 40
0.0
 40
0.0
 40
0.0
 40
0.0
 40
1.0
 40
1.0
 40
1.0
 40
1.0
 10
147.0732519423
 20
180.1022436781
 42
1.0
 10
147.3902392404
 20
179.9192309762
 42
0.9106836024999999
 10
147.5732519423
 20
179.6022436781
 42
0.9106836024999999
 10
147.5732519423
 20
179.2362182743
 42
1.0
 97
        0
 75
     0
 76
     0
 52
45.0
 41
3.3202321279
 77
     0
 78
     1
 53
45.0
 43
0.0
 44
0.0
 45
-2.3477586527
 46
2.3477586527
 79
     0
 98
        1
 10
0.0
 20
0.0
  0
HATCH
  5
24D
330
21A
100
AcDbEntity
  8
0
  6
Continuous
 62
     1
100
AcDbHatch
 10
0.0
 20
0.0
 30
0.0
210
0.0
220
0.0
230
1.0
  2
DEFAULT__3
 70
     0
 71
     0
 91
        2
 92
        1
 93
       14
 72
     1
 10
349.5981839234
 20
207.9772058824
 11
288.5732519423
 21
207.9772058824
 72
     1
 10
349.5981839234
 20
207.9772058824
 11
349.2100483294
 21
203.5407957423
 72
     4
 94
        3
 73
     1
 74
     0
 95
        8
 96
        4
 40
0.0
 40
0.0
 40
0.0
 40
0.0
 40
1.0
 40
1.0
 40
1.0
 40
1.0
 10
349.2100483294
 20
203.5407957423
 42
1.0
 10
349.0662575875
 20
201.8972600409
 42
0.8228816729999998
 10
347.8450355495999
 20
200.7879800432
 42
0.8228816729999998
 10
346.1952846287001
 20
200.8023772014
 42
1.0
 72
     1
 10
342.5800722581
 20
200.8339266818
 11
346.1952846287001
 21
200.8023772014
 72
     1
 10
342.5800722581
 20
200.8339266818
 11
334.0732519423
 21
201.5781770221
 72
     1
 10
327.1095898921
 20
200.968935536
 11
334.0732519423
 21
201.5781770221
 72
     1
 10
322.109107397
 20
201.0125740857
 11
327.1095898921
 21
200.968935536
 72
     1
 10
322.109107397
 20
201.0125740857
 11
319.0732519423
 21
201.2781770221
 72
     1
 10
316.5881081829
 20
201.0607551159
 11
319.0732519423
 21
201.2781770221
 72
     1
 10
305.4470958134
 20
201.1579812579
 11
316.5881081829
 21
201.0607551159
 72
     1
 10
305.4470958134
 20
201.1579812579
 11
304.0732519423
 21
201.2781770221
 72
     1
 10
302.9486267506
 20
201.1797850671
 11
304.0732519423
 21
201.2781770221
 72
     1
 10
289.0369266529999
 20
201.3011906346
 11
302.9486267506
 21
201.1797850671
 72
     1
 10
288.5732519423
 20
207.9772058824
 11
289.0369266529999
 21
201.3011906346
 97
        0
 92
        1
 93
       14
 72
     1
 10
134.5732519423
 20
207.9772058824
 11
73.54831996109999
 21
207.9772058824
 72
     1
 10
134.5732519423
 20
207.9772058824
 11
134.1095772316
 21
201.3011906346
 72
     1
 10
134.1095772316
 20
201.3011906346
 11
120.1978771339
 21
201.1797850671
 72
     1
 10
120.1978771339
 20
201.1797850671
 11
119.0732519423
 21
201.2781770221
 72
     1
 10
117.6994080712
 20
201.1579812579
 11
119.0732519423
 21
201.2781770221
 72
     1
 10
117.6994080712
 20
201.1579812579
 11
106.5583957017
 21
201.0607551159
 72
     1
 10
106.5583957017
 20
201.0607551159
 11
104.0732519423
 21
201.2781770221
 72
     1
 10
101.0373964875
 20
201.0125740857
 11
104.0732519423
 21
201.2781770221
 72
     1
 10
101.0373964875
 20
201.0125740857
 11
96.03691399250001
 21
200.968935536
 72
     1
 10
96.03691399250001
 20
200.968935536
 11
89.07325194229999
 21
201.5781770221
 72
     1
 10
80.56643162649999
 20
200.8339266818
 11
89.07325194229999
 21
201.5781770221
 72
     1
 10
80.56643162649999
 20
200.8339266818
 11
76.9512192559
 21
200.8023772014
 72
     4
 94
        3
 73
     1
 74
     0
 95
        8
 96
        4
 40
0.0
 40
0.0
 40
0.0
 40
0.0
 40
1.0
 40
1.0
 40
1.0
 40
1.0
 10
73.9364555551
 20
203.5407957423
 42
1.0
 10
74.0802462971
 20
201.8972600409
 42
0.8228816729999998
 10
75.30146833499999
 20
200.7879800432
 42
0.8228816729999998
 10
76.9512192559
 20
200.8023772014
 42
1.0
 72
     1
 10
73.54831996109999
 20
207.9772058824
 11
73.9364555551
 21
203.5407957423
 97
        0
 75
     0
 76
     0
 52
135.0
 41
2.984846368799999
 77
     0
 78
     1
 53
135.0
 43
0.0
 44
0.0
 45
-2.1106051082
 46
-2.1106051082
 79
     0
 98
        1
 10
0.0
 20
0.0
  0
DIMENSION
  5
24E
330
21A
100
AcDbEntity
  8
ZEICHNUNGSBEMASSUNGEN
  6
Continuous
 62
     7
100
AcDbDimension
  2
*D1
 10
149.3232519423
 20
31.94978983593558
 30
0.0
 11
213.4771590433766
 21
31.94978983593558
 31
0.0
 70
   160
  1
%%c<>
 71
     2
 42
124.4999999999999
  3
DIMSTYLE_2
100
AcDbAlignedDimension
 13
273.8232519423
 23
43.9772058824
 33
0.0
 14
149.3232519423
 24
43.9772058824
 34
0.0
 50
180.0
100
AcDbRotatedDimension
1001
ACAD
1000
DSTYLE
1002
{
1070
    41
1040
5.0
1070
   140
1040
7.0
1070
   147
1040
1.5
1070
   178
1070
   256
1070
   271
1070
     0
1002
}
  0
DIMENSION
  5
24F
330
21A
100
AcDbEntity
  8
ZEICHNUNGSBEMASSUNGEN
  6
Continuous
 62
     7
100
AcDbDimension
  2
*D2
 10
370.6285280028
 20
45.47720588239997
 30
0.0
 11
370.6285280028
 21
115.6247183939
 31
0.0
 70
   160
 71
     2
 42
147.0
  3
DIMSTYLE_2
100
AcDbAlignedDimension
 13
360.9656916917
 23
192.4772058824
 33
0.0
 14
274.3405546792
 24
45.47720588239999
 34
0.0
 50
270.0
100
AcDbRotatedDimension
1001
ACAD
1000
DSTYLE
1002
{
1070
    41
1040
5.0
1070
   140
1040
7.0
1070
   147
1040
1.5
1070
   178
1070
   256
1070
   271
1070
     0
1002
}
  0
DIMENSION
  5
250
330
21A
100
AcDbEntity
  8
ZEICHNUNGSBEMASSUNGEN
  6
Continuous
 62
     7
100
AcDbDimension
  2
*D3
 10
61.5732519423
 20
253.7824878764786
 30
0.0
 11
209.3999129351546
 21
253.7824878764786
 31
0.0
 70
   160
  1
%%c<>
 71
     2
 42
300.0
  3
DIMSTYLE_2
100
AcDbAlignedDimension
 13
361.5732519423001
 23
197.9772058824
 33
0.0
 14
61.5732519423
 24
197.9772058824
 34
0.0
 50
180.0
100
AcDbRotatedDimension
1001
ACAD
1000
DSTYLE
1002
{
1070
    41
1040
5.0
1070
   140
1040
7.0
1070
   147
1040
1.5
1070
   178
1070
   256
1070
   271
1070
     0
1002
}
  0
DIMENSION
  5
251
330
21A
100
AcDbEntity
  8
ZEICHNUNGSBEMASSUNGEN
  6
Continuous
 62
     7
100
AcDbDimension
  2
*D4
 10
133.8510143427
 20
243.3022058824
 30
0.0
 11
208.6565852756
 21
243.3022058824
 31
0.0
 70
   160
  1
%%c<>
 71
     2
 42
155.4444751992
  3
DIMSTYLE_2
100
AcDbAlignedDimension
 13
289.2954895419
 23
186.4641174082
 33
0.0
 14
133.8510143427
 24
186.4641174082
 34
0.0
 50
180.0
100
AcDbRotatedDimension
1001
ACAD
1000
DSTYLE
1002
{
1070
    41
1040
5.0
1070
   140
1040
7.0
1070
   147
1040
1.5
1070
   178
1070
   256
1070
   271
1070
     0
1002
}
  0
LINE
  5
252
330
21A
100
AcDbEntity
  8
0
  6
Continuous
 62
     7
100
AcDbLine
 10
61.6835531233
 20
198.5818777948
 30
0.0
 11
61.5732519423
 21
196.4772058824
 31
0.0
  0
LINE
  5
253
330
21A
100
AcDbEntity
  8
0
  6
Continuous
 62
     7
100
AcDbLine
 10
61.5732519423
 20
196.4772058824
 30
0.0
 11
61.6835531233
 21
194.3725339699
 31
0.0
  0
LINE
  5
254
330
21A
100
AcDbEntity
  8
0
  6
Continuous
 62
     7
100
AcDbLine
 10
77.93758359779999
 20
194.4772058824
 30
0.0
 11
77.3602333286
 21
193.4772058824
 31
0.0
  0
LINE
  5
255
330
21A
100
AcDbEntity
  8
0
  6
Continuous
 62
     7
100
AcDbLine
 10
73.54831996109999
 20
207.9772058824
 30
0.0
 11
73.9364555551
 21
203.5407957423
 31
0.0
  0
LINE
  5
256
330
21A
100
AcDbEntity
  8
0
  6
Continuous
 62
     7
100
AcDbLine
 10
82.07890741699999
 20
195.4772058824
 30
0.0
 11
82.02649963769999
 21
194.4772058824
 31
0.0
  0
LINE
  5
257
330
21A
100
AcDbEntity
  8
0
  6
Continuous
 62
     7
100
AcDbLine
 10
83.7541481471
 20
195.4772058824
 30
0.0
 11
83.80655592640001
 21
194.4772058824
 31
0.0
  0
LINE
  5
258
330
21A
100
AcDbEntity
  8
0
  6
Continuous
 62
     7
100
AcDbLine
 10
93.02218814879999
 20
195.4772058824
 30
0.0
 11
92.96978036950001
 21
194.4772058824
 31
0.0
  0
LINE
  5
259
330
21A
100
AcDbEntity
  8
0
  6
Continuous
 62
     7
100
AcDbLine
 10
94.69742887889999
 20
195.4772058824
 30
0.0
 11
94.74983665819999
 21
194.4772058824
 31
0.0
  0
LINE
  5
25A
330
21A
100
AcDbEntity
  8
AUSFORMSCHRAEGEN
  6
Continuous
 62
     7
100
AcDbLine
 10
94.7844614047
 20
195.4772058824
 30
0.0
 11
94.836869184
 21
194.4772058824
 31
0.0
  0
LINE
  5
25B
330
21A
100
AcDbEntity
  8
0
  6
Continuous
 62
     7
100
AcDbLine
 10
107.0165437965
 20
208.9772058824
 30
0.0
 11
107.0165437965
 21
209.9772058824
 31
0.0
  0
LINE
  5
25C
330
21A
100
AcDbEntity
  8
0
  6
Continuous
 62
     7
100
AcDbLine
 10
108.4676003128
 20
209.9772058824
 30
0.0
 11
108.4676003128
 21
211.5772058824
 31
0.0
  0
LINE
  5
25D
330
21A
100
AcDbEntity
  8
0
  6
Continuous
 62
     7
100
AcDbLine
 10
108.4676003128
 20
212.6772058824
 30
0.0
 11
108.4676003128
 21
222.6772058824
 31
0.0
  0
LINE
  5
25E
330
21A
100
AcDbEntity
  8
0
  6
Continuous
 62
     7
100
AcDbLine
 10
109.4676003128
 20
222.6772058824
 30
0.0
 11
109.4676003128
 21
230.6772058824
 31
0.0
  0
LINE
  5
25F
330
21A
100
AcDbEntity
  8
0
  6
Continuous
 62
     7
100
AcDbLine
 10
109.9676003128
 20
211.7272058824
 30
0.0
 11
109.9676003128
 21
212.6772058824
 31
0.0
  0
LINE
  5
260
330
21A
100
AcDbEntity
  8
0
  6
Continuous
 62
     7
100
AcDbLine
 10
110.6676003128
 20
211.7272058824
 30
0.0
 11
110.6676003128
 21
211.5772058824
 31
0.0
  0
LINE
  5
261
330
21A
100
AcDbEntity
  8
0
  6
Continuous
 62
     7
100
AcDbLine
 10
112.4676003128
 20
200.4772058824
 30
0.0
 11
112.4676003128
 21
201.0801996407
 31
0.0
  0
LINE
  5
262
330
21A
100
AcDbEntity
  8
0
  6
Continuous
 62
     9
100
AcDbLine
 10
112.8898993443
 20
208.9772058824
 30
0.0
 11
112.8898993443
 21
209.9772058824
 31
0.0
  0
LINE
  5
263
330
21A
100
AcDbEntity
  8
0
  6
Continuous
 62
     2
100
AcDbLine
 10
113.2676003128
 20
201.0880517944
 30
0.0
 11
113.2676003128
 21
200.4772058824
 31
0.0
  0
LINE
  5
264
330
21A
100
AcDbEntity
  8
0
  6
Continuous
 62
     9
100
AcDbLine
 10
114.7920123769
 20
208.9772058824
 30
0.0
 11
114.7920123769
 21
209.9772058824
 31
0.0
  0
LINE
  5
265
330
21A
100
AcDbEntity
  8
0
  6
Continuous
 62
     7
100
AcDbLine
 10
116.0676003128
 20
192.3009884600999
 30
0.0
 11
116.0676003128
 21
192.4772058824
 31
0.0
  0
LINE
  5
266
330
21A
100
AcDbEntity
  8
0
  6
Continuous
 62
     7
100
AcDbLine
 10
116.4676003128
 20
212.5827593818
 30
0.0
 11
116.4676003128
 21
212.6772058824
 31
0.0
  0
LINE
  5
267
330
21A
100
AcDbEntity
  8
0
  6
Continuous
 62
     7
100
AcDbLine
 10
116.8676003128
 20
192.3009884600999
 30
0.0
 11
116.8676003128
 21
192.4772058824
 31
0.0
  0
LINE
  5
268
330
21A
100
AcDbEntity
  8
0
  6
Continuous
 62
     7
100
AcDbLine
 10
150.3059492054
 20
45.47720588239999
 30
0.0
 11
272.8405546792
 21
45.47720588239999
 31
0.0
  0
LINE
  5
269
330
21A
100
AcDbEntity
  8
0
  6
Continuous
 62
     7
100
AcDbLine
 10
142.5732798952
 20
65.4772152
 30
0.0
 11
141.0732519423
 21
66.97724396319999
 31
0.0
  0
LINE
  5
26A
330
21A
100
AcDbEntity
  8
0
  6
Continuous
 62
     2
100
AcDbLine
 10
119.6676003128
 20
201.1433664683
 30
0.0
 11
119.6676003128
 21
200.4772058824
 31
0.0
  0
LINE
  5
26B
330
21A
100
AcDbEntity
  8
0
  6
Continuous
 62
     7
100
AcDbLine
 10
120.4676003128
 20
200.4772058824
 30
0.0
 11
120.4676003128
 21
201.1488373026
 31
0.0
  0
LINE
  5
26C
330
21A
100
AcDbEntity
  8
0
  6
Continuous
 62
     7
100
AcDbLine
 10
122.2676003128
 20
211.7272058824
 30
0.0
 11
122.2676003128
 21
211.5772058824
 31
0.0
  0
LINE
  5
26D
330
21A
100
AcDbEntity
  8
0
  6
Continuous
 62
     7
100
AcDbLine
 10
122.9676003128
 20
211.7272058824
 30
0.0
 11
122.9676003128
 21
212.6772058824
 31
0.0
  0
LINE
  5
26E
330
21A
100
AcDbEntity
  8
0
  6
Continuous
 62
     7
100
AcDbLine
 10
123.4676003128
 20
222.6772058824
 30
0.0
 11
123.4676003128
 21
230.6772058824
 31
0.0
  0
LINE
  5
26F
330
21A
100
AcDbEntity
  8
0
  6
Continuous
 62
     7
100
AcDbLine
 10
124.4676003128
 20
209.9772058824
 30
0.0
 11
124.4676003128
 21
211.5772058824
 31
0.0
  0
LINE
  5
270
330
21A
100
AcDbEntity
  8
0
  6
Continuous
 62
     7
100
AcDbLine
 10
124.4676003128
 20
212.6772058824
 30
0.0
 11
124.4676003128
 21
222.6772058824
 31
0.0
  0
LINE
  5
271
330
21A
100
AcDbEntity
  8
0
  6
Continuous
 62
     7
100
AcDbLine
 10
125.9186568291
 20
208.9772058824
 30
0.0
 11
125.9186568291
 21
209.9772058824
 31
0.0
  0
LINE
  5
272
330
21A
100
AcDbEntity
  8
0
  6
Continuous
 62
     7
100
AcDbLine
 10
134.5732519423
 20
207.9772058824
 30
0.0
 11
134.1095772316
 21
201.3011906346
 31
0.0
  0
LINE
  5
273
330
21A
100
AcDbEntity
  8
0
  6
Continuous
 62
     7
100
AcDbLine
 10
279.4831872686
 20
69.4772058824
 30
0.0
 11
274.2691420388
 21
68.32127988409999
 31
0.0
  0
LINE
  5
274
330
21A
100
AcDbEntity
  8
0
  6
Continuous
 62
     9
100
AcDbLine
 10
268.5732519423
 20
46.4772058824
 30
0.0
 11
154.5732519423
 21
46.4772058824
 31
0.0
  0
LINE
  5
275
330
21A
100
AcDbEntity
  8
0
  6
Continuous
 62
     7
100
AcDbLine
 10
143.663316616
 20
69.4772058824
 30
0.0
 11
148.8773618458
 21
68.32127988409999
 31
0.0
  0
LINE
  5
276
330
21A
100
AcDbEntity
  8
0
  6
Continuous
 62
     7
100
AcDbLine
 10
133.7052781053
 20
190.529559779
 30
0.0
 11
133.9967505801
 21
179.3986750374
 31
0.0
  0
LINE
  5
277
330
21A
100
AcDbEntity
  8
0
  6
Continuous
 62
     7
100
AcDbLine
 10
141.5998489515
 20
173.5557367273
 30
0.0
 11
141.9967505801
 21
158.3986750374
 31
0.0
  0
LINE
  5
278
330
21A
100
AcDbEntity
  8
0
  6
Continuous
 62
     7
100
AcDbLine
 10
140.5732519423
 20
199.4772058824
 30
0.0
 11
140.5732519423
 21
184.432370697
 31
0.0
  0
LINE
  5
279
330
21A
100
AcDbEntity
  8
0
  6
Continuous
 62
     7
100
AcDbLine
 10
141.0732519423
 20
74.17716824850001
 30
0.0
 11
141.0732519423
 21
73.80720588239999
 31
0.0
  0
LINE
  5
27A
330
21A
100
AcDbEntity
  8
0
  6
Continuous
 62
     7
100
AcDbLine
 10
141.0732519423
 20
72.8072058824
 30
0.0
 11
141.0732519423
 21
72.0072058824
 31
0.0
  0
LINE
  5
27B
330
21A
100
AcDbEntity
  8
0
  6
Continuous
 62
     7
100
AcDbLine
 10
141.0732519423
 20
71.0072058824
 30
0.0
 11
141.0732519423
 21
70.2072058824
 31
0.0
  0
LINE
  5
27C
330
21A
100
AcDbEntity
  8
0
  6
Continuous
 62
     7
100
AcDbLine
 10
141.0732519423
 20
69.2072058824
 30
0.0
 11
141.0732519423
 21
68.40720588239999
 31
0.0
  0
LINE
  5
27D
330
21A
100
AcDbEntity
  8
0
  6
Continuous
 62
     7
100
AcDbLine
 10
141.0732519423
 20
67.40720588239999
 30
0.0
 11
141.0732519423
 21
66.97724396319999
 31
0.0
  0
LINE
  5
27E
330
21A
100
AcDbEntity
  8
RUNDUNGEN
  6
Continuous
 62
     9
100
AcDbLine
 10
141.5322839627
 20
199.4772058824
 30
0.0
 11
141.5322839627
 21
195.8605767246
 31
0.0
  0
LINE
  5
27F
330
21A
100
AcDbEntity
  8
RUNDUNGEN
  6
Continuous
 62
     9
100
AcDbLine
 10
142.3451282918
 20
199.4772058824
 30
0.0
 11
142.3451282918
 21
195.8605770726
 31
0.0
  0
LINE
  5
280
330
21A
100
AcDbEntity
  8
0
  6
Continuous
 62
     7
100
AcDbLine
 10
279.4831872686
 20
74.4772058824
 30
0.0
 11
274.2691420388
 21
73.32127988409999
 31
0.0
  0
LINE
  5
281
330
21A
100
AcDbEntity
  8
0
  6
Continuous
 62
     7
100
AcDbLine
 10
280.5732146717
 20
65.4772058824
 30
0.0
 11
274.1723532409
 21
65.4772058824
 31
0.0
  0
LINE
  5
282
330
21A
100
AcDbEntity
  8
0
  6
Continuous
 62
     7
100
AcDbLine
 10
148.9741506437
 20
65.4772058824
 30
0.0
 11
142.5732892129
 21
65.4772058824
 31
0.0
  0
LINE
  5
283
330
21A
100
AcDbEntity
  8
0
  6
Continuous
 62
     7
100
AcDbLine
 10
279.4831872686
 20
66.6772058824
 30
0.0
 11
274.1932993188
 21
66.6772058824
 31
0.0
  0
LINE
  5
284
330
21A
100
AcDbEntity
  8
0
  6
Continuous
 62
     7
100
AcDbLine
 10
148.9532045658
 20
66.6772058824
 30
0.0
 11
143.663316616
 21
66.6772058824
 31
0.0
  0
LINE
  5
285
330
21A
100
AcDbEntity
  8
0
  6
Continuous
 62
     7
100
AcDbLine
 10
143.663316616
 20
74.4772058824
 30
0.0
 11
148.8773618458
 21
73.32127988409999
 31
0.0
  0
LINE
  5
286
330
21A
100
AcDbEntity
  8
0
  6
Continuous
 62
     7
100
AcDbLine
 10
97.9185514039
 20
194.4772058824
 30
0.0
 11
98.49590167309999
 21
193.4772058824
 31
0.0
  0
LINE
  5
287
330
21A
100
AcDbEntity
  8
0
  6
Continuous
 62
     7
100
AcDbLine
 10
143.4517242391
 20
75.6772058824
 30
0.0
 11
143.663316616
 21
74.4772058824
 31
0.0
  0
LINE
  5
288
330
21A
100
AcDbEntity
  8
0
  6
Continuous
 62
     7
100
AcDbLine
 10
147.4374956643
 20
153.5121106952
 30
0.0
 11
149.3061015102
 21
46.4597534759
 31
0.0
  0
LINE
  5
289
330
21A
100
AcDbEntity
  8
0
  6
Continuous
 62
     7
100
AcDbLine
 10
143.663316616
 20
71.6772058824
 30
0.0
 11
143.663316616
 21
69.4772058824
 31
0.0
  0
LINE
  5
28A
330
21A
100
AcDbEntity
  8
0
  6
Continuous
 62
     7
100
AcDbLine
 10
146.145048712
 20
207.9772058824
 30
0.0
 11
146.145048712
 21
208.9772058824
 31
0.0
  0
LINE
  5
28B
330
21A
100
AcDbEntity
  8
0
  6
Continuous
 62
     7
100
AcDbLine
 10
147.5732519423
 20
179.2362182743
 30
0.0
 11
147.5732519423
 21
162.5820886
 31
0.0
  0
LINE
  5
28C
330
21A
100
AcDbEntity
  8
RUNDUNGEN
  6
Continuous
 62
     9
100
AcDbLine
 10
148.3850903844
 20
199.4772058824
 30
0.0
 11
148.3850903844
 21
195.9599025316
 31
0.0
  0
LINE
  5
28D
330
21A
100
AcDbEntity
  8
RUNDUNGEN
  6
Continuous
 62
     9
100
AcDbLine
 10
148.3850903844
 20
182.7501378886
 30
0.0
 11
148.3850903844
 21
181.1117345413
 31
0.0
  0
LINE
  5
28E
330
21A
100
AcDbEntity
  8
0
  6
Continuous
 62
     7
100
AcDbLine
 10
149.145048712
 20
207.9772058824
 30
0.0
 11
149.145048712
 21
208.9772058824
 31
0.0
  0
LINE
  5
28F
330
21A
100
AcDbEntity
  8
RUNDUNGEN
  6
Continuous
 62
     9
100
AcDbLine
 10
149.1862392796
 20
199.4772058824
 30
0.0
 11
149.1862392796
 21
195.9599031455
 31
0.0
  0
LINE
  5
290
330
21A
100
AcDbEntity
  8
RUNDUNGEN
  6
Continuous
 62
     9
100
AcDbLine
 10
149.1862392796
 20
182.7501377102
 30
0.0
 11
149.1862392796
 21
181.1117244432
 31
0.0
  0
LINE
  5
291
330
21A
100
AcDbEntity
  8
0
  6
Continuous
 62
     7
100
AcDbLine
 10
149.8117156966
 20
207.9772058824
 30
0.0
 11
149.8117156966
 21
208.9772058824
 31
0.0
  0
LINE
  5
292
330
21A
100
AcDbEntity
  8
0
  6
Continuous
 62
     7
100
AcDbLine
 10
150.3117156966
 20
207.9772058824
 30
0.0
 11
150.3117156966
 21
208.9772058824
 31
0.0
  0
LINE
  5
293
330
21A
100
AcDbEntity
  8
0
  6
Continuous
 62
     7
100
AcDbLine
 10
151.8435756291
 20
207.9772058824
 30
0.0
 11
151.8435756291
 21
208.9772058824
 31
0.0
  0
LINE
  5
294
330
21A
100
AcDbEntity
  8
0
  6
Continuous
 62
     7
100
AcDbLine
 10
152.3372743974
 20
207.9772058824
 30
0.0
 11
152.3372743974
 21
208.9772058824
 31
0.0
  0
LINE
  5
295
330
21A
100
AcDbEntity
  8
0
  6
Continuous
 62
     7
100
AcDbLine
 10
152.3757902892
 20
207.9772058824
 30
0.0
 11
152.3757902892
 21
208.9772058824
 31
0.0
  0
LINE
  5
296
330
21A
100
AcDbEntity
  8
0
  6
Continuous
 62
     7
100
AcDbLine
 10
152.7283817275
 20
207.9772058824
 30
0.0
 11
152.7283817275
 21
208.9772058824
 31
0.0
  0
LINE
  5
297
330
21A
100
AcDbEntity
  8
0
  6
Continuous
 62
     7
100
AcDbLine
 10
153.0617156966
 20
207.9772058824
 30
0.0
 11
153.0617156966
 21
208.9772058824
 31
0.0
  0
LINE
  5
298
330
21A
100
AcDbEntity
  8
0
  6
Continuous
 62
     7
100
AcDbLine
 10
153.7924572737999
 20
207.9772058824
 30
0.0
 11
153.7924572737999
 21
208.9772058824
 31
0.0
  0
LINE
  5
299
330
21A
100
AcDbEntity
  8
0
  6
Continuous
 62
     7
100
AcDbLine
 10
279.4831872686
 20
69.4772058824
 30
0.0
 11
274.2421735006
 21
69.4772058824
 31
0.0
  0
LINE
  5
29A
330
21A
100
AcDbEntity
  8
0
  6
Continuous
 62
     7
100
AcDbLine
 10
148.904330384
 20
69.4772058824
 30
0.0
 11
143.663316616
 21
69.4772058824
 31
0.0
  0
LINE
  5
29B
330
21A
100
AcDbEntity
  8
0
  6
Continuous
 62
     7
100
AcDbLine
 10
279.4831872686
 20
71.6772058824
 30
0.0
 11
274.2805746434
 21
71.6772058824
 31
0.0
  0
LINE
  5
29C
330
21A
100
AcDbEntity
  8
0
  6
Continuous
 62
     7
100
AcDbLine
 10
148.8659292412
 20
71.6772058824
 30
0.0
 11
143.663316616
 21
71.6772058824
 31
0.0
  0
LINE
  5
29D
330
21A
100
AcDbEntity
  8
0
  6
Continuous
 62
     7
100
AcDbLine
 10
279.4831872686
 20
74.4772058824
 30
0.0
 11
274.3294488252
 21
74.4772058824
 31
0.0
  0
LINE
  5
29E
330
21A
100
AcDbEntity
  8
0
  6
Continuous
 62
     7
100
AcDbLine
 10
148.8170550594
 20
74.4772058824
 30
0.0
 11
143.663316616
 21
74.4772058824
 31
0.0
  0
LINE
  5
29F
330
21A
100
AcDbEntity
  8
0
  6
Continuous
 62
     7
100
AcDbLine
 10
280.5732151092
 20
75.6772058824
 30
0.0
 11
274.3503949031
 21
75.6772058824
 31
0.0
  0
LINE
  5
2A0
330
21A
100
AcDbEntity
  8
0
  6
Continuous
 62
     7
100
AcDbLine
 10
148.7961089815
 20
75.6772058824
 30
0.0
 11
142.5732887754
 21
75.6772058824
 31
0.0
  0
LINE
  5
2A1
330
21A
100
AcDbEntity
  8
0
  6
Continuous
 62
     7
100
AcDbLine
 10
154.4206078897
 20
207.9772058824
 30
0.0
 11
154.4206078897
 21
208.9772058824
 31
0.0
  0
LINE
  5
2A2
330
21A
100
AcDbEntity
  8
0
  6
Continuous
 62
     7
100
AcDbLine
 10
154.5732519423
 20
160.4945086192
 30
0.0
 11
154.5732519423
 21
46.4772058824
 31
0.0
  0
LINE
  5
2A3
330
21A
100
AcDbEntity
  8
0
  6
Continuous
 62
     7
100
AcDbLine
 10
155.3435751523
 20
207.9772058824
 30
0.0
 11
155.3435751523
 21
208.9772058824
 31
0.0
  0
LINE
  5
2A4
330
21A
100
AcDbEntity
  8
0
  6
Continuous
 62
     7
100
AcDbLine
 10
156.0165428918
 20
207.9772058824
 30
0.0
 11
156.0165428918
 21
208.9772058824
 31
0.0
  0
LINE
  5
2A5
330
21A
100
AcDbEntity
  8
0
  6
Continuous
 62
     7
100
AcDbLine
 10
156.2091237815
 20
207.9772058824
 30
0.0
 11
156.2091237815
 21
208.9772058824
 31
0.0
  0
LINE
  5
2A6
330
21A
100
AcDbEntity
  8
0
  6
Continuous
 62
     7
100
AcDbLine
 10
156.4783822043
 20
207.9772058824
 30
0.0
 11
156.4783822043
 21
208.9772058824
 31
0.0
  0
LINE
  5
2A7
330
21A
100
AcDbEntity
  8
0
  6
Continuous
 62
     7
100
AcDbLine
 10
156.895048712
 20
207.9772058824
 30
0.0
 11
156.895048712
 21
208.9772058824
 31
0.0
  0
LINE
  5
2A8
330
21A
100
AcDbEntity
  8
0
  6
Continuous
 62
     7
100
AcDbLine
 10
157.4591237814999
 20
207.9772058824
 30
0.0
 11
157.4591237814999
 21
208.9772058824
 31
0.0
  0
LINE
  5
2A9
330
21A
100
AcDbEntity
  8
0
  6
Continuous
 62
     7
100
AcDbLine
 10
158.3180162131
 20
207.9772058824
 30
0.0
 11
158.3180162131
 21
208.9772058824
 31
0.0
  0
LINE
  5
2AA
330
21A
100
AcDbEntity
  8
0
  6
Continuous
 62
     7
100
AcDbLine
 10
159.1576504602
 20
207.9772058824
 30
0.0
 11
159.1576504602
 21
208.9772058824
 31
0.0
  0
LINE
  5
2AB
330
21A
100
AcDbEntity
  8
0
  6
Continuous
 62
     7
100
AcDbLine
 10
160.0613604283
 20
207.9772058824
 30
0.0
 11
160.0613604283
 21
208.9772058824
 31
0.0
  0
LINE
  5
2AC
330
21A
100
AcDbEntity
  8
0
  6
Continuous
 62
     7
100
AcDbLine
 10
160.645048712
 20
207.9772058824
 30
0.0
 11
160.645048712
 21
208.9772058824
 31
0.0
  0
LINE
  5
2AD
330
21A
100
AcDbEntity
  8
0
  6
Continuous
 62
     7
100
AcDbLine
 10
161.145048712
 20
207.9772058824
 30
0.0
 11
161.145048712
 21
208.9772058824
 31
0.0
  0
LINE
  5
2AE
330
21A
100
AcDbEntity
  8
0
  6
Continuous
 62
     7
100
AcDbLine
 10
162.6769086446
 20
207.9772058824
 30
0.0
 11
162.6769086446
 21
208.9772058824
 31
0.0
  0
LINE
  5
2AF
330
21A
100
AcDbEntity
  8
0
  6
Continuous
 62
     7
100
AcDbLine
 10
163.8561775519
 20
207.9772058824
 30
0.0
 11
163.8561775519
 21
208.9772058824
 31
0.0
  0
LINE
  5
2B0
330
21A
100
AcDbEntity
  8
0
  6
Continuous
 62
     7
100
AcDbLine
 10
143.663316616
 20
66.6772058824
 30
0.0
 11
143.4517242391
 21
65.4772058824
 31
0.0
  0
LINE
  5
2B1
330
21A
100
AcDbEntity
  8
0
  6
Continuous
 62
     7
100
AcDbLine
 10
148.8773618458
 20
67.83313188060001
 30
0.0
 11
143.663316616
 21
66.6772058824
 31
0.0
  0
LINE
  5
2B2
330
21A
100
AcDbEntity
  8
0
  6
Continuous
 62
     7
100
AcDbLine
 10
148.8773618458
 20
72.83313188060001
 30
0.0
 11
143.663316616
 21
71.6772058824
 31
0.0
  0
LINE
  5
2B3
330
21A
100
AcDbEntity
  8
0
  6
Continuous
 62
     7
100
AcDbLine
 10
274.2691420388
 20
67.83313188060001
 30
0.0
 11
279.4831872686
 21
66.6772058824
 31
0.0
  0
LINE
  5
2B4
330
21A
100
AcDbEntity
  8
0
  6
Continuous
 62
     7
100
AcDbLine
 10
274.2691420388
 20
72.83313188060001
 30
0.0
 11
279.4831872686
 21
71.6772058824
 31
0.0
  0
LINE
  5
2B5
330
21A
100
AcDbEntity
  8
0
  6
Continuous
 62
     7
100
AcDbLine
 10
168.0732519423
 20
207.9772058824
 30
0.0
 11
168.0732519423
 21
208.9772058824
 31
0.0
  0
LINE
  5
2B6
330
21A
100
AcDbEntity
  8
0
  6
Continuous
 62
     7
100
AcDbLine
 10
203.0732519423
 20
208.9772058824
 30
0.0
 11
203.0732519423
 21
209.9772058824
 31
0.0
  0
LINE
  5
2B7
330
21A
100
AcDbEntity
  8
0
  6
Continuous
 62
     7
100
AcDbLine
 10
203.5732519423
 20
209.9772058824
 30
0.0
 11
203.5732519423
 21
211.5772058824
 31
0.0
  0
LINE
  5
2B8
330
21A
100
AcDbEntity
  8
0
  6
Continuous
 62
     7
100
AcDbLine
 10
203.5732519423
 20
212.6772058824
 30
0.0
 11
203.5732519423
 21
222.6772058824
 31
0.0
  0
LINE
  5
2B9
330
21A
100
AcDbEntity
  8
0
  6
Continuous
 62
     7
100
AcDbLine
 10
204.4350463782
 20
212.5827593818
 30
0.0
 11
204.4350463782
 21
212.6772058824
 31
0.0
  0
LINE
  5
2BA
330
21A
100
AcDbEntity
  8
0
  6
Continuous
 62
     7
100
AcDbLine
 10
204.5732519423
 20
222.6772058824
 30
0.0
 11
204.5732519423
 21
230.6772058824
 31
0.0
  0
LINE
  5
2BB
330
21A
100
AcDbEntity
  8
0
  6
Continuous
 62
     7
100
AcDbLine
 10
205.7732519423
 20
211.7272058824
 30
0.0
 11
205.7732519423
 21
211.5772058824
 31
0.0
  0
LINE
  5
2BC
330
21A
100
AcDbEntity
  8
0
  6
Continuous
 62
     7
100
AcDbLine
 10
207.5732519423
 20
200.4772058824
 30
0.0
 11
207.5732519423
 21
201.1579812579
 31
0.0
  0
LINE
  5
2BD
330
21A
100
AcDbEntity
  8
0
  6
Continuous
 62
     2
100
AcDbLine
 10
208.3732519423
 20
201.1797850671
 30
0.0
 11
208.3732519423
 21
200.4772058824
 31
0.0
  0
LINE
  5
2BE
330
21A
100
AcDbEntity
  8
0
  6
Continuous
 62
     7
100
AcDbLine
 10
210.0127596237
 20
212.5827593818
 30
0.0
 11
210.0127596237
 21
212.6772058824
 31
0.0
  0
LINE
  5
2BF
330
21A
100
AcDbEntity
  8
0
  6
CENTER
100
AcDbLine
 10
211.5732519423
 20
233.6772058824
 30
0.0
 11
211.5732519423
 21
42.47720588239999
 31
0.0
  0
LINE
  5
2C0
330
21A
100
AcDbEntity
  8
0
  6
Continuous
 62
     7
100
AcDbLine
 10
142.5732887754
 20
75.6772058824
 30
0.0
 11
141.0732519423
 21
74.17716824850001
 31
0.0
  0
LINE
  5
2C1
330
21A
100
AcDbEntity
  8
0
  6
Continuous
 62
     7
100
AcDbLine
 10
276.0732519423
 20
180.1022436781
 30
0.0
 11
282.0732519423
 21
183.5663452933
 31
0.0
  0
LINE
  5
2C2
330
21A
100
AcDbEntity
  8
0
  6
Continuous
 62
     2
100
AcDbLine
 10
214.7732519423
 20
201.1797850671
 30
0.0
 11
214.7732519423
 21
200.4772058824
 31
0.0
  0
LINE
  5
2C3
330
21A
100
AcDbEntity
  8
0
  6
Continuous
 62
     7
100
AcDbLine
 10
215.5732519423
 20
200.4772058824
 30
0.0
 11
215.5732519423
 21
201.1579812579
 31
0.0
  0
LINE
  5
2C4
330
21A
100
AcDbEntity
  8
0
  6
Continuous
 62
     7
100
AcDbLine
 10
217.1509651878
 20
212.5827593818
 30
0.0
 11
217.1509651878
 21
212.6772058824
 31
0.0
  0
LINE
  5
2C5
330
21A
100
AcDbEntity
  8
0
  6
Continuous
 62
     7
100
AcDbLine
 10
217.3732519423
 20
211.7272058824
 30
0.0
 11
217.3732519423
 21
211.5772058824
 31
0.0
  0
LINE
  5
2C6
330
21A
100
AcDbEntity
  8
0
  6
Continuous
 62
     7
100
AcDbLine
 10
218.5732519423
 20
222.6772058824
 30
0.0
 11
218.5732519423
 21
230.6772058824
 31
0.0
  0
LINE
  5
2C7
330
21A
100
AcDbEntity
  8
0
  6
Continuous
 62
     7
100
AcDbLine
 10
218.7114575064
 20
212.5827593818
 30
0.0
 11
218.7114575064
 21
212.6772058824
 31
0.0
  0
LINE
  5
2C8
330
21A
100
AcDbEntity
  8
0
  6
Continuous
 62
     7
100
AcDbLine
 10
219.5732519423
 20
209.9772058824
 30
0.0
 11
219.5732519423
 21
211.5772058824
 31
0.0
  0
LINE
  5
2C9
330
21A
100
AcDbEntity
  8
0
  6
Continuous
 62
     7
100
AcDbLine
 10
219.5732519423
 20
212.6772058824
 30
0.0
 11
219.5732519423
 21
222.6772058824
 31
0.0
  0
LINE
  5
2CA
330
21A
100
AcDbEntity
  8
0
  6
Continuous
 62
     7
100
AcDbLine
 10
220.0732519423
 20
208.9772058824
 30
0.0
 11
220.0732519423
 21
209.9772058824
 31
0.0
  0
LINE
  5
2CB
330
21A
100
AcDbEntity
  8
0
  6
Continuous
 62
     7
100
AcDbLine
 10
147.0732519423
 20
180.1022436781
 30
0.0
 11
141.0732519423
 21
183.5663452933
 31
0.0
  0
LINE
  5
2CC
330
21A
100
AcDbEntity
  8
0
  6
Continuous
 62
     7
100
AcDbLine
 10
280.5732151092
 20
75.6772058824
 30
0.0
 11
282.0732519423
 21
74.17716824850001
 31
0.0
  0
LINE
  5
2CD
330
21A
100
AcDbEntity
  8
0
  6
Continuous
 62
     7
100
AcDbLine
 10
313.8182367515
 20
212.216539062
 30
0.0
 11
313.3289035718
 21
211.7272058824
 31
0.0
  0
LINE
  5
2CE
330
21A
100
AcDbEntity
  8
0
  6
Continuous
 62
     7
100
AcDbLine
 10
274.5907043487
 20
161.5822409048
 30
0.0
 11
269.5557995358
 21
161.4943563144
 31
0.0
  0
LINE
  5
2CF
330
21A
100
AcDbEntity
  8
0
  6
Continuous
 62
     7
100
AcDbLine
 10
278.1507813295
 20
155.4772058824
 30
0.0
 11
277.7087036106
 21
155.4772058824
 31
0.0
  0
LINE
  5
2D0
330
21A
100
AcDbEntity
  8
0
  6
Continuous
 62
     7
100
AcDbLine
 10
145.437800274
 20
155.4772058824
 30
0.0
 11
144.9957225551
 21
155.4772058824
 31
0.0
  0
LINE
  5
2D1
330
21A
100
AcDbEntity
  8
0
  6
Continuous
 62
     9
100
AcDbLine
 10
268.5732519423
 20
160.4945086192
 30
0.0
 11
154.5732519423
 21
160.4945086192
 31
0.0
  0
LINE
  5
2D2
330
21A
100
AcDbEntity
  8
0
  6
Continuous
 62
     9
100
AcDbLine
 10
269.5557995358
 20
161.4943563144
 30
0.0
 11
153.5907043487
 21
161.4943563144
 31
0.0
  0
LINE
  5
2D3
330
21A
100
AcDbEntity
  8
0
  6
Continuous
 62
     9
100
AcDbLine
 10
153.4404672334
 20
161.5822409048
 30
0.0
 11
269.5557995358
 21
161.5822409048
 31
0.0
  0
LINE
  5
2D4
330
21A
100
AcDbEntity
  8
0
  6
Continuous
 62
     9
100
AcDbLine
 10
147.5732519423
 20
162.5820886
 30
0.0
 11
275.5732519423
 21
162.5820886
 31
0.0
  0
LINE
  5
2D5
330
21A
100
AcDbEntity
  8
0
  6
Continuous
 62
     7
100
AcDbLine
 10
148.5557995358
 20
161.5822409048
 30
0.0
 11
153.5907043487
 21
161.4943563144
 31
0.0
  0
LINE
  5
2D6
330
21A
100
AcDbEntity
  8
0
  6
Continuous
 62
     7
100
AcDbLine
 10
286.1507813295
 20
176.4772058824
 30
0.0
 11
284.5456269079999
 21
176.4772058824
 31
0.0
  0
LINE
  5
2D7
330
21A
100
AcDbEntity
  8
0
  6
Continuous
 62
     7
100
AcDbLine
 10
138.6008769766
 20
176.4772058824
 30
0.0
 11
136.9957225551
 21
176.4772058824
 31
0.0
  0
LINE
  5
2D8
330
21A
100
AcDbEntity
  8
0
  6
Continuous
 62
     9
100
AcDbLine
 10
147.5732519423
 20
179.2362182743
 30
0.0
 11
148.8213614096
 21
179.2362182743
 31
0.0
  0
LINE
  5
2D9
330
21A
100
AcDbEntity
  8
0
  6
Continuous
 62
     9
100
AcDbLine
 10
274.3251426696
 20
179.2362182743
 30
0.0
 11
275.5732519423
 21
179.2362182743
 31
0.0
  0
LINE
  5
2DA
330
21A
100
AcDbEntity
  8
0
  6
Continuous
 62
     9
100
AcDbLine
 10
147.0732519423
 20
180.1022436781
 30
0.0
 11
148.33115174
 21
180.1022436781
 31
0.0
  0
LINE
  5
2DB
330
21A
100
AcDbEntity
  8
0
  6
Continuous
 62
     9
100
AcDbLine
 10
274.8153524202
 20
180.1022436781
 30
0.0
 11
276.0732519423
 21
180.1022436781
 31
0.0
  0
LINE
  5
2DC
330
21A
100
AcDbEntity
  8
RUNDUNGEN
  6
Continuous
 62
     9
100
AcDbLine
 10
148.3850903844
 20
181.1117244432
 30
0.0
 11
149.1862392796
 21
181.1117244432
 31
0.0
  0
LINE
  5
2DD
330
21A
100
AcDbEntity
  8
RUNDUNGEN
  6
Continuous
 62
     9
100
AcDbLine
 10
273.9602646049
 20
181.1117244443
 30
0.0
 11
274.7614135001
 21
181.1117244443
 31
0.0
  0
LINE
  5
2DE
330
21A
100
AcDbEntity
  8
RUNDUNGEN
  6
Continuous
 62
     9
100
AcDbLine
 10
274.7614135001
 20
182.7501377102
 30
0.0
 11
148.3850903844
 21
182.7501377102
 31
0.0
  0
LINE
  5
2DF
330
21A
100
AcDbEntity
  8
0
  6
Continuous
 62
     9
100
AcDbLine
 10
142.1677489557
 20
183.5663452933
 30
0.0
 11
141.0732519423
 21
183.5663452933
 31
0.0
  0
LINE
  5
2E0
330
21A
100
AcDbEntity
  8
0
  6
Continuous
 62
     9
100
AcDbLine
 10
280.9786664281
 20
183.5663452933
 30
0.0
 11
282.0732519423
 21
183.5663452933
 31
0.0
  0
LINE
  5
2E1
330
21A
100
AcDbEntity
  8
RUNDUNGEN
  6
Continuous
 62
     9
100
AcDbLine
 10
274.9180206711
 20
183.7499854054
 30
0.0
 11
148.2284831357
 21
183.7499854054
 31
0.0
  0
LINE
  5
2E2
330
21A
100
AcDbEntity
  8
RUNDUNGEN
  6
Continuous
 62
     9
100
AcDbLine
 10
280.2661764276
 20
183.8378699958
 30
0.0
 11
142.8803276096
 21
183.8378699958
 31
0.0
  0
LINE
  5
2E3
330
21A
100
AcDbEntity
  8
0
  6
Continuous
 62
     9
100
AcDbLine
 10
282.5732519423
 20
184.432370697
 30
0.0
 11
281.4705815275
 21
184.432370697
 31
0.0
  0
LINE
  5
2E4
330
21A
100
AcDbEntity
  8
0
  6
Continuous
 62
     9
100
AcDbLine
 10
141.6756120691
 20
184.432370697
 30
0.0
 11
140.5732519423
 21
184.432370697
 31
0.0
  0
LINE
  5
2E5
330
21A
100
AcDbEntity
  8
RUNDUNGEN
  6
Continuous
 62
     9
100
AcDbLine
 10
281.2301150144
 20
184.837717691
 30
0.0
 11
141.9163888722
 21
184.837717691
 31
0.0
  0
LINE
  5
2E6
330
21A
100
AcDbEntity
  8
0
  6
Continuous
 62
     7
100
AcDbLine
 10
268.5732519423
 20
160.4945086192
 30
0.0
 11
268.5732519423
 21
46.4772058824
 31
0.0
  0
LINE
  5
2E7
330
21A
100
AcDbEntity
  8
0
  6
Continuous
 62
     7
100
AcDbLine
 10
327.1095898921
 20
200.968935536
 30
0.0
 11
334.0732519423
 21
201.5781770221
 31
0.0
  0
LINE
  5
2E8
330
21A
100
AcDbEntity
  8
0
  6
Continuous
 62
     7
100
AcDbLine
 10
316.5881081829
 20
201.0607551159
 30
0.0
 11
319.0732519423
 21
201.2781770221
 31
0.0
  0
LINE
  5
2E9
330
21A
100
AcDbEntity
  8
0
  6
Continuous
 62
     7
100
AcDbLine
 10
302.9486267506
 20
201.1797850671
 30
0.0
 11
304.0732519423
 21
201.2781770221
 31
0.0
  0
LINE
  5
2EA
330
21A
100
AcDbEntity
  8
0
  6
Continuous
 62
     7
100
AcDbLine
 10
116.0677380941
 20
192.3009884600999
 30
0.0
 11
116.8674625314
 21
192.3009884600999
 31
0.0
  0
LINE
  5
2EB
330
21A
100
AcDbEntity
  8
0
  6
Continuous
 62
     7
100
AcDbLine
 10
306.2790007028
 20
192.3009884600999
 30
0.0
 11
307.0788064408
 21
192.3009884600999
 31
0.0
  0
LINE
  5
2EC
330
21A
100
AcDbEntity
  8
0
  6
Continuous
 62
     7
100
AcDbLine
 10
322.9185514039
 20
192.4772058824
 30
0.0
 11
291.4405404292
 21
192.4772058824
 31
0.0
  0
LINE
  5
2ED
330
21A
100
AcDbEntity
  8
0
  6
Continuous
 62
     7
100
AcDbLine
 10
131.7059634553
 20
192.4772058824
 30
0.0
 11
100.2279524807
 21
192.4772058824
 31
0.0
  0
LINE
  5
2EE
330
21A
100
AcDbEntity
  8
RUNDUNGEN
  6
Continuous
 62
     7
100
AcDbLine
 10
100.2279524807
 20
192.4772058824
 30
0.0
 11
86.66571794499999
 21
192.4772058824
 31
0.0
  0
LINE
  5
2EF
330
21A
100
AcDbEntity
  8
0
  6
Continuous
 62
     7
100
AcDbLine
 10
90.74123455309999
 20
192.4772058824
 30
0.0
 11
63.6808121928
 21
192.4772058824
 31
0.0
  0
LINE
  5
2F0
330
21A
100
AcDbEntity
  8
RUNDUNGEN
  6
Continuous
 62
     7
100
AcDbLine
 10
322.9185514039
 20
192.4772058824
 30
0.0
 11
336.4807859391
 21
192.4772058824
 31
0.0
  0
LINE
  5
2F1
330
21A
100
AcDbEntity
  8
0
  6
Continuous
 62
     7
100
AcDbLine
 10
332.4052909212
 20
192.4772058824
 30
0.0
 11
359.4656916917
 21
192.4772058824
 31
0.0
  0
LINE
  5
2F2
330
21A
100
AcDbEntity
  8
RUNDUNGEN
  6
Continuous
 62
     9
100
AcDbLine
 10
98.49590167309999
 20
193.4772058823
 30
0.0
 11
90.7145905632
 21
193.4772058824
 31
0.0
  0
LINE
  5
2F3
330
21A
100
AcDbEntity
  8
0
  6
Continuous
 62
     9
100
AcDbLine
 10
88.257141569
 20
193.4772058761
 30
0.0
 11
77.3602333286
 21
193.4772058824
 31
0.0
  0
LINE
  5
2F4
330
21A
100
AcDbEntity
  8
RUNDUNGEN
  6
Continuous
 62
     9
100
AcDbLine
 10
324.6506022115
 20
193.4772058824
 30
0.0
 11
332.4319132448
 21
193.4772058824
 31
0.0
  0
LINE
  5
2F5
330
21A
100
AcDbEntity
  8
0
  6
Continuous
 62
     9
100
AcDbLine
 10
334.889362315
 20
193.4772058779
 30
0.0
 11
345.786270556
 21
193.4772058824
 31
0.0
  0
LINE
  5
2F6
330
21A
100
AcDbEntity
  8
RUNDUNGEN
  6
Continuous
 62
     9
100
AcDbLine
 10
281.6142199218
 20
193.8723231647
 30
0.0
 11
141.9163888715
 21
193.8723231647
 31
0.0
  0
LINE
  5
2F7
330
21A
100
AcDbEntity
  8
RUNDUNGEN
  6
Continuous
 62
     9
100
AcDbLine
 10
332.1564775925
 20
194.4772058824
 30
0.0
 11
325.2279524807
 21
194.4772058824
 31
0.0
  0
LINE
  5
2F8
330
21A
100
AcDbEntity
  8
AUSFORMSCHRAEGEN
  6
Continuous
 62
     7
100
AcDbLine
 10
94.836869184
 20
194.4772058824
 30
0.0
 11
94.74983665819999
 21
194.4772058824
 31
0.0
  0
LINE
  5
2F9
330
21A
100
AcDbEntity
  8
RUNDUNGEN
  6
Continuous
 62
     9
100
AcDbLine
 10
97.9185514039
 20
194.4772058824
 30
0.0
 11
94.836869184
 21
194.4772058824
 31
0.0
  0
LINE
  5
2FA
330
21A
100
AcDbEntity
  8
0
  6
Continuous
 62
     9
100
AcDbLine
 10
77.93758359779999
 20
194.4772058824
 30
0.0
 11
82.02649963769999
 21
194.4772058824
 31
0.0
  0
LINE
  5
2FB
330
21A
100
AcDbEntity
  8
0
  6
Continuous
 62
     7
100
AcDbLine
 10
82.02649963769999
 20
194.4772058824
 30
0.0
 11
94.74983665819999
 21
194.4772058824
 31
0.0
  0
LINE
  5
2FC
330
21A
100
AcDbEntity
  8
0
  6
Continuous
 62
     9
100
AcDbLine
 10
334.6173134457
 20
194.4772058824
 30
0.0
 11
345.2089202868
 21
194.4772058824
 31
0.0
  0
LINE
  5
2FD
330
21A
100
AcDbEntity
  8
RUNDUNGEN
  6
Continuous
 62
     9
100
AcDbLine
 10
280.2661781825
 20
194.8721708599
 30
0.0
 11
142.8803276529
 21
194.8721708599
 31
0.0
  0
LINE
  5
2FE
330
21A
100
AcDbEntity
  8
RUNDUNGEN
  6
Continuous
 62
     9
100
AcDbLine
 10
274.9180206412
 20
194.9600554503
 30
0.0
 11
148.228483166
 21
194.9600554503
 31
0.0
  0
LINE
  5
2FF
330
21A
100
AcDbEntity
  8
0
  6
Continuous
 62
     7
100
AcDbLine
 10
343.4768694792
 20
195.4772058824
 30
0.0
 11
326.9600032882
 21
195.4772058824
 31
0.0
  0
LINE
  5
300
330
21A
100
AcDbEntity
  8
0
  6
Continuous
 62
     7
100
AcDbLine
 10
96.18650059629999
 20
195.4772058824
 30
0.0
 11
94.69742887889999
 21
195.4772058824
 31
0.0
  0
LINE
  5
301
330
21A
100
AcDbEntity
  8
0
  6
Continuous
 62
     7
100
AcDbLine
 10
93.02218814879999
 20
195.4772058824
 30
0.0
 11
83.7541481471
 21
195.4772058824
 31
0.0
  0
LINE
  5
302
330
21A
100
AcDbEntity
  8
0
  6
Continuous
 62
     7
100
AcDbLine
 10
82.07890741699999
 20
195.4772058824
 30
0.0
 11
79.6696344054
 21
195.4772058824
 31
0.0
  0
LINE
  5
303
330
21A
100
AcDbEntity
  8
RUNDUNGEN
  6
Continuous
 62
     9
100
AcDbLine
 10
142.3451282918
 20
195.8605767246
 30
0.0
 11
141.5322839627
 21
195.8605767246
 31
0.0
  0
LINE
  5
304
330
21A
100
AcDbEntity
  8
RUNDUNGEN
  6
Continuous
 62
     9
100
AcDbLine
 10
148.3850903844
 20
195.9599031455
 30
0.0
 11
274.7614135001
 21
195.9599031455
 31
0.0
  0
LINE
  5
305
330
21A
100
AcDbEntity
  8
0
  6
Continuous
 62
     7
100
AcDbLine
 10
96.03691399250001
 20
200.968935536
 30
0.0
 11
89.07325194229999
 21
201.5781770221
 31
0.0
  0
LINE
  5
306
330
21A
100
AcDbEntity
  8
0
  6
Continuous
 62
     7
100
AcDbLine
 10
106.5583957017
 20
201.0607551159
 30
0.0
 11
104.0732519423
 21
201.2781770221
 31
0.0
  0
LINE
  5
307
330
21A
100
AcDbEntity
  8
0
  6
Continuous
 62
     7
100
AcDbLine
 10
120.1978771339
 20
201.1797850671
 30
0.0
 11
119.0732519423
 21
201.2781770221
 31
0.0
  0
LINE
  5
308
330
21A
100
AcDbEntity
  8
0
  6
Continuous
 62
     7
100
AcDbLine
 10
279.4831872686
 20
66.6772058824
 30
0.0
 11
279.6947796454
 21
65.4772058824
 31
0.0
  0
LINE
  5
309
330
21A
100
AcDbEntity
  8
RUNDUNGEN
  6
Continuous
 62
     9
100
AcDbLine
 10
273.9602646049
 20
181.1117244443
 30
0.0
 11
273.9602646049
 21
182.7501377102
 31
0.0
  0
LINE
  5
30A
330
21A
100
AcDbEntity
  8
RUNDUNGEN
  6
Continuous
 62
     9
100
AcDbLine
 10
273.9602646049
 20
195.9599031455
 30
0.0
 11
273.9602646049
 21
199.4772058824
 31
0.0
  0
LINE
  5
30B
330
21A
100
AcDbEntity
  8
RUNDUNGEN
  6
Continuous
 62
     9
100
AcDbLine
 10
274.7614135001
 20
181.1117345931
 30
0.0
 11
274.7614135001
 21
182.7501379417
 31
0.0
  0
LINE
  5
30C
330
21A
100
AcDbEntity
  8
RUNDUNGEN
  6
Continuous
 62
     9
100
AcDbLine
 10
274.7614135001
 20
195.9599025469
 30
0.0
 11
274.7614135001
 21
199.4772058824
 31
0.0
  0
LINE
  5
30D
330
21A
100
AcDbEntity
  8
0
  6
Continuous
 62
     7
100
AcDbLine
 10
275.5732519423
 20
179.2362182743
 30
0.0
 11
275.5732519423
 21
162.5820886
 31
0.0
  0
LINE
  5
30E
330
21A
100
AcDbEntity
  8
0
  6
Continuous
 62
     7
100
AcDbLine
 10
279.4831872686
 20
71.6772058824
 30
0.0
 11
279.4831872686
 21
69.4772058824
 31
0.0
  0
LINE
  5
30F
330
21A
100
AcDbEntity
  8
0
  6
Continuous
 62
     7
100
AcDbLine
 10
279.6591318223
 20
207.9772058824
 30
0.0
 11
279.6591318223
 21
208.9772058824
 31
0.0
  0
LINE
  5
310
330
21A
100
AcDbEntity
  8
0
  6
Continuous
 62
     7
100
AcDbLine
 10
280.0846636865
 20
207.9772058824
 30
0.0
 11
280.0846636865
 21
208.9772058824
 31
0.0
  0
LINE
  5
311
330
21A
100
AcDbEntity
  8
RUNDUNGEN
  6
Continuous
 62
     9
100
AcDbLine
 10
280.8013755928
 20
195.7493786791
 30
0.0
 11
280.8013755928
 21
199.4772058824
 31
0.0
  0
LINE
  5
312
330
21A
100
AcDbEntity
  8
RUNDUNGEN
  6
Continuous
 62
     9
100
AcDbLine
 10
281.6142199218
 20
193.8723231647
 30
0.0
 11
281.6142199218
 21
199.4772058824
 31
0.0
  0
LINE
  5
313
330
21A
100
AcDbEntity
  8
0
  6
Continuous
 62
     7
100
AcDbLine
 10
282.0732519423
 20
74.17716824850001
 30
0.0
 11
282.0732519423
 21
73.80720588239999
 31
0.0
  0
LINE
  5
314
330
21A
100
AcDbEntity
  8
0
  6
Continuous
 62
     7
100
AcDbLine
 10
282.0732519423
 20
72.8072058824
 30
0.0
 11
282.0732519423
 21
72.0072058824
 31
0.0
  0
LINE
  5
315
330
21A
100
AcDbEntity
  8
0
  6
Continuous
 62
     7
100
AcDbLine
 10
282.0732519423
 20
71.0072058824
 30
0.0
 11
282.0732519423
 21
70.2072058824
 31
0.0
  0
LINE
  5
316
330
21A
100
AcDbEntity
  8
0
  6
Continuous
 62
     7
100
AcDbLine
 10
282.0732519423
 20
69.2072058824
 30
0.0
 11
282.0732519423
 21
68.40720588239999
 31
0.0
  0
LINE
  5
317
330
21A
100
AcDbEntity
  8
0
  6
Continuous
 62
     7
100
AcDbLine
 10
282.0732519423
 20
67.40720588239999
 30
0.0
 11
282.0732519423
 21
66.97724396319999
 31
0.0
  0
LINE
  5
318
330
21A
100
AcDbEntity
  8
0
  6
Continuous
 62
     7
100
AcDbLine
 10
282.3940648321
 20
207.9772058824
 30
0.0
 11
282.3940648321
 21
208.9772058824
 31
0.0
  0
LINE
  5
319
330
21A
100
AcDbEntity
  8
0
  6
Continuous
 62
     7
100
AcDbLine
 10
282.5732519423
 20
199.4772058824
 30
0.0
 11
282.5732519423
 21
184.432370697
 31
0.0
  0
LINE
  5
31A
330
21A
100
AcDbEntity
  8
0
  6
Continuous
 62
     7
100
AcDbLine
 10
275.7090082203
 20
153.5121106952
 30
0.0
 11
273.8404023743
 21
46.4597534759
 31
0.0
  0
LINE
  5
31B
330
21A
100
AcDbEntity
  8
0
  6
Continuous
 62
     7
100
AcDbLine
 10
281.5466549331
 20
173.5557367273
 30
0.0
 11
281.1497533044
 21
158.3986750374
 31
0.0
  0
LINE
  5
31C
330
21A
100
AcDbEntity
  8
0
  6
Continuous
 62
     7
100
AcDbLine
 10
325.2279524807
 20
194.4772058824
 30
0.0
 11
324.6506022115
 21
193.4772058824
 31
0.0
  0
LINE
  5
31D
330
21A
100
AcDbEntity
  8
0
  6
Continuous
 62
     7
100
AcDbLine
 10
117.6994080712
 20
201.1579812579
 30
0.0
 11
119.0732519423
 21
201.2781770221
 31
0.0
  0
LINE
  5
31E
330
21A
100
AcDbEntity
  8
0
  6
Continuous
 62
     7
100
AcDbLine
 10
134.1095772316
 20
201.3011906346
 30
0.0
 11
120.1978771339
 21
201.1797850671
 31
0.0
  0
LINE
  5
31F
330
21A
100
AcDbEntity
  8
0
  6
Continuous
 62
     7
100
AcDbLine
 10
117.6994080712
 20
201.1579812579
 30
0.0
 11
106.5583957017
 21
201.0607551159
 31
0.0
  0
LINE
  5
320
330
21A
100
AcDbEntity
  8
0
  6
Continuous
 62
     7
100
AcDbLine
 10
101.0373964875
 20
201.0125740857
 30
0.0
 11
96.03691399250001
 21
200.968935536
 31
0.0
  0
LINE
  5
321
330
21A
100
AcDbEntity
  8
0
  6
Continuous
 62
     7
100
AcDbLine
 10
80.56643162649999
 20
200.8339266818
 30
0.0
 11
76.9512192559
 21
200.8023772014
 31
0.0
  0
LINE
  5
322
330
21A
100
AcDbEntity
  8
0
  6
Continuous
 62
     7
100
AcDbLine
 10
346.2221859447
 20
200.8024222453
 30
0.0
 11
346.1952846287001
 21
200.8023772014
 31
0.0
  0
LINE
  5
323
330
21A
100
AcDbEntity
  8
0
  6
Continuous
 62
     9
100
AcDbLine
 10
282.5732519423
 20
199.4772058824
 30
0.0
 11
281.6142199218
 21
199.4772058824
 31
0.0
  0
LINE
  5
324
330
21A
100
AcDbEntity
  8
RUNDUNGEN
  6
Continuous
 62
     9
100
AcDbLine
 10
281.6142199218
 20
199.4772058824
 30
0.0
 11
141.5322839627
 21
199.4772058824
 31
0.0
  0
LINE
  5
325
330
21A
100
AcDbEntity
  8
0
  6
Continuous
 62
     9
100
AcDbLine
 10
141.5322839627
 20
199.4772058824
 30
0.0
 11
140.5732519423
 21
199.4772058824
 31
0.0
  0
LINE
  5
326
330
21A
100
AcDbEntity
  8
0
  6
Continuous
 62
     7
100
AcDbLine
 10
359.4656916917
 20
200.4772058824
 30
0.0
 11
283.5732519423
 21
200.4772058824
 31
0.0
  0
LINE
  5
327
330
21A
100
AcDbEntity
  8
RUNDUNGEN
  6
Continuous
 62
     7
100
AcDbLine
 10
282.6007124286
 20
200.4772058824
 30
0.0
 11
140.545791456
 21
200.4772058824
 31
0.0
  0
LINE
  5
328
330
21A
100
AcDbEntity
  8
0
  6
Continuous
 62
     7
100
AcDbLine
 10
139.5732519423
 20
200.4772058824
 30
0.0
 11
63.6808121928
 21
200.4772058824
 31
0.0
  0
LINE
  5
329
330
21A
100
AcDbEntity
  8
0
  6
Continuous
 62
     7
100
AcDbLine
 10
80.56643162649999
 20
200.8022629706
 30
0.0
 11
112.4676003128
 21
200.8022629706
 31
0.0
  0
LINE
  5
32A
330
21A
100
AcDbEntity
  8
0
  6
Continuous
 62
     7
100
AcDbLine
 10
120.4676003128
 20
200.8022629706
 30
0.0
 11
207.5732519423
 21
200.8022629706
 31
0.0
  0
LINE
  5
32B
330
21A
100
AcDbEntity
  8
0
  6
Continuous
 62
     7
100
AcDbLine
 10
215.5732519423
 20
200.8022629706
 30
0.0
 11
302.6789035718
 21
200.8022629706
 31
0.0
  0
LINE
  5
32C
330
21A
100
AcDbEntity
  8
0
  6
Continuous
 62
     7
100
AcDbLine
 10
310.6789035718
 20
200.8022629706
 30
0.0
 11
342.5800722581
 21
200.8022629706
 31
0.0
  0
LINE
  5
32D
330
21A
100
AcDbEntity
  8
0
  6
Continuous
 62
     7
100
AcDbLine
 10
80.56643162649999
 20
200.8339266818
 30
0.0
 11
112.4676003128
 21
200.8339266818
 31
0.0
  0
LINE
  5
32E
330
21A
100
AcDbEntity
  8
0
  6
Continuous
 62
     7
100
AcDbLine
 10
120.4676003128
 20
200.8339266818
 30
0.0
 11
207.5732519423
 21
200.8339266818
 31
0.0
  0
LINE
  5
32F
330
21A
100
AcDbEntity
  8
0
  6
Continuous
 62
     7
100
AcDbLine
 10
215.5732519423
 20
200.8339266818
 30
0.0
 11
302.6789035718
 21
200.8339266818
 31
0.0
  0
LINE
  5
330
330
21A
100
AcDbEntity
  8
0
  6
Continuous
 62
     7
100
AcDbLine
 10
310.6789035718
 20
200.8339266818
 30
0.0
 11
342.5800722581
 21
200.8339266818
 31
0.0
  0
LINE
  5
331
330
21A
100
AcDbEntity
  8
0
  6
Continuous
 62
     7
100
AcDbLine
 10
100.7169474823
 20
200.968935536
 30
0.0
 11
112.4676003128
 21
200.968935536
 31
0.0
  0
LINE
  5
332
330
21A
100
AcDbEntity
  8
0
  6
Continuous
 62
     7
100
AcDbLine
 10
120.4676003128
 20
200.968935536
 30
0.0
 11
207.5958090445
 21
200.968935536
 31
0.0
  0
LINE
  5
333
330
21A
100
AcDbEntity
  8
0
  6
Continuous
 62
     7
100
AcDbLine
 10
215.5506948401
 20
200.968935536
 30
0.0
 11
302.6789035718
 21
200.968935536
 31
0.0
  0
LINE
  5
334
330
21A
100
AcDbEntity
  8
0
  6
Continuous
 62
     7
100
AcDbLine
 10
310.6789035718
 20
200.968935536
 30
0.0
 11
322.4295564023
 21
200.968935536
 31
0.0
  0
LINE
  5
335
330
21A
100
AcDbEntity
  8
0
  6
Continuous
 62
     7
100
AcDbLine
 10
104.0732519423
 20
201.0125740857
 30
0.0
 11
112.4676003128
 21
201.0125740857
 31
0.0
  0
LINE
  5
336
330
21A
100
AcDbEntity
  8
0
  6
Continuous
 62
     7
100
AcDbLine
 10
120.4676003128
 20
201.0125740857
 30
0.0
 11
207.5958090445
 21
201.0125740857
 31
0.0
  0
LINE
  5
337
330
21A
100
AcDbEntity
  8
0
  6
Continuous
 62
     7
100
AcDbLine
 10
215.5506948401
 20
201.0125740857
 30
0.0
 11
302.6789035718
 21
201.0125740857
 31
0.0
  0
LINE
  5
338
330
21A
100
AcDbEntity
  8
0
  6
Continuous
 62
     7
100
AcDbLine
 10
310.6789035718
 20
201.0125740857
 30
0.0
 11
322.109107397
 21
201.0125740857
 31
0.0
  0
LINE
  5
339
330
21A
100
AcDbEntity
  8
0
  6
Continuous
 62
     7
100
AcDbLine
 10
120.4676003128
 20
201.0607551159
 30
0.0
 11
205.0099622444
 21
201.0607551159
 31
0.0
  0
LINE
  5
33A
330
21A
100
AcDbEntity
  8
0
  6
Continuous
 62
     7
100
AcDbLine
 10
218.1396129033
 20
201.0607551159
 30
0.0
 11
302.6789035718
 21
201.0607551159
 31
0.0
  0
LINE
  5
33B
330
21A
100
AcDbEntity
  8
0
  6
Continuous
 62
     7
100
AcDbLine
 10
303.4155382961
 20
201.1579812579
 30
0.0
 11
302.9486267506
 21
201.1579812579
 31
0.0
  0
LINE
  5
33C
330
21A
100
AcDbEntity
  8
0
  6
Continuous
 62
     7
100
AcDbLine
 10
300.7278470555
 20
201.1579812579
 30
0.0
 11
215.5506948401
 21
201.1579812579
 31
0.0
  0
LINE
  5
33D
330
21A
100
AcDbEntity
  8
0
  6
Continuous
 62
     7
100
AcDbLine
 10
207.5958090445
 20
201.1579812579
 30
0.0
 11
122.4186568291
 21
201.1579812579
 31
0.0
  0
LINE
  5
33E
330
21A
100
AcDbEntity
  8
0
  6
Continuous
 62
     7
100
AcDbLine
 10
120.1978771339
 20
201.1579812579
 30
0.0
 11
117.6994080712
 21
201.1579812579
 31
0.0
  0
LINE
  5
33F
330
21A
100
AcDbEntity
  8
0
  6
Continuous
 62
     7
100
AcDbLine
 10
122.4186568291
 20
201.1797850671
 30
0.0
 11
300.7278470555
 21
201.1797850671
 31
0.0
  0
LINE
  5
340
330
21A
100
AcDbEntity
  8
0
  6
Continuous
 62
     7
100
AcDbLine
 10
134.1095772316
 20
201.3011906346
 30
0.0
 11
289.0369266529999
 21
201.3011906346
 31
0.0
  0
LINE
  5
341
330
21A
100
AcDbEntity
  8
0
  6
Continuous
 62
     7
100
AcDbLine
 10
349.5981839234
 20
207.9772058824
 30
0.0
 11
288.5732519423
 21
207.9772058824
 31
0.0
  0
LINE
  5
342
330
21A
100
AcDbEntity
  8
0
  6
Continuous
 62
     7
100
AcDbLine
 10
73.54831996109999
 20
207.9772058824
 30
0.0
 11
288.4596754934
 21
207.9772058824
 31
0.0
  0
LINE
  5
343
330
21A
100
AcDbEntity
  8
0
  6
Continuous
 62
     9
100
AcDbLine
 10
107.0165437965
 20
208.9772058824
 30
0.0
 11
125.9186568291
 21
208.9772058824
 31
0.0
  0
LINE
  5
344
330
21A
100
AcDbEntity
  8
0
  6
Continuous
 62
     7
100
AcDbLine
 10
146.145048712
 20
208.9772058824
 30
0.0
 11
168.0732519423
 21
208.9772058824
 31
0.0
  0
LINE
  5
345
330
21A
100
AcDbEntity
  8
0
  6
Continuous
 62
     9
100
AcDbLine
 10
203.0732519423
 20
208.9772058824
 30
0.0
 11
220.0732519423
 21
208.9772058824
 31
0.0
  0
LINE
  5
346
330
21A
100
AcDbEntity
  8
0
  6
Continuous
 62
     7
100
AcDbLine
 10
279.6591318223
 20
208.9772058824
 30
0.0
 11
286.8345583717
 21
208.9772058824
 31
0.0
  0
LINE
  5
347
330
21A
100
AcDbEntity
  8
0
  6
Continuous
 62
     7
100
AcDbLine
 10
288.4596754934
 20
208.9772058824
 30
0.0
 11
297.2278470555
 21
208.9772058824
 31
0.0
  0
LINE
  5
348
330
21A
100
AcDbEntity
  8
0
  6
Continuous
 62
     9
100
AcDbLine
 10
297.2278470555
 20
208.9772058824
 30
0.0
 11
316.1299600881
 21
208.9772058824
 31
0.0
  0
LINE
  5
349
330
21A
100
AcDbEntity
  8
0
  6
Continuous
 62
     7
100
AcDbLine
 10
316.1299600881
 20
208.9772058824
 30
0.0
 11
326.1610896816
 21
208.9772058824
 31
0.0
  0
LINE
  5
34A
330
21A
100
AcDbEntity
  8
02___PRT_ALL_AXES
  6
Continuous
 62
     7
100
AcDbLine
 10
107.0163606706
 20
209.9772058824
 30
0.0
 11
125.9188399549
 21
209.9772058824
 31
0.0
  0
LINE
  5
34B
330
21A
100
AcDbEntity
  8
0
  6
Continuous
 62
     7
100
AcDbLine
 10
203.0732519423
 20
209.9772058824
 30
0.0
 11
220.0732519423
 21
209.9772058824
 31
0.0
  0
LINE
  5
34C
330
21A
100
AcDbEntity
  8
02___PRT_ALL_AXES
  6
Continuous
 62
     7
100
AcDbLine
 10
297.2276639296
 20
209.9772058824
 30
0.0
 11
316.1301432140001
 21
209.9772058824
 31
0.0
  0
LINE
  5
34D
330
21A
100
AcDbEntity
  8
0
  6
Continuous
 62
     7
100
AcDbLine
 10
76.9243179415
 20
200.8024222442
 30
0.0
 11
76.9512192559
 21
200.8023772014
 31
0.0
  0
LINE
  5
34E
330
21A
100
AcDbEntity
  8
0
  6
Continuous
 62
     7
100
AcDbLine
 10
289.0369266529999
 20
201.3011906346
 30
0.0
 11
302.9486267506
 21
201.1797850671
 31
0.0
  0
LINE
  5
34F
330
21A
100
AcDbEntity
  8
0
  6
Continuous
 62
     7
100
AcDbLine
 10
305.4470958134
 20
201.1579812579
 30
0.0
 11
316.5881081829
 21
201.0607551159
 31
0.0
  0
LINE
  5
350
330
21A
100
AcDbEntity
  8
0
  6
Continuous
 62
     7
100
AcDbLine
 10
322.109107397
 20
201.0125740857
 30
0.0
 11
327.1095898921
 21
200.968935536
 31
0.0
  0
LINE
  5
351
330
21A
100
AcDbEntity
  8
0
  6
Continuous
 62
     7
100
AcDbLine
 10
342.5800722581
 20
200.8339266818
 30
0.0
 11
346.1952846287001
 21
200.8023772014
 31
0.0
  0
LINE
  5
352
330
21A
100
AcDbEntity
  8
0
  6
Continuous
 62
     7
100
AcDbLine
 10
305.4470958134
 20
201.1579812579
 30
0.0
 11
304.0732519423
 21
201.2781770221
 31
0.0
  0
LINE
  5
353
330
21A
100
AcDbEntity
  8
0
  6
Continuous
 62
     7
100
AcDbLine
 10
288.5732519423
 20
207.9772058824
 30
0.0
 11
289.0369266529999
 21
201.3011906346
 31
0.0
  0
LINE
  5
354
330
21A
100
AcDbEntity
  8
0
  6
Continuous
 62
     7
100
AcDbLine
 10
285.9685329679
 20
207.9772058824
 30
0.0
 11
285.9685329679
 21
208.9772058824
 31
0.0
  0
LINE
  5
355
330
21A
100
AcDbEntity
  8
0
  6
Continuous
 62
     7
100
AcDbLine
 10
286.8345583717
 20
207.9772058824
 30
0.0
 11
286.8345583717
 21
208.9772058824
 31
0.0
  0
LINE
  5
356
330
21A
100
AcDbEntity
  8
0
  6
Continuous
 62
     7
100
AcDbLine
 10
288.4596754934
 20
207.9772058824
 30
0.0
 11
288.4596754934
 21
208.9772058824
 31
0.0
  0
LINE
  5
357
330
21A
100
AcDbEntity
  8
0
  6
Continuous
 62
     7
100
AcDbLine
 10
288.5706571822
 20
207.9772058824
 30
0.0
 11
288.5706571822
 21
208.9772058824
 31
0.0
  0
LINE
  5
358
330
21A
100
AcDbEntity
  8
0
  6
Continuous
 62
     7
100
AcDbLine
 10
288.7667448309
 20
207.9772058824
 30
0.0
 11
288.7667448309
 21
208.9772058824
 31
0.0
  0
LINE
  5
359
330
21A
100
AcDbEntity
  8
0
  6
Continuous
 62
     7
100
AcDbLine
 10
289.1071704415
 20
207.9772058824
 30
0.0
 11
289.1071704415
 21
208.9772058824
 31
0.0
  0
LINE
  5
35A
330
21A
100
AcDbEntity
  8
0
  6
Continuous
 62
     7
100
AcDbLine
 10
289.9915903832
 20
207.9772058824
 30
0.0
 11
289.9915903832
 21
208.9772058824
 31
0.0
  0
LINE
  5
35B
330
21A
100
AcDbEntity
  8
0
  6
Continuous
 62
     7
100
AcDbLine
 10
290.5355843908
 20
207.9772058824
 30
0.0
 11
290.5355843908
 21
208.9772058824
 31
0.0
  0
LINE
  5
35C
330
21A
100
AcDbEntity
  8
0
  6
Continuous
 62
     7
100
AcDbLine
 10
290.9944728365
 20
207.9772058824
 30
0.0
 11
290.9944728365
 21
208.9772058824
 31
0.0
  0
LINE
  5
35D
330
21A
100
AcDbEntity
  8
0
  6
Continuous
 62
     7
100
AcDbLine
 10
291.3682540761
 20
207.9772058824
 30
0.0
 11
291.3682540761
 21
208.9772058824
 31
0.0
  0
LINE
  5
35E
330
21A
100
AcDbEntity
  8
0
  6
Continuous
 62
     7
100
AcDbLine
 10
292.0307110009
 20
207.9772058824
 30
0.0
 11
292.0307110009
 21
208.9772058824
 31
0.0
  0
LINE
  5
35F
330
21A
100
AcDbEntity
  8
0
  6
Continuous
 62
     7
100
AcDbLine
 10
293.185411264
 20
207.9772058824
 30
0.0
 11
293.185411264
 21
208.9772058824
 31
0.0
  0
LINE
  5
360
330
21A
100
AcDbEntity
  8
0
  6
Continuous
 62
     7
100
AcDbLine
 10
293.6776554282
 20
207.9772058824
 30
0.0
 11
293.6776554282
 21
208.9772058824
 31
0.0
  0
LINE
  5
361
330
21A
100
AcDbEntity
  8
0
  6
Continuous
 62
     7
100
AcDbLine
 10
293.8812239072
 20
207.9772058824
 30
0.0
 11
293.8812239072
 21
208.9772058824
 31
0.0
  0
LINE
  5
362
330
21A
100
AcDbEntity
  8
0
  6
Continuous
 62
     7
100
AcDbLine
 10
293.9996860059
 20
207.9772058824
 30
0.0
 11
293.9996860059
 21
208.9772058824
 31
0.0
  0
LINE
  5
363
330
21A
100
AcDbEntity
  8
0
  6
Continuous
 62
     7
100
AcDbLine
 10
294.0330425428
 20
207.9772058824
 30
0.0
 11
294.0330425428
 21
208.9772058824
 31
0.0
  0
LINE
  5
364
330
21A
100
AcDbEntity
  8
0
  6
Continuous
 62
     7
100
AcDbLine
 10
289.4412257793
 20
190.529559779
 30
0.0
 11
289.1497533044
 21
179.3986750374
 31
0.0
  0
LINE
  5
365
330
21A
100
AcDbEntity
  8
0
  6
Continuous
 62
     7
100
AcDbLine
 10
279.6947796454
 20
75.6772058824
 30
0.0
 11
279.4831872686
 21
74.4772058824
 31
0.0
  0
LINE
  5
366
330
21A
100
AcDbEntity
  8
0
  6
Continuous
 62
     7
100
AcDbLine
 10
101.0373964875
 20
201.0125740857
 30
0.0
 11
104.0732519423
 21
201.2781770221
 31
0.0
  0
LINE
  5
367
330
21A
100
AcDbEntity
  8
0
  6
Continuous
 62
     7
100
AcDbLine
 10
80.56643162649999
 20
200.8339266818
 30
0.0
 11
89.07325194229999
 21
201.5781770221
 31
0.0
  0
LINE
  5
368
330
21A
100
AcDbEntity
  8
0
  6
Continuous
 62
     7
100
AcDbLine
 10
108.4676003128
 20
211.5772058824
 30
0.0
 11
124.4676003128
 21
211.5772058824
 31
0.0
  0
LINE
  5
369
330
21A
100
AcDbEntity
  8
0
  6
Continuous
 62
     7
100
AcDbLine
 10
203.5732519423
 20
211.5772058824
 30
0.0
 11
219.5732519423
 21
211.5772058824
 31
0.0
  0
LINE
  5
36A
330
21A
100
AcDbEntity
  8
0
  6
Continuous
 62
     7
100
AcDbLine
 10
298.6789035718
 20
211.5772058824
 30
0.0
 11
314.6789035718
 21
211.5772058824
 31
0.0
  0
LINE
  5
36B
330
21A
100
AcDbEntity
  8
0
  6
Continuous
 62
     7
100
AcDbLine
 10
109.9676003128
 20
211.7272058824
 30
0.0
 11
122.9676003128
 21
211.7272058824
 31
0.0
  0
LINE
  5
36C
330
21A
100
AcDbEntity
  8
0
  6
Continuous
 62
     7
100
AcDbLine
 10
204.9232894684
 20
211.7272058824
 30
0.0
 11
218.2232144162
 21
211.7272058824
 31
0.0
  0
LINE
  5
36D
330
21A
100
AcDbEntity
  8
0
  6
Continuous
 62
     7
100
AcDbLine
 10
300.0289016431
 20
211.7272058824
 30
0.0
 11
313.3289041614
 21
211.7272058824
 31
0.0
  0
LINE
  5
36E
330
21A
100
AcDbEntity
  8
0
  6
Continuous
 62
     7
100
AcDbLine
 10
108.4676003128
 20
212.6772058824
 30
0.0
 11
124.4676003128
 21
212.6772058824
 31
0.0
  0
LINE
  5
36F
330
21A
100
AcDbEntity
  8
0
  6
Continuous
 62
     7
100
AcDbLine
 10
203.5732519423
 20
212.6772058824
 30
0.0
 11
219.5732519423
 21
212.6772058824
 31
0.0
  0
LINE
  5
370
330
21A
100
AcDbEntity
  8
0
  6
Continuous
 62
     7
100
AcDbLine
 10
298.6789035718
 20
212.6772058824
 30
0.0
 11
314.6789035718
 21
212.6772058824
 31
0.0
  0
LINE
  5
371
330
21A
100
AcDbEntity
  8
0
  6
Continuous
 62
     7
100
AcDbLine
 10
322.109107397
 20
201.0125740857
 30
0.0
 11
319.0732519423
 21
201.2781770221
 31
0.0
  0
LINE
  5
372
330
21A
100
AcDbEntity
  8
0
  6
Continuous
 62
     7
100
AcDbLine
 10
342.5800722581
 20
200.8339266818
 30
0.0
 11
334.0732519423
 21
201.5781770221
 31
0.0
  0
LINE
  5
373
330
21A
100
AcDbEntity
  8
0
  6
Continuous
 62
     7
100
AcDbLine
 10
297.2278470555
 20
208.9772058824
 30
0.0
 11
297.2278470555
 21
209.9772058824
 31
0.0
  0
LINE
  5
374
330
21A
100
AcDbEntity
  8
0
  6
Continuous
 62
     7
100
AcDbLine
 10
298.6789035718
 20
209.9772058824
 30
0.0
 11
298.6789035718
 21
211.5772058824
 31
0.0
  0
LINE
  5
375
330
21A
100
AcDbEntity
  8
0
  6
Continuous
 62
     7
100
AcDbLine
 10
298.6789035718
 20
212.6772058824
 30
0.0
 11
298.6789035718
 21
222.6772058824
 31
0.0
  0
LINE
  5
376
330
21A
100
AcDbEntity
  8
0
  6
Continuous
 62
     7
100
AcDbLine
 10
299.2144662797
 20
212.5827593818
 30
0.0
 11
299.2144662797
 21
212.6772058824
 31
0.0
  0
LINE
  5
377
330
21A
100
AcDbEntity
  8
0
  6
Continuous
 62
     7
100
AcDbLine
 10
299.6789035718
 20
222.6772058824
 30
0.0
 11
299.6789035718
 21
230.6772058824
 31
0.0
  0
LINE
  5
378
330
21A
100
AcDbEntity
  8
0
  6
Continuous
 62
     7
100
AcDbLine
 10
300.8789035718
 20
211.7272058824
 30
0.0
 11
300.8789035718
 21
211.5772058824
 31
0.0
  0
LINE
  5
379
330
21A
100
AcDbEntity
  8
0
  6
Continuous
 62
     7
100
AcDbLine
 10
302.6789035718
 20
200.4772058824
 30
0.0
 11
302.6789035718
 21
201.148837296
 31
0.0
  0
LINE
  5
37A
330
21A
100
AcDbEntity
  8
0
  6
Continuous
 62
     2
100
AcDbLine
 10
303.4789035718
 20
201.1433664759
 30
0.0
 11
303.4789035718
 21
200.4772058824
 31
0.0
  0
LINE
  5
37B
330
21A
100
AcDbEntity
  8
0
  6
Continuous
 62
     7
100
AcDbLine
 10
303.626119937
 20
212.5827593818
 30
0.0
 11
303.626119937
 21
212.6772058824
 31
0.0
  0
LINE
  5
37C
330
21A
100
AcDbEntity
  8
0
  6
Continuous
 62
     7
100
AcDbLine
 10
306.2789035718
 20
192.3009884600999
 30
0.0
 11
306.2789035718
 21
192.4772058824
 31
0.0
  0
LINE
  5
37D
330
21A
100
AcDbEntity
  8
0
  6
Continuous
 62
     7
100
AcDbLine
 10
307.0789035718
 20
192.3009884600999
 30
0.0
 11
307.0789035718
 21
192.4772058824
 31
0.0
  0
LINE
  5
37E
330
21A
100
AcDbEntity
  8
0
  6
Continuous
 62
     7
100
AcDbLine
 10
108.4676003128
 20
222.6772058824
 30
0.0
 11
124.4676003128
 21
222.6772058824
 31
0.0
  0
LINE
  5
37F
330
21A
100
AcDbEntity
  8
0
  6
Continuous
 62
     7
100
AcDbLine
 10
203.5732519423
 20
222.6772058824
 30
0.0
 11
219.5732519423
 21
222.6772058824
 31
0.0
  0
LINE
  5
380
330
21A
100
AcDbEntity
  8
0
  6
Continuous
 62
     7
100
AcDbLine
 10
298.6789035718
 20
222.6772058824
 30
0.0
 11
314.6789035718
 21
222.6772058824
 31
0.0
  0
LINE
  5
381
330
21A
100
AcDbEntity
  8
0
  6
Continuous
 62
     7
100
AcDbLine
 10
109.4676003128
 20
230.6772058824
 30
0.0
 11
123.4676003128
 21
230.6772058824
 31
0.0
  0
LINE
  5
382
330
21A
100
AcDbEntity
  8
0
  6
Continuous
 62
     7
100
AcDbLine
 10
204.5732519423
 20
230.6772058824
 30
0.0
 11
218.5732519423
 21
230.6772058824
 31
0.0
  0
LINE
  5
383
330
21A
100
AcDbEntity
  8
0
  6
Continuous
 62
     7
100
AcDbLine
 10
299.6789035718
 20
230.6772058824
 30
0.0
 11
313.6789035718
 21
230.6772058824
 31
0.0
  0
LINE
  5
384
330
21A
100
AcDbEntity
  8
0
  6
Continuous
 62
     9
100
AcDbLine
 10
308.3544915077
 20
208.9772058824
 30
0.0
 11
308.3544915077
 21
209.9772058824
 31
0.0
  0
LINE
  5
385
330
21A
100
AcDbEntity
  8
0
  6
Continuous
 62
     2
100
AcDbLine
 10
309.8789035718
 20
201.088051794
 30
0.0
 11
309.8789035718
 21
200.4772058824
 31
0.0
  0
LINE
  5
386
330
21A
100
AcDbEntity
  8
0
  6
Continuous
 62
     9
100
AcDbLine
 10
310.2566045403
 20
208.9772058824
 30
0.0
 11
310.2566045403
 21
209.9772058824
 31
0.0
  0
LINE
  5
387
330
21A
100
AcDbEntity
  8
0
  6
Continuous
 62
     7
100
AcDbLine
 10
310.6789035718
 20
200.4772058824
 30
0.0
 11
310.6789035718
 21
201.0801996399
 31
0.0
  0
LINE
  5
388
330
21A
100
AcDbEntity
  8
0
  6
Continuous
 62
     7
100
AcDbLine
 10
311.0905572291
 20
212.5827593818
 30
0.0
 11
311.0905572291
 21
212.6772058824
 31
0.0
  0
LINE
  5
389
330
21A
100
AcDbEntity
  8
0
  6
Continuous
 62
     7
100
AcDbLine
 10
312.4789035718
 20
211.7272058824
 30
0.0
 11
312.4789035718
 21
211.5772058824
 31
0.0
  0
LINE
  5
38A
330
21A
100
AcDbEntity
  8
0
  6
Continuous
 62
     7
100
AcDbLine
 10
313.6789035718
 20
222.6772058824
 30
0.0
 11
313.6789035718
 21
230.6772058824
 31
0.0
  0
LINE
  5
38B
330
21A
100
AcDbEntity
  8
0
  6
Continuous
 62
     7
100
AcDbLine
 10
314.1433408639
 20
212.5827593818
 30
0.0
 11
314.1433408639
 21
212.6772058824
 31
0.0
  0
LINE
  5
38C
330
21A
100
AcDbEntity
  8
0
  6
Continuous
 62
     7
100
AcDbLine
 10
314.6789035718
 20
209.9772058824
 30
0.0
 11
314.6789035718
 21
211.5772058824
 31
0.0
  0
LINE
  5
38D
330
21A
100
AcDbEntity
  8
0
  6
Continuous
 62
     7
100
AcDbLine
 10
314.6789035718
 20
212.6772058824
 30
0.0
 11
314.6789035718
 21
222.6772058824
 31
0.0
  0
LINE
  5
38E
330
21A
100
AcDbEntity
  8
0
  6
Continuous
 62
     7
100
AcDbLine
 10
316.1299600881
 20
208.9772058824
 30
0.0
 11
316.1299600881
 21
209.9772058824
 31
0.0
  0
LINE
  5
38F
330
21A
100
AcDbEntity
  8
0
  6
Continuous
 62
     7
100
AcDbLine
 10
316.201797538
 20
208.6086430346
 30
0.0
 11
316.201797538
 21
208.9772058824
 31
0.0
  0
LINE
  5
390
330
21A
100
AcDbEntity
  8
0
  6
Continuous
 62
     7
100
AcDbLine
 10
316.8901293882
 20
207.9772058824
 30
0.0
 11
316.8901293882
 21
208.9772058824
 31
0.0
  0
LINE
  5
391
330
21A
100
AcDbEntity
  8
0
  6
Continuous
 62
     7
100
AcDbLine
 10
317.4933548582
 20
207.9772058824
 30
0.0
 11
317.4933548582
 21
208.9772058824
 31
0.0
  0
LINE
  5
392
330
21A
100
AcDbEntity
  8
0
  6
Continuous
 62
     7
100
AcDbLine
 10
318.1558093052
 20
207.9772058824
 30
0.0
 11
318.1558093052
 21
208.9772058824
 31
0.0
  0
LINE
  5
393
330
21A
100
AcDbEntity
  8
0
  6
Continuous
 62
     7
100
AcDbLine
 10
280.5732146717
 20
65.4772058824
 30
0.0
 11
282.0732519423
 21
66.97724396319999
 31
0.0
  0
LINE
  5
394
330
21A
100
AcDbEntity
  8
0
  6
Continuous
 62
     7
100
AcDbLine
 10
319.021834709
 20
207.9772058824
 30
0.0
 11
319.021834709
 21
208.9772058824
 31
0.0
  0
LINE
  5
395
330
21A
100
AcDbEntity
  8
0
  6
Continuous
 62
     7
100
AcDbLine
 10
319.5140796991
 20
207.9772058824
 30
0.0
 11
319.5140796991
 21
208.9772058824
 31
0.0
  0
LINE
  5
396
330
21A
100
AcDbEntity
  8
0
  6
Continuous
 62
     7
100
AcDbLine
 10
319.7176473522
 20
207.9772058824
 30
0.0
 11
319.7176473522
 21
208.9772058824
 31
0.0
  0
LINE
  5
397
330
21A
100
AcDbEntity
  8
0
  6
Continuous
 62
     7
100
AcDbLine
 10
319.8361119287
 20
207.9772058824
 30
0.0
 11
319.8361119287
 21
208.9772058824
 31
0.0
  0
LINE
  5
398
330
21A
100
AcDbEntity
  8
0
  6
Continuous
 62
     7
100
AcDbLine
 10
320.3208728147
 20
207.9772058824
 30
0.0
 11
320.3208728147
 21
208.9772058824
 31
0.0
  0
LINE
  5
399
330
21A
100
AcDbEntity
  8
0
  6
Continuous
 62
     7
100
AcDbLine
 10
321.0425628536
 20
207.9772058824
 30
0.0
 11
321.0425628536
 21
208.9772058824
 31
0.0
  0
LINE
  5
39A
330
21A
100
AcDbEntity
  8
0
  6
Continuous
 62
     7
100
AcDbLine
 10
321.4905371117
 20
207.9772058824
 30
0.0
 11
321.4905371117
 21
208.9772058824
 31
0.0
  0
LINE
  5
39B
330
21A
100
AcDbEntity
  8
0
  6
Continuous
 62
     7
100
AcDbLine
 10
322.119636696
 20
207.9772058824
 30
0.0
 11
322.119636696
 21
208.9772058824
 31
0.0
  0
LINE
  5
39C
330
21A
100
AcDbEntity
  8
0
  6
Continuous
 62
     7
100
AcDbLine
 10
322.5785235049
 20
207.9772058824
 30
0.0
 11
322.5785235049
 21
208.9772058824
 31
0.0
  0
LINE
  5
39D
330
21A
100
AcDbEntity
  8
0
  6
Continuous
 62
     7
100
AcDbLine
 10
323.1817489673
 20
207.9772058824
 30
0.0
 11
323.1817489673
 21
208.9772058824
 31
0.0
  0
LINE
  5
39E
330
21A
100
AcDbEntity
  8
0
  6
Continuous
 62
     7
100
AcDbLine
 10
323.6998680495
 20
207.9772058824
 30
0.0
 11
323.6998680495
 21
208.9772058824
 31
0.0
  0
LINE
  5
39F
330
21A
100
AcDbEntity
  8
0
  6
Continuous
 62
     7
100
AcDbLine
 10
324.6509998336
 20
207.9772058824
 30
0.0
 11
324.6509998336
 21
208.9772058824
 31
0.0
  0
LINE
  5
3A0
330
21A
100
AcDbEntity
  8
0
  6
Continuous
 62
     7
100
AcDbLine
 10
325.5762575256
 20
207.9772058824
 30
0.0
 11
325.5762575256
 21
208.9772058824
 31
0.0
  0
LINE
  5
3A1
330
21A
100
AcDbEntity
  8
0
  6
Continuous
 62
     7
100
AcDbLine
 10
325.983396128
 20
207.9772058824
 30
0.0
 11
325.983396128
 21
208.9772058824
 31
0.0
  0
LINE
  5
3A2
330
21A
100
AcDbEntity
  8
0
  6
Continuous
 62
     7
100
AcDbLine
 10
326.1610896816
 20
207.9772058824
 30
0.0
 11
326.1610896816
 21
208.9772058824
 31
0.0
  0
LINE
  5
3A3
330
21A
100
AcDbEntity
  8
0
  6
Continuous
 62
     7
100
AcDbLine
 10
299.5395703922
 20
212.216539062
 30
0.0
 11
300.0289035718
 21
211.7272058824
 31
0.0
  0
LINE
  5
3A4
330
21A
100
AcDbEntity
  8
0
  6
Continuous
 62
     7
100
AcDbLine
 10
349.5981839234
 20
207.9772058824
 30
0.0
 11
349.2100483294
 21
203.5407957423
 31
0.0
  0
LINE
  5
3A5
330
21A
100
AcDbEntity
  8
0
  6
Continuous
 62
     7
100
AcDbLine
 10
361.4629507612
 20
198.5818777948
 30
0.0
 11
361.5732519423001
 21
196.4772058824
 31
0.0
  0
LINE
  5
3A6
330
21A
100
AcDbEntity
  8
0
  6
Continuous
 62
     7
100
AcDbLine
 10
361.5732519423001
 20
196.4772058824
 30
0.0
 11
361.4629507612
 21
194.3725339699
 31
0.0
  0
LINE
  5
3A7
330
21A
100
AcDbEntity
  8
0
  6
Continuous
 62
     7
100
AcDbLine
 10
345.2089202868
 20
194.4772058824
 30
0.0
 11
345.786270556
 21
193.4772058824
 31
0.0
  0
ARC
  5
3A8
330
21A
100
AcDbEntity
  8
RUNDUNGEN
  6
Continuous
 62
     9
100
AcDbCircle
 10
-51.97877506890001
 20
88.13472957489999
 30
0.0
 40
398.5832593128
100
AcDbArc
 50
15.3249039021
 51
15.4740055866
  0
ARC
  5
3A9
330
21A
100
AcDbEntity
  8
RUNDUNGEN
  6
Continuous
 62
     9
100
AcDbCircle
 10
-47.83693904239999
 20
89.8939541178
 30
0.0
 40
396.4957903886
100
AcDbArc
 50
15.1440550036
 51
15.29381246109999
  0
ARC
  5
3AA
330
21A
100
AcDbEntity
  8
0
  6
Continuous
 62
     7
100
AcDbCircle
 10
76.92503964939999
 20
203.8022629706
 30
0.0
 40
3.0
100
AcDbArc
 50
185.0
 51
269.9862156634
  0
ARC
  5
3AB
330
21A
100
AcDbEntity
  8
0
  6
Continuous
 62
     7
100
AcDbCircle
 10
75.628182521
 20
194.4772058824
 30
0.0
 40
2.0
100
AcDbArc
 50
270.0
 51
330.0
  0
ARC
  5
3AC
330
21A
100
AcDbEntity
  8
0
  6
Continuous
 62
     7
100
AcDbCircle
 10
63.6808121928
 20
198.4772058824
 30
0.0
 40
2.0
100
AcDbArc
 50
90.0
 51
176.9999999999
  0
ARC
  5
3AD
330
21A
100
AcDbEntity
  8
0
  6
Continuous
 62
     7
100
AcDbCircle
 10
63.6808121928
 20
194.4772058824
 30
0.0
 40
2.0
100
AcDbArc
 50
183.0
 51
270.0
  0
ARC
  5
3AE
330
21A
100
AcDbEntity
  8
0
  6
Continuous
 62
     7
100
AcDbCircle
 10
150.3059492054
 20
46.4772058824
 30
0.0
 40
1.0
100
AcDbArc
 50
181.0000000002
 51
270.0
  0
ARC
  5
3AF
330
21A
100
AcDbEntity
  8
0
  6
Continuous
 62
     7
100
AcDbCircle
 10
153.5732519423
 20
46.4772058824
 30
0.0
 40
1.0
100
AcDbArc
 50
270.0000000002
 51
360.0
  0
ARC
  5
3B0
330
21A
100
AcDbEntity
  8
0
  6
Continuous
 62
     7
100
AcDbCircle
 10
141.0732519423
 20
71.5072058824
 30
0.0
 40
0.5
100
AcDbArc
 50
90.0
 51
270.0
  0
ARC
  5
3B1
330
21A
100
AcDbEntity
  8
0
  6
Continuous
 62
     7
100
AcDbCircle
 10
141.0732519423
 20
69.7072058824
 30
0.0
 40
0.5
100
AcDbArc
 50
90.0
 51
270.0
  0
ARC
  5
3B2
330
21A
100
AcDbEntity
  8
0
  6
Continuous
 62
     7
100
AcDbCircle
 10
141.0732519423
 20
67.90720588239999
 30
0.0
 40
0.5
100
AcDbArc
 50
90.0
 51
270.0
  0
ARC
  5
3B3
330
21A
100
AcDbEntity
  8
0
  6
Continuous
 62
     7
100
AcDbCircle
 10
141.0732519423
 20
73.3072058824
 30
0.0
 40
0.5
100
AcDbArc
 50
90.0
 51
270.0
  0
ARC
  5
3B4
330
21A
100
AcDbEntity
  8
0
  6
Continuous
 62
     7
100
AcDbCircle
 10
148.8232519423
 20
68.07720588239999
 30
0.0
 40
0.25
100
AcDbArc
 50
282.5
 51
77.5
  0
ARC
  5
3B5
330
21A
100
AcDbEntity
  8
0
  6
Continuous
 62
     7
100
AcDbCircle
 10
148.8232519423
 20
73.07720588239999
 30
0.0
 40
0.25
100
AcDbArc
 50
282.5
 51
77.5
  0
ARC
  5
3B6
330
21A
100
AcDbEntity
  8
0
  6
Continuous
 62
     7
100
AcDbCircle
 10
144.9957225551
 20
158.4772058824
 30
0.0
 40
3.0
100
AcDbArc
 50
181.5
 51
270.0
  0
ARC
  5
3B7
330
21A
100
AcDbEntity
  8
0
  6
Continuous
 62
     7
100
AcDbCircle
 10
136.9957225551
 20
179.4772058824
 30
0.0
 40
3.0
100
AcDbArc
 50
181.5
 51
270.0
  0
ARC
  5
3B8
330
21A
100
AcDbEntity
  8
0
  6
Continuous
 62
     7
100
AcDbCircle
 10
138.6008769766
 20
173.4772058824
 30
0.0
 40
3.0
100
AcDbArc
 50
1.5
 51
90.0
  0
ARC
  5
3B9
330
21A
100
AcDbEntity
  8
0
  6
Continuous
 62
     7
100
AcDbCircle
 10
79.6696344054
 20
193.4772058824
 30
0.0
 40
2.0
100
AcDbArc
 50
90.0
 51
150.0
  0
ARC
  5
3BA
330
21A
100
AcDbEntity
  8
0
  6
Continuous
 62
     7
100
AcDbCircle
 10
131.7059634553
 20
190.4772058824
 30
0.0
 40
2.0
100
AcDbArc
 50
1.5
 51
90.0
  0
ARC
  5
3BB
330
21A
100
AcDbEntity
  8
0
  6
Continuous
 62
     7
100
AcDbCircle
 10
96.18650059629999
 20
193.4772058824
 30
0.0
 40
2.0
100
AcDbArc
 50
30.0
 51
90.0
  0
ARC
  5
3BC
330
21A
100
AcDbEntity
  8
0
  6
Continuous
 62
     7
100
AcDbCircle
 10
100.2279524807
 20
194.4772058824
 30
0.0
 40
2.0
100
AcDbArc
 50
210.0
 51
270.0
  0
ARC
  5
3BD
330
21A
100
AcDbEntity
  8
0
  6
Continuous
 62
     7
100
AcDbCircle
 10
126.9186568291
 20
208.9772058824
 30
0.0
 40
1.0
100
AcDbArc
 50
180.0
 51
269.9988810851
  0
ARC
  5
3BE
330
21A
100
AcDbEntity
  8
0
  6
Continuous
 62
     7
100
AcDbCircle
 10
106.0165437965
 20
208.9772058824
 30
0.0
 40
1.0
100
AcDbArc
 50
270.0011189149
 51
360.0
  0
ARC
  5
3BF
330
21A
100
AcDbEntity
  8
0
  6
Continuous
 62
     7
100
AcDbCircle
 10
139.5732519423
 20
199.4772058824
 30
0.0
 40
1.0
100
AcDbArc
 50
0.0
 51
90.0
  0
ARC
  5
3C0
330
21A
100
AcDbEntity
  8
0
  6
Continuous
 62
     7
100
AcDbCircle
 10
141.5732519423
 20
184.432370697
 30
0.0
 40
1.0
100
AcDbArc
 50
180.0
 51
240.0
  0
ARC
  5
3C1
330
21A
100
AcDbEntity
  8
RUNDUNGEN
  6
Continuous
 62
     9
100
AcDbCircle
 10
140.5453717556
 20
199.5092062793
 30
0.0
 40
0.9679996940999998
100
AcDbArc
 50
82.4608177404
 51
89.9751579862
  0
ARC
  5
3C2
330
21A
100
AcDbEntity
  8
0
  6
Continuous
 62
     7
100
AcDbCircle
 10
210.3800151106
 20
160.8087671965
 30
0.0
 40
40.4451589043
100
AcDbArc
 50
93.4683832804
 51
93.94730846600001
  0
ARC
  5
3C3
330
21A
100
AcDbEntity
  8
0
  6
Continuous
 62
     7
100
AcDbCircle
 10
208.6522409939
 20
179.5675637344
 30
0.0
 40
21.6248989239
100
AcDbArc
 50
95.0551092995
 51
96.32683605870001
  0
ARC
  5
3C4
330
21A
100
AcDbEntity
  8
0
  6
Continuous
 62
     7
100
AcDbCircle
 10
145.437800274
 20
153.4772058824
 30
0.0
 40
2.0
100
AcDbArc
 50
0.9999999993000001
 51
89.99999999659999
  0
ARC
  5
3C5
330
21A
100
AcDbEntity
  8
0
  6
Continuous
 62
     7
100
AcDbCircle
 10
153.5732519423
 20
160.4945086192
 30
0.0
 40
1.0
100
AcDbArc
 50
0.0
 51
89.00000025569999
  0
ARC
  5
3C6
330
21A
100
AcDbEntity
  8
0
  6
Continuous
 62
     7
100
AcDbCircle
 10
148.5732519423
 20
162.5820886
 30
0.0
 40
1.0
100
AcDbArc
 50
180.0
 51
269.0000002223
  0
ARC
  5
3C7
330
21A
100
AcDbEntity
  8
0
  6
Continuous
 62
     7
100
AcDbCircle
 10
146.5732519423
 20
179.2362182743
 30
0.0
 40
1.0
100
AcDbArc
 50
0.0
 51
60.0
  0
ARC
  5
3C8
330
21A
100
AcDbEntity
  8
0
  6
Continuous
 62
     7
100
AcDbCircle
 10
202.0732519423
 20
208.9772058824
 30
0.0
 40
1.0
100
AcDbArc
 50
281.2495332682
 51
360.0
  0
ARC
  5
3C9
330
21A
100
AcDbEntity
  8
RUNDUNGEN
  6
Continuous
 62
     9
100
AcDbCircle
 10
-349.791415549
 20
1324.0551105183
 30
0.0
 40
1302.4537599641
100
AcDbArc
 50
298.6540672815
 51
298.8086236829
  0
ARC
  5
3CA
330
21A
100
AcDbEntity
  8
0
  6
Continuous
 62
     7
100
AcDbCircle
 10
272.8405546792
 20
46.4772058824
 30
0.0
 40
1.0
100
AcDbArc
 50
270.0
 51
358.9999999997
  0
ARC
  5
3CB
330
21A
100
AcDbEntity
  8
0
  6
Continuous
 62
     7
100
AcDbCircle
 10
269.5732519423
 20
46.4772058824
 30
0.0
 40
1.0
100
AcDbArc
 50
180.0
 51
269.9999999992
  0
ARC
  5
3CC
330
21A
100
AcDbEntity
  8
0
  6
Continuous
 62
     7
100
AcDbCircle
 10
282.0732519423
 20
73.3072058824
 30
0.0
 40
0.5
100
AcDbArc
 50
270.0
 51
90.0
  0
ARC
  5
3CD
330
21A
100
AcDbEntity
  8
0
  6
Continuous
 62
     7
100
AcDbCircle
 10
282.0732519423
 20
71.5072058824
 30
0.0
 40
0.5
100
AcDbArc
 50
270.0
 51
90.0
  0
ARC
  5
3CE
330
21A
100
AcDbEntity
  8
0
  6
Continuous
 62
     7
100
AcDbCircle
 10
282.0732519423
 20
69.7072058824
 30
0.0
 40
0.5
100
AcDbArc
 50
270.0
 51
90.0
  0
ARC
  5
3CF
330
21A
100
AcDbEntity
  8
0
  6
Continuous
 62
     7
100
AcDbCircle
 10
282.0732519423
 20
67.90720588239999
 30
0.0
 40
0.5
100
AcDbArc
 50
270.0
 51
90.0
  0
ARC
  5
3D0
330
21A
100
AcDbEntity
  8
0
  6
Continuous
 62
     7
100
AcDbCircle
 10
274.3232519423
 20
68.07720588239999
 30
0.0
 40
0.25
100
AcDbArc
 50
102.5
 51
257.5
  0
ARC
  5
3D1
330
21A
100
AcDbEntity
  8
0
  6
Continuous
 62
     7
100
AcDbCircle
 10
274.3232519423
 20
73.07720588239999
 30
0.0
 40
0.25
100
AcDbArc
 50
102.5
 51
257.5
  0
ARC
  5
3D2
330
21A
100
AcDbEntity
  8
0
  6
Continuous
 62
     7
100
AcDbCircle
 10
212.7665874864
 20
160.810322367
 30
0.0
 40
40.4436006277
100
AcDbArc
 50
86.05267938129999
 51
86.53118136809998
  0
ARC
  5
3D3
330
21A
100
AcDbEntity
  8
0
  6
Continuous
 62
     7
100
AcDbCircle
 10
286.1507813295
 20
179.4772058824
 30
0.0
 40
3.0
100
AcDbArc
 50
270.0000000001
 51
358.5
  0
ARC
  5
3D4
330
21A
100
AcDbEntity
  8
0
  6
Continuous
 62
     7
100
AcDbCircle
 10
278.1507813295
 20
158.4772058824
 30
0.0
 40
3.0
100
AcDbArc
 50
270.0000000001
 51
358.5
  0
ARC
  5
3D5
330
21A
100
AcDbEntity
  8
0
  6
Continuous
 62
     7
100
AcDbCircle
 10
284.5456269079999
 20
173.4772058824
 30
0.0
 40
3.0
100
AcDbArc
 50
90.0
 51
178.5
  0
ARC
  5
3D6
330
21A
100
AcDbEntity
  8
0
  6
Continuous
 62
     7
100
AcDbCircle
 10
277.7087036106
 20
153.4772058824
 30
0.0
 40
2.0
100
AcDbArc
 50
90.0000000034
 51
179.0000000008
  0
ARC
  5
3D7
330
21A
100
AcDbEntity
  8
0
  6
Continuous
 62
     7
100
AcDbCircle
 10
291.4405404292
 20
190.4772058824
 30
0.0
 40
2.0
100
AcDbArc
 50
90.0000000001
 51
178.4999999999
  0
ARC
  5
3D8
330
21A
100
AcDbEntity
  8
0
  6
Continuous
 62
     7
100
AcDbCircle
 10
326.9600032882
 20
193.4772058824
 30
0.0
 40
2.0
100
AcDbArc
 50
90.0
 51
150.0
  0
ARC
  5
3D9
330
21A
100
AcDbEntity
  8
0
  6
Continuous
 62
     7
100
AcDbCircle
 10
322.9185514039
 20
194.4772058824
 30
0.0
 40
2.0
100
AcDbArc
 50
270.0
 51
330.0
  0
ARC
  5
3DA
330
21A
100
AcDbEntity
  8
0
  6
Continuous
 62
     7
100
AcDbCircle
 10
317.1299600881
 20
208.9772058824
 30
0.0
 40
1.0
100
AcDbArc
 50
180.0
 51
269.9999586921
  0
ARC
  5
3DB
330
21A
100
AcDbEntity
  8
0
  6
Continuous
 62
     7
100
AcDbCircle
 10
296.2278470555
 20
208.9772058824
 30
0.0
 40
1.0
100
AcDbArc
 50
270.0000413079
 51
360.0
  0
ARC
  5
3DC
330
21A
100
AcDbEntity
  8
0
  6
Continuous
 62
     7
100
AcDbCircle
 10
221.0732519423
 20
208.9772058824
 30
0.0
 40
1.0
100
AcDbArc
 50
180.0
 51
258.7504606805
  0
ARC
  5
3DD
330
21A
100
AcDbEntity
  8
0
  6
Continuous
 62
     7
100
AcDbCircle
 10
269.5732519423
 20
160.4945086192
 30
0.0
 40
1.0
100
AcDbArc
 50
90.9999997443
 51
180.0
  0
ARC
  5
3DE
330
21A
100
AcDbEntity
  8
0
  6
Continuous
 62
     7
100
AcDbCircle
 10
274.5732519423
 20
162.5820886
 30
0.0
 40
1.0
100
AcDbArc
 50
270.9999997781
 51
360.0
  0
ARC
  5
3DF
330
21A
100
AcDbEntity
  8
0
  6
Continuous
 62
     7
100
AcDbCircle
 10
283.5732519423
 20
199.4772058824
 30
0.0
 40
1.0
100
AcDbArc
 50
90.0
 51
180.0
  0
ARC
  5
3E0
330
21A
100
AcDbEntity
  8
0
  6
Continuous
 62
     7
100
AcDbCircle
 10
276.5732519423
 20
179.2362182743
 30
0.0
 40
1.0
100
AcDbArc
 50
120.0
 51
180.0
  0
ARC
  5
3E1
330
21A
100
AcDbEntity
  8
0
  6
Continuous
 62
     7
100
AcDbCircle
 10
281.5732519423
 20
184.432370697
 30
0.0
 40
1.0
100
AcDbArc
 50
300.0
 51
360.0
  0
ARC
  5
3E2
330
21A
100
AcDbEntity
  8
RUNDUNGEN
  6
Continuous
 62
     9
100
AcDbCircle
 10
282.601132129
 20
199.5092062794
 30
0.0
 40
0.9679996938999998
100
AcDbArc
 50
90.0248420139
 51
97.5391823089
  0
ARC
  5
3E3
330
21A
100
AcDbEntity
  8
RUNDUNGEN
  6
Continuous
 62
     9
100
AcDbCircle
 10
471.0151330494
 20
89.86806882999999
 30
0.0
 40
396.5331427781
100
AcDbArc
 50
164.7037858512
 51
164.8535309144
  0
ARC
  5
3E4
330
21A
100
AcDbEntity
  8
0
  6
Continuous
 62
     7
100
AcDbCircle
 10
346.2214642351999
 20
203.8022629706
 30
0.0
 40
3.0
100
AcDbArc
 50
270.0137843687
 51
355.0
  0
ARC
  5
3E5
330
21A
100
AcDbEntity
  8
0
  6
Continuous
 62
     7
100
AcDbCircle
 10
347.5183213635
 20
194.4772058824
 30
0.0
 40
2.0
100
AcDbArc
 50
210.0
 51
270.0
  0
ARC
  5
3E6
330
21A
100
AcDbEntity
  8
0
  6
Continuous
 62
     7
100
AcDbCircle
 10
343.4768694792
 20
193.4772058824
 30
0.0
 40
2.0
100
AcDbArc
 50
30.0
 51
90.0
  0
ARC
  5
3E7
330
21A
100
AcDbEntity
  8
0
  6
Continuous
 62
     7
100
AcDbCircle
 10
359.4656916917
 20
198.4772058824
 30
0.0
 40
2.0
100
AcDbArc
 50
3.0000000001
 51
90.0
  0
ARC
  5
3E8
330
21A
100
AcDbEntity
  8
0
  6
Continuous
 62
     7
100
AcDbCircle
 10
359.4656916917
 20
194.4772058824
 30
0.0
 40
2.0
100
AcDbArc
 50
270.0
 51
357.0
  0
ARC
  5
3E9
330
21A
100
AcDbEntity
  8
RUNDUNGEN
  6
Continuous
 62
     9
100
AcDbCircle
 10
772.9381787263
 20
1324.0555485237
 30
0.0
 40
1302.4542687088
100
AcDbArc
 50
241.1913756054
 51
241.3459319495
  0
SPLINE
  5
3EA
330
21A
100
AcDbEntity
  8
0
  6
Continuous
 62
     7
100
AcDbSpline
210
0.0
220
0.0
230
1.0
 70
     8
 71
     3
 72
    10
 73
     6
 74
     0
 42
0.0000000001
 43
0.0000000001
 40
0.0
 40
0.0
 40
0.0
 40
0.0
 40
0.5622127038000001
 40
0.7986730509000001
 40
1.0
 40
1.0
 40
1.0
 40
1.0
 10
204.4350463782
 20
212.5827593818
 30
0.0
 10
204.5062528121
 20
212.4115173666
 30
0.0
 10
204.6151489949
 20
212.1706127494
 30
0.0
 10
204.7867258412
 20
211.8885051817
 30
0.0
 10
204.876698889
 20
211.7745325647
 30
0.0
 10
204.9232894684
 20
211.7272058824
 30
0.0
  0
SPLINE
  5
3EB
330
21A
100
AcDbEntity
  8
0
  6
Continuous
 62
     7
100
AcDbSpline
210
0.0
220
0.0
230
1.0
 70
     8
 71
     3
 72
    10
 73
     6
 74
     0
 42
0.0000000001
 43
0.0000000001
 40
0.0
 40
0.0
 40
0.0
 40
0.0
 40
0.5622127038000001
 40
0.7986730509000001
 40
1.0
 40
1.0
 40
1.0
 40
1.0
 10
218.7114575064
 20
212.5827593818
 30
0.0
 10
218.6402510725
 20
212.4115173666
 30
0.0
 10
218.5313548897
 20
212.1706127494
 30
0.0
 10
218.3597780434
 20
211.8885051817
 30
0.0
 10
218.2698049956
 20
211.7745325647
 30
0.0
 10
218.2232144162
 20
211.7272058824
 30
0.0
  0
SPLINE
  5
3EC
330
21A
100
AcDbEntity
  8
0
  6
Continuous
 62
     7
100
AcDbSpline
210
0.0
220
0.0
230
1.0
 70
     8
 71
     3
 72
    10
 73
     6
 74
     0
 42
0.0000000001
 43
0.0000000001
 40
0.0
 40
0.0
 40
0.0
 40
0.0
 40
0.2013268178
 40
0.4377866696
 40
1.0
 40
1.0
 40
1.0
 40
1.0
 10
217.6392082779
 20
211.7272058824
 30
0.0
 10
217.5926177281
 20
211.7745325347
 30
0.0
 10
217.5026447472
 20
211.8885049377
 30
0.0
 10
217.3310677835
 20
212.1706124499
 30
0.0
 10
217.2221717023
 20
212.4115171726
 30
0.0
 10
217.1509651878
 20
212.5827593818
 30
0.0
  0
SPLINE
  5
3ED
330
21A
100
AcDbEntity
  8
0
  6
Continuous
 62
     7
100
AcDbSpline
210
0.0
220
0.0
230
1.0
 70
     8
 71
     3
 72
     9
 73
     5
 74
     0
 42
0.0000000001
 43
0.0000000001
 40
0.0
 40
0.0
 40
0.0
 40
0.0
 40
0.2559360586
 40
1.0
 40
1.0
 40
1.0
 40
1.0
 10
210.0127596237
 20
212.5827593818
 30
0.0
 10
209.8749083873
 20
212.4900108141
 30
0.0
 10
209.3277922087
 20
212.1417028233
 30
0.0
 10
208.7322498973
 20
211.8592509961
 30
0.0
 10
208.2676180947
 20
211.7272058824
 30
0.0
  0
SPLINE
  5
3EE
330
21A
100
AcDbEntity
  8
0
  6
Continuous
 62
     7
100
AcDbSpline
210
0.0
220
0.0
230
1.0
 70
     8
 71
     3
 72
     9
 73
     5
 74
     0
 42
0.0000000001
 43
0.0000000001
 40
0.0
 40
0.0
 40
0.0
 40
0.0
 40
0.2446356607
 40
1.0
 40
1.0
 40
1.0
 40
1.0
 10
206.1801879072
 20
211.7272058824
 30
0.0
 10
206.0273403181
 20
211.7706440998
 30
0.0
 10
205.4123044051
 20
211.9830994175
 30
0.0
 10
204.8421226798
 20
212.3088717844
 30
0.0
 10
204.4350463782
 20
212.5827593818
 30
0.0
  0
SPLINE
  5
3EF
330
21A
100
AcDbEntity
  8
0
  6
Continuous
 62
     7
100
AcDbSpline
210
0.0
220
0.0
230
1.0
 70
     8
 71
     3
 72
     9
 73
     5
 74
     0
 42
0.0000000001
 43
0.0000000001
 40
0.0
 40
0.0
 40
0.0
 40
0.0
 40
0.2493782532
 40
1.0
 40
1.0
 40
1.0
 40
1.0
 10
212.2461442428
 20
211.7272058824
 30
0.0
 10
212.0517090719
 20
211.7703831704
 30
0.0
 10
211.2796356009
 20
211.9782448858
 30
0.0
 10
210.5433967927
 20
212.3037869128
 30
0.0
 10
210.0127596237
 20
212.5827593818
 30
0.0
  0
SPLINE
  5
3F0
330
21A
100
AcDbEntity
  8
0
  6
Continuous
 62
     7
100
AcDbSpline
210
0.0
220
0.0
230
1.0
 70
     8
 71
     3
 72
     9
 73
     5
 74
     0
 42
0.0000000001
 43
0.0000000001
 40
0.0
 40
0.0
 40
0.0
 40
0.0
 40
0.2510377027
 40
1.0
 40
1.0
 40
1.0
 40
1.0
 10
217.1509651878
 20
212.5827593818
 30
0.0
 10
216.9735616083
 20
212.4894928007
 30
0.0
 10
216.2590045391
 20
212.1342409824
 30
0.0
 10
215.5013254764
 20
211.8568353209
 30
0.0
 10
214.9175805686
 20
211.7272058824
 30
0.0
  0
SPLINE
  5
3F1
330
21A
100
AcDbEntity
  8
0
  6
Continuous
 62
     7
100
AcDbSpline
210
0.0
220
0.0
230
1.0
 70
     8
 71
     3
 72
     9
 73
     5
 74
     0
 42
0.0000000001
 43
0.0000000001
 40
0.0
 40
0.0
 40
0.0
 40
0.0
 40
0.2527133142
 40
1.0
 40
1.0
 40
1.0
 40
1.0
 10
122.9676003128
 20
212.5827593818
 30
0.0
 10
122.8063730247
 20
212.4896747637
 30
0.0
 10
122.1602269077
 20
212.1368146141
 30
0.0
 10
121.4687339712
 20
211.8576361928
 30
0.0
 10
120.9338959183
 20
211.7272058824
 30
0.0
  0
SPLINE
  5
3F2
330
21A
100
AcDbEntity
  8
0
  6
Continuous
 62
     7
100
AcDbSpline
210
0.0
220
0.0
230
1.0
 70
     8
 71
     3
 72
     9
 73
     5
 74
     0
 42
0.0000000001
 43
0.0000000001
 40
0.0
 40
0.0
 40
0.0
 40
0.0
 40
0.2527133142
 40
1.0
 40
1.0
 40
1.0
 40
1.0
 10
116.4676003128
 20
212.5827593818
 30
0.0
 10
116.3063730247
 20
212.4896747637
 30
0.0
 10
115.6602269077
 20
212.1368146141
 30
0.0
 10
114.9687339712
 20
211.8576361928
 30
0.0
 10
114.4338959183
 20
211.7272058824
 30
0.0
  0
SPLINE
  5
3F3
330
21A
100
AcDbEntity
  8
0
  6
Continuous
 62
     7
100
AcDbSpline
210
0.0
220
0.0
230
1.0
 70
     8
 71
     3
 72
     9
 73
     5
 74
     0
 42
0.0000000001
 43
0.0000000001
 40
0.0
 40
0.0
 40
0.0
 40
0.0
 40
0.2477691676
 40
1.0
 40
1.0
 40
1.0
 40
1.0
 10
112.0013047073
 20
211.7272058824
 30
0.0
 10
111.8239001538
 20
211.7704693167
 30
0.0
 10
111.1162527072
 20
211.9798682669
 30
0.0
 10
110.4477139063
 20
212.3055656693
 30
0.0
 10
109.9676003128
 20
212.5827593818
 30
0.0
  0
SPLINE
  5
3F4
330
21A
100
AcDbEntity
  8
0
  6
Continuous
 62
     7
100
AcDbSpline
210
0.0
220
0.0
230
1.0
 70
     8
 71
     3
 72
     9
 73
     5
 74
     0
 42
0.0000000001
 43
0.0000000001
 40
0.0
 40
0.0
 40
0.0
 40
0.0
 40
0.2477691676
 40
1.0
 40
1.0
 40
1.0
 40
1.0
 10
118.5013047073
 20
211.7272058824
 30
0.0
 10
118.3239001538
 20
211.7704693167
 30
0.0
 10
117.6162527072
 20
211.9798682669
 30
0.0
 10
116.9477139063
 20
212.3055656693
 30
0.0
 10
116.4676003128
 20
212.5827593818
 30
0.0
  0
SPLINE
  5
3F5
330
21A
100
AcDbEntity
  8
0
  6
Continuous
 62
     7
100
AcDbSpline
210
0.0
220
0.0
230
1.0
 70
     8
 71
     3
 72
     9
 73
     5
 74
     0
 42
0.0000000001
 43
0.0000000001
 40
0.0
 40
0.0
 40
0.0
 40
0.0
 40
0.2571183635
 40
1.0
 40
1.0
 40
1.0
 40
1.0
 10
314.1433408639
 20
212.5827593818
 30
0.0
 10
314.1153771271
 20
212.5483836534
 30
0.0
 10
314.0052924828
 20
212.4157877082
 30
0.0
 10
313.8893719306
 20
212.2879146086
 30
0.0
 10
313.7989859846
 20
212.1972356647
 30
0.0
  0
SPLINE
  5
3F6
330
21A
100
AcDbEntity
  8
0
  6
Continuous
 62
     7
100
AcDbSpline
210
0.0
220
0.0
230
1.0
 70
     8
 71
     3
 72
     9
 73
     5
 74
     0
 42
0.0000000001
 43
0.0000000001
 40
0.0
 40
0.0
 40
0.0
 40
0.0
 40
0.2571183635
 40
1.0
 40
1.0
 40
1.0
 40
1.0
 10
299.2144662797
 20
212.5827593818
 30
0.0
 10
299.2424300165
 20
212.5483836534
 30
0.0
 10
299.3525146608
 20
212.4157877082
 30
0.0
 10
299.468435213
 20
212.2879146086
 30
0.0
 10
299.558821159
 20
212.1972356647
 30
0.0
  0
SPLINE
  5
3F7
330
21A
100
AcDbEntity
  8
0
  6
Continuous
 62
     7
100
AcDbSpline
210
0.0
220
0.0
230
1.0
 70
     8
 71
     3
 72
     9
 73
     5
 74
     0
 42
0.0000000001
 43
0.0000000001
 40
0.0
 40
0.0
 40
0.0
 40
0.0
 40
0.7499302679000001
 40
1.0
 40
1.0
 40
1.0
 40
1.0
 10
311.0905572291
 20
212.5827593818
 30
0.0
 10
310.5341131886
 20
212.3030048369
 30
0.0
 10
309.7633557661
 20
211.9775552715
 30
0.0
 10
308.9582524355
 20
211.7703468863
 30
0.0
 10
308.7551020100999
 20
211.7272058824
 30
0.0
  0
SPLINE
  5
3F8
330
21A
100
AcDbEntity
  8
0
  6
Continuous
 62
     7
100
AcDbSpline
210
0.0
220
0.0
230
1.0
 70
     8
 71
     3
 72
     9
 73
     5
 74
     0
 42
0.0000000001
 43
0.0000000001
 40
0.0
 40
0.0
 40
0.0
 40
0.0
 40
0.4677745472
 40
1.0
 40
1.0
 40
1.0
 40
1.0
 10
312.0457048435
 20
211.7272058824
 30
0.0
 10
311.8673955515
 20
211.8197923545
 30
0.0
 10
311.5221190161
 20
212.0851845802
 30
0.0
 10
311.2348123683
 20
212.4054270199
 30
0.0
 10
311.0905572291
 20
212.5827593818
 30
0.0
  0
SPLINE
  5
3F9
330
21A
100
AcDbEntity
  8
0
  6
Continuous
 62
     7
100
AcDbSpline
210
0.0
220
0.0
230
1.0
 70
     8
 71
     3
 72
     9
 73
     5
 74
     0
 42
0.0000000001
 43
0.0000000001
 40
0.0
 40
0.0
 40
0.0
 40
0.0
 40
0.4842018175
 40
1.0
 40
1.0
 40
1.0
 40
1.0
 10
300.5947738843
 20
211.7272058824
 30
0.0
 10
300.3471351904
 20
211.8161847101
 30
0.0
 10
299.8606083095
 20
212.0699466662
 30
0.0
 10
299.4279769477
 20
212.4011363595
 30
0.0
 10
299.2144662797
 20
212.5827593818
 30
0.0
  0
SPLINE
  5
3FA
330
21A
100
AcDbEntity
  8
0
  6
Continuous
 62
     7
100
AcDbSpline
210
0.0
220
0.0
230
1.0
 70
     8
 71
     3
 72
     9
 73
     5
 74
     0
 42
0.0000000001
 43
0.0000000001
 40
0.0
 40
0.0
 40
0.0
 40
0.0
 40
0.5222077758000001
 40
1.0
 40
1.0
 40
1.0
 40
1.0
 10
313.7989859846
 20
212.1972356647
 30
0.0
 10
313.7040030735
 20
212.1019448541
 30
0.0
 10
313.5129388049
 20
211.9282264607
 30
0.0
 10
313.2974438364
 20
211.783933865
 30
0.0
 10
313.1881932495
 20
211.7272058824
 30
0.0
  0
SPLINE
  5
3FB
330
21A
100
AcDbEntity
  8
0
  6
Continuous
 62
     7
100
AcDbSpline
210
0.0
220
0.0
230
1.0
 70
     8
 71
     3
 72
     9
 73
     5
 74
     0
 42
0.0000000001
 43
0.0000000001
 40
0.0
 40
0.0
 40
0.0
 40
0.0
 40
0.5157976721999999
 40
1.0
 40
1.0
 40
1.0
 40
1.0
 10
303.626119937
 20
212.5827593818
 30
0.0
 10
303.4126094845
 20
212.4011365428
 30
0.0
 10
302.9799779613
 20
212.0699471256
 30
0.0
 10
302.4934512823
 20
211.8161848022
 30
0.0
 10
302.2458123324
 20
211.7272058824
 30
0.0
  0
SPLINE
  5
3FC
330
21A
100
AcDbEntity
  8
0
  6
Continuous
 62
     7
100
AcDbSpline
210
0.0
220
0.0
230
1.0
 70
     8
 71
     3
 72
     9
 73
     5
 74
     0
 42
0.0000000001
 43
0.0000000001
 40
0.0
 40
0.0
 40
0.0
 40
0.0
 40
0.2500696626
 40
1.0
 40
1.0
 40
1.0
 40
1.0
 10
305.961575156
 20
211.7272058824
 30
0.0
 10
305.758424786
 20
211.7703468745
 30
0.0
 10
304.9533213859
 20
211.97755501
 30
0.0
 10
304.1825640317
 20
212.3030048097
 30
0.0
 10
303.626119937
 20
212.5827593818
 30
0.0
  0
SPLINE
  5
3FD
330
21A
100
AcDbEntity
  8
0
  6
Continuous
 62
     7
100
AcDbSpline
210
0.0
220
0.0
230
1.0
 70
     8
 71
     3
 72
     9
 73
     5
 74
     0
 42
0.0000000001
 43
0.0000000001
 40
0.0
 40
0.0
 40
0.0
 40
0.0
 40
0.3245813961
 40
1.0
 40
1.0
 40
1.0
 40
1.0
 10
215.5506948401
 20
201.1579812579
 30
0.0
 10
215.7925372739
 20
201.1562854739
 30
0.0
 10
216.5376071017
 20
201.1498945126
 30
0.0
 10
217.2827448096
 20
201.1430320589
 30
0.0
 10
217.7858334784
 20
201.1298940016
 30
0.0
  0
SPLINE
  5
3FE
330
21A
100
AcDbEntity
  8
0
  6
Continuous
 62
     7
100
AcDbSpline
210
0.0
220
0.0
230
1.0
 70
     8
 71
     3
 72
    13
 73
     9
 74
     0
 42
0.0000000001
 43
0.0000000001
 40
0.0
 40
0.0
 40
0.0
 40
0.0
 40
0.4324784253000001
 40
0.7442507262000002
 40
0.8542602456999999
 40
0.9335078381999998
 40
0.9819329137999998
 40
1.0
 40
1.0
 40
1.0
 40
1.0
 10
217.7858334784
 20
201.1298940016
 30
0.0
 10
217.8365097479
 20
201.1285706012
 30
0.0
 10
217.9234578249
 20
201.1259228753
 30
0.0
 10
218.0242307978
 20
201.1223357362
 30
0.0
 10
218.0819223534
 20
201.1185108651
 30
0.0
 10
218.1112674967
 20
201.1170181465
 30
0.0
 10
218.1253868741
 20
201.1137294439
 30
0.0
 10
218.1361737252
 20
201.113435705
 30
0.0
 10
218.13654147
 20
201.1113501204
 30
0.0
  0
LINE
  5
3FF
330
21A
100
AcDbEntity
  8
0
  6
Continuous
 62
     7
100
AcDbLine
 10
117.4186917544
 20
201.1257181607
 30
0.0
 11
118.2008784112
 21
201.1321612357
 31
0.0
  0
SPLINE
  5
400
330
21A
100
AcDbEntity
  8
0
  6
Continuous
 62
     7
100
AcDbSpline
210
0.0
220
0.0
230
1.0
 70
     8
 71
     3
 72
     9
 73
     5
 74
     0
 42
0.0000000001
 43
0.0000000001
 40
0.0
 40
0.0
 40
0.0
 40
0.0
 40
0.2588056283
 40
1.0
 40
1.0
 40
1.0
 40
1.0
 10
118.2008784112
 20
201.1321612357
 30
0.0
 10
118.3292208766
 20
201.1331942344
 30
0.0
 10
118.8251241711
 20
201.1371380515
 30
0.0
 10
119.3210290049
 20
201.1408902111
 30
0.0
 10
119.6885918923
 20
201.1435283497
 30
0.0
  0
SPLINE
  5
401
330
21A
100
AcDbEntity
  8
0
  6
Continuous
 62
     7
100
AcDbSpline
210
0.0
220
0.0
230
1.0
 70
     8
 71
     3
 72
     9
 73
     5
 74
     0
 42
0.0000000001
 43
0.0000000001
 40
0.0
 40
0.0
 40
0.0
 40
0.0
 40
0.2353129996
 40
1.0
 40
1.0
 40
1.0
 40
1.0
 10
216.8773234666
 20
201.0607551159
 30
0.0
 10
216.8317544314
 20
201.0658624194
 30
0.0
 10
216.6380132936
 20
201.0867779407
 30
0.0
 10
216.4439662264
 20
201.1048051472
 30
0.0
 10
216.2954879941
 20
201.117394575
 30
0.0
  0
SPLINE
  5
402
330
21A
100
AcDbEntity
  8
0
  6
Continuous
 62
     7
100
AcDbSpline
210
0.0
220
0.0
230
1.0
 70
     8
 71
     3
 72
    13
 73
     9
 74
     0
 42
0.0000000001
 43
0.0000000001
 40
0.0
 40
0.0
 40
0.0
 40
0.0
 40
0.0180129527
 40
0.0664312257
 40
0.1456918388
 40
0.2557240014
 40
0.5675403146
 40
1.0
 40
1.0
 40
1.0
 40
1.0
 10
205.0099621952
 20
201.1113492434
 30
0.0
 10
205.0103431431
 20
201.1135097063
 30
0.0
 10
205.0215723494
 20
201.1137337106
 30
0.0
 10
205.0362157303
 20
201.1171557118
 30
0.0
 10
205.0667274772
 20
201.1186389282
 30
0.0
 10
205.126674364
 20
201.1225614569
 30
0.0
 10
205.2313944627
 20
201.1261989825
 30
0.0
 10
205.3217371304
 20
201.1289015689
 30
0.0
 10
205.3743890194
 20
201.1302487232
 30
0.0
  0
SPLINE
  5
403
330
21A
100
AcDbEntity
  8
0
  6
Continuous
 62
     7
100
AcDbSpline
210
0.0
220
0.0
230
1.0
 70
     8
 71
     3
 72
     9
 73
     5
 74
     0
 42
0.0000000001
 43
0.0000000001
 40
0.0
 40
0.0
 40
0.0
 40
0.0
 40
0.1713309031
 40
1.0
 40
1.0
 40
1.0
 40
1.0
 10
205.3743890194
 20
201.1302487232
 30
0.0
 10
205.5012242455
 20
201.1334939368
 30
0.0
 10
206.2416333962
 20
201.1477095471
 30
0.0
 10
206.9821646686
 20
201.1536784221
 30
0.0
 10
207.5958090445
 20
201.1579812579
 30
0.0
  0
SPLINE
  5
404
330
21A
100
AcDbEntity
  8
0
  6
Continuous
 62
     7
100
AcDbSpline
210
0.0
220
0.0
230
1.0
 70
     8
 71
     3
 72
     9
 73
     5
 74
     0
 42
0.0000000001
 43
0.0000000001
 40
0.0
 40
0.0
 40
0.0
 40
0.0
 40
0.2396853364
 40
1.0
 40
1.0
 40
1.0
 40
1.0
 10
303.4579387324
 20
201.1435281579
 30
0.0
 10
303.576798978
 20
201.1426750503
 30
0.0
 10
304.0726997156
 20
201.1390516421
 30
0.0
 10
304.5685987429
 20
201.1351958384
 30
0.0
 10
304.9456371948
 20
201.1321611414
 30
0.0
  0
LINE
  5
405
330
21A
100
AcDbEntity
  8
0
  6
Continuous
 62
     7
100
AcDbLine
 10
304.9456371948
 20
201.1321611414
 30
0.0
 11
305.7278174154
 21
201.1257181162
 31
0.0
  0
SPLINE
  5
406
330
21A
100
AcDbEntity
  8
0
  6
Continuous
 62
     7
100
AcDbSpline
210
0.0
220
0.0
230
1.0
 70
     8
 71
     3
 72
    17
 73
    13
 74
     0
 42
0.0000000001
 43
0.0000000001
 40
0.0
 40
0.0
 40
0.0
 40
0.0
 40
0.0041519961
 40
0.0161396871
 40
0.0361436092
 40
0.0641596248
 40
0.1441181196
 40
0.2555928098
 40
0.3979023800999999
 40
0.5702944606
 40
0.7715120023000001
 40
1.0
 40
1.0
 40
1.0
 40
1.0
 10
218.139612904
 20
201.0939314347
 30
0.0
 10
218.1399165424
 20
201.0922094155
 30
0.0
 10
218.1294270879
 20
201.0911900715
 30
0.0
 10
218.1179733566
 20
201.0887059476
 30
0.0
 10
218.0907208107
 20
201.0869427769
 30
0.0
 10
218.0381743127
 20
201.0835080763
 30
0.0
 10
217.9448891478
 20
201.0799790606
 30
0.0
 10
217.8048437527
 20
201.0757897025
 30
0.0
 10
217.6252332655
 20
201.0717919306
 30
0.0
 10
217.408054418
 20
201.0678653778
 30
0.0
 10
217.1544913826
 20
201.064109278
 30
0.0
 10
216.9735432227
 20
201.0618617669
 30
0.0
 10
216.8773234666
 20
201.0607551159
 30
0.0
  0
SPLINE
  5
407
330
21A
100
AcDbEntity
  8
0
  6
Continuous
 62
     7
100
AcDbSpline
210
0.0
220
0.0
230
1.0
 70
     8
 71
     3
 72
    17
 73
    13
 74
     0
 42
0.0000000001
 43
0.0000000001
 40
0.0
 40
0.0
 40
0.0
 40
0.0
 40
0.2284871796
 40
0.429701356
 40
0.6020874446
 40
0.7443962445000001
 40
0.8558734104999999
 40
0.9358339726
 40
0.9638519828999999
 40
0.9838580195999998
 40
0.9958473790000001
 40
1.0
 40
1.0
 40
1.0
 40
1.0
 10
206.269180418
 20
201.0607551159
 30
0.0
 10
206.1729610138
 20
201.0618617628
 30
0.0
 10
205.9920146296
 20
201.0641092407
 30
0.0
 10
205.7384558977
 20
201.0678652172
 30
0.0
 10
205.5212813311
 20
201.0717917216
 30
0.0
 10
205.3416726581
 20
201.0757893594
 30
0.0
 10
205.2016257034
 20
201.0799786273
 30
0.0
 10
205.1083377347
 20
201.0835078122
 30
0.0
 10
205.0557887746
 20
201.0869427565
 30
0.0
 10
205.0285334482
 20
201.0887056981
 30
0.0
 10
205.0170786056
 20
201.0911904019
 30
0.0
 10
205.0065872967
 20
201.0922091585
 30
0.0
 10
205.0068909808
 20
201.0939314367
 30
0.0
  0
SPLINE
  5
408
330
21A
100
AcDbEntity
  8
0
  6
Continuous
 62
     9
100
AcDbSpline
210
0.0
220
0.0
230
1.0
 70
     8
 71
     3
 72
    12
 73
     8
 74
     0
 42
0.0000000001
 43
0.0000000001
 40
0.0
 40
0.0
 40
0.0
 40
0.0
 40
0.1284430702
 40
0.2260037237
 40
0.3472926329999999
 40
0.6498372073
 40
1.0
 40
1.0
 40
1.0
 40
1.0
 10
308.6635085021
 20
207.9772058824
 30
0.0
 10
308.6166295416
 20
207.9772058824
 30
0.0
 10
308.5437795737
 20
208.0424745641
 30
0.0
 10
308.4862028602
 20
208.1519678318
 30
0.0
 10
308.4197816765
 20
208.3323009696
 30
0.0
 10
308.3686426218
 20
208.6108946566
 30
0.0
 10
308.3544915077
 20
208.8494039878
 30
0.0
 10
308.3544915077
 20
208.9772058824
 30
0.0
  0
SPLINE
  5
409
330
21A
100
AcDbEntity
  8
0
  6
Continuous
 62
     9
100
AcDbSpline
210
0.0
220
0.0
230
1.0
 70
     8
 71
     3
 72
    12
 73
     8
 74
     0
 42
0.0000000001
 43
0.0000000001
 40
0.0
 40
0.0
 40
0.0
 40
0.0
 40
0.1284430688
 40
0.2260037227
 40
0.3472926329999999
 40
0.6498372100000001
 40
1.0
 40
1.0
 40
1.0
 40
1.0
 10
310.5656215347
 20
207.9772058824
 30
0.0
 10
310.5187425747
 20
207.9772058824
 30
0.0
 10
310.4458926066
 20
208.042474563
 30
0.0
 10
310.3883158934999
 20
208.1519678311
 30
0.0
 10
310.3218947085
 20
208.33230097
 30
0.0
 10
310.2707556543
 20
208.6108946577
 30
0.0
 10
310.2566045403
 20
208.8494039888
 30
0.0
 10
310.2566045403
 20
208.9772058824
 30
0.0
  0
SPLINE
  5
40A
330
21A
100
AcDbEntity
  8
0
  6
Continuous
 62
     9
100
AcDbSpline
210
0.0
220
0.0
230
1.0
 70
     8
 71
     3
 72
    12
 73
     8
 74
     0
 42
0.0000000001
 43
0.0000000001
 40
0.0
 40
0.0
 40
0.0
 40
0.0
 40
0.1284430702
 40
0.2260037237
 40
0.3472926329999999
 40
0.6498372073
 40
1.0
 40
1.0
 40
1.0
 40
1.0
 10
112.5808823499
 20
207.9772058824
 30
0.0
 10
112.6277613104
 20
207.9772058824
 30
0.0
 10
112.7006112783
 20
208.0424745641
 30
0.0
 10
112.7581879918
 20
208.1519678318
 30
0.0
 10
112.8246091755
 20
208.3323009696
 30
0.0
 10
112.8757482302
 20
208.6108946566
 30
0.0
 10
112.8898993443
 20
208.8494039878
 30
0.0
 10
112.8898993443
 20
208.9772058824
 30
0.0
  0
SPLINE
  5
40B
330
21A
100
AcDbEntity
  8
0
  6
Continuous
 62
     9
100
AcDbSpline
210
0.0
220
0.0
230
1.0
 70
     8
 71
     3
 72
    12
 73
     8
 74
     0
 42
0.0000000001
 43
0.0000000001
 40
0.0
 40
0.0
 40
0.0
 40
0.0
 40
0.1284430688
 40
0.2260037227
 40
0.3472926329999999
 40
0.6498372100000001
 40
1.0
 40
1.0
 40
1.0
 40
1.0
 10
114.4829953825
 20
207.9772058824
 30
0.0
 10
114.5298743424
 20
207.9772058824
 30
0.0
 10
114.6027243105
 20
208.042474563
 30
0.0
 10
114.6603010237
 20
208.1519678311
 30
0.0
 10
114.7267222087
 20
208.33230097
 30
0.0
 10
114.7778612629
 20
208.6108946577
 30
0.0
 10
114.7920123769
 20
208.8494039888
 30
0.0
 10
114.7920123769
 20
208.9772058824
 30
0.0
  0
SPLINE
  5
40C
330
21A
100
AcDbEntity
  8
RUNDUNGEN
  6
Continuous
 62
     9
100
AcDbSpline
210
0.0
220
0.0
230
1.0
 70
     8
 71
     3
 72
     9
 73
     5
 74
     0
 42
0.0000000001
 43
0.0000000001
 40
0.0
 40
0.0
 40
0.0
 40
0.0
 40
0.232438768
 40
1.0
 40
1.0
 40
1.0
 40
1.0
 10
142.4085302112
 20
195.3584609839
 30
0.0
 10
142.3974915736
 20
195.3961741481
 30
0.0
 10
142.35697978
 20
195.5604321492
 30
0.0
 10
142.3429978619
 20
195.7308321144
 30
0.0
 10
142.3451133464
 20
195.86057671
 30
0.0
  0
SPLINE
  5
40D
330
21A
100
AcDbEntity
  8
RUNDUNGEN
  6
Continuous
 62
     9
100
AcDbSpline
210
0.0
220
0.0
230
1.0
 70
     8
 71
     3
 72
    11
 73
     7
 74
     0
 42
0.0000000001
 43
0.0000000001
 40
0.0
 40
0.0
 40
0.0
 40
0.0
 40
0.1905737753
 40
0.4137113473
 40
0.6841597658
 40
1.0
 40
1.0
 40
1.0
 40
1.0
 10
333.0225232386
 20
195.4772058824
 30
0.0
 10
332.9333484441
 20
195.4772058824
 30
0.0
 10
332.7383692817
 20
195.4204133624
 30
0.0
 10
332.4948576854
 20
195.2025797138
 30
0.0
 10
332.293460257
 20
194.8779571046
 30
0.0
 10
332.1974875364
 20
194.6191983739
 30
0.0
 10
332.1564978348
 20
194.4772058824
 30
0.0
  0
SPLINE
  5
40E
330
21A
100
AcDbEntity
  8
RUNDUNGEN
  6
Continuous
 62
     9
100
AcDbSpline
210
0.0
220
0.0
230
1.0
 70
     8
 71
     3
 72
     9
 73
     5
 74
     0
 42
0.0000000001
 43
0.0000000001
 40
0.0
 40
0.0
 40
0.0
 40
0.0
 40
0.5082707695000001
 40
1.0
 40
1.0
 40
1.0
 40
1.0
 10
144.9859740367
 20
181.9345843579
 30
0.0
 10
144.502421476
 20
182.2003674087
 30
0.0
 10
143.5562066959
 20
182.7324184766
 30
0.0
 10
142.6186210814
 20
183.2805426903
 30
0.0
 10
142.1677489557
 20
183.5663452933
 30
0.0
  0
SPLINE
  5
40F
330
21A
100
AcDbEntity
  8
RUNDUNGEN
  6
Continuous
 62
     9
100
AcDbSpline
210
0.0
220
0.0
230
1.0
 70
     8
 71
     3
 72
     9
 73
     5
 74
     0
 42
0.0000000001
 43
0.0000000001
 40
0.0
 40
0.0
 40
0.0
 40
0.0
 40
0.5021288614000001
 40
1.0
 40
1.0
 40
1.0
 40
1.0
 10
281.6142199218
 20
199.4772058824
 30
0.0
 10
281.6142199218
 20
199.7119399408
 30
0.0
 10
281.7878201189
 20
200.1962633303
 30
0.0
 10
282.2433859314
 20
200.43836847
 30
0.0
 10
282.4741265312
 20
200.4688379721
 30
0.0
  0
SPLINE
  5
410
330
21A
100
AcDbEntity
  8
RUNDUNGEN
  6
Continuous
 62
     9
100
AcDbSpline
210
0.0
220
0.0
230
1.0
 70
     8
 71
     3
 72
    12
 73
     8
 74
     0
 42
0.0000000001
 43
0.0000000001
 40
0.0
 40
0.0
 40
0.0
 40
0.0
 40
0.3689099722
 40
0.6835672364000001
 40
0.8993508212000001
 40
0.9625084521999999
 40
1.0
 40
1.0
 40
1.0
 40
1.0
 10
280.8013755928
 20
199.4772058824
 30
0.0
 10
280.8013755928
 20
199.6048430981
 30
0.0
 10
280.8090488758001
 20
199.841745002
 30
0.0
 10
280.841440829
 20
200.1504585706
 30
0.0
 10
280.8858260447
 20
200.3539467045
 30
0.0
 10
280.9309703098
 20
200.452597745
 30
0.0
 10
280.9620522675
 20
200.4772058824
 30
0.0
 10
280.9750237704
 20
200.4772058824
 30
0.0
  0
SPLINE
  5
411
330
21A
100
AcDbEntity
  8
RUNDUNGEN
  6
Continuous
 62
     9
100
AcDbSpline
210
0.0
220
0.0
230
1.0
 70
     8
 71
     3
 72
    12
 73
     8
 74
     0
 42
0.0000000001
 43
0.0000000001
 40
0.0
 40
0.0
 40
0.0
 40
0.0
 40
0.368860902
 40
0.6835094438000001
 40
0.8993445560999999
 40
0.9625087334999999
 40
1.0
 40
1.0
 40
1.0
 40
1.0
 10
274.7614135001
 20
199.4772058824
 30
0.0
 10
274.7614135001
 20
199.6048261368
 30
0.0
 10
274.7690844718
 20
199.8417078349
 30
0.0
 10
274.8014726864
 20
200.1504202478
 30
0.0
 10
274.8458574216
 20
200.3539251416
 30
0.0
 10
274.8910058123
 20
200.4525972504
 30
0.0
 10
274.9220902706
 20
200.4772058824
 30
0.0
 10
274.9350616778
 20
200.4772058824
 30
0.0
  0
SPLINE
  5
412
330
21A
100
AcDbEntity
  8
RUNDUNGEN
  6
Continuous
 62
     9
100
AcDbSpline
210
0.0
220
0.0
230
1.0
 70
     8
 71
     3
 72
    11
 73
     7
 74
     0
 42
0.0000000001
 43
0.0000000001
 40
0.0
 40
0.0
 40
0.0
 40
0.0
 40
0.25290511
 40
0.5041164339000001
 40
0.7529462368000001
 40
1.0
 40
1.0
 40
1.0
 40
1.0
 10
273.960264605
 20
199.4772058824
 30
0.0
 10
273.960264605
 20
199.6071247838
 30
0.0
 10
274.0105363407
 20
199.8688284148
 30
0.0
 10
274.2264962590001
 20
200.2011398912
 30
0.0
 10
274.5505277597
 20
200.4246837587
 30
0.0
 10
274.8081486489
 20
200.4772058824
 30
0.0
 10
274.9350616778
 20
200.4772058824
 30
0.0
  0
SPLINE
  5
413
330
21A
100
AcDbEntity
  8
RUNDUNGEN
  6
Continuous
 62
     9
100
AcDbSpline
210
0.0
220
0.0
230
1.0
 70
     8
 71
     3
 72
    11
 73
     7
 74
     0
 42
0.0000000001
 43
0.0000000001
 40
0.0
 40
0.0
 40
0.0
 40
0.0
 40
0.2529051095
 40
0.5041164336000001
 40
0.7529462370000001
 40
1.0
 40
1.0
 40
1.0
 40
1.0
 10
149.1862392796
 20
199.4772058824
 30
0.0
 10
149.1862392796
 20
199.6071247836
 30
0.0
 10
149.1359675441
 20
199.8688284144
 30
0.0
 10
148.9200076259
 20
200.201139891
 30
0.0
 10
148.5959761249
 20
200.4246837587
 30
0.0
 10
148.3383552356
 20
200.4772058824
 30
0.0
 10
148.2114422068
 20
200.4772058824
 30
0.0
  0
SPLINE
  5
414
330
21A
100
AcDbEntity
  8
RUNDUNGEN
  6
Continuous
 62
     9
100
AcDbSpline
210
0.0
220
0.0
230
1.0
 70
     8
 71
     3
 72
    12
 73
     8
 74
     0
 42
0.0000000001
 43
0.0000000001
 40
0.0
 40
0.0
 40
0.0
 40
0.0
 40
0.3688609038
 40
0.6835094440999999
 40
0.8993445556000001
 40
0.9625087331999999
 40
1.0
 40
1.0
 40
1.0
 40
1.0
 10
148.3850903844
 20
199.4772058824
 30
0.0
 10
148.3850903844
 20
199.6048261374
 30
0.0
 10
148.3774194127
 20
199.8417078356
 30
0.0
 10
148.345031198
 20
200.1504202481
 30
0.0
 10
148.3006464633
 20
200.3539251416
 30
0.0
 10
148.2554980722
 20
200.4525972497
 30
0.0
 10
148.2244136141
 20
200.4772058824
 30
0.0
 10
148.2114422068
 20
200.4772058824
 30
0.0
  0
SPLINE
  5
415
330
21A
100
AcDbEntity
  8
RUNDUNGEN
  6
Continuous
 62
     9
100
AcDbSpline
210
0.0
220
0.0
230
1.0
 70
     8
 71
     3
 72
    12
 73
     8
 74
     0
 42
0.0000000001
 43
0.0000000001
 40
0.0
 40
0.0
 40
0.0
 40
0.0
 40
0.368909972
 40
0.6835672364000001
 40
0.8993508213
 40
0.9625084522999999
 40
1.0
 40
1.0
 40
1.0
 40
1.0
 10
142.3451282918
 20
199.4772058824
 30
0.0
 10
142.3451282918
 20
199.6048430981
 30
0.0
 10
142.3374550088
 20
199.841745002
 30
0.0
 10
142.3050630556
 20
200.1504585706
 30
0.0
 10
142.2606778398
 20
200.3539467045
 30
0.0
 10
142.2155335748
 20
200.4525977451
 30
0.0
 10
142.184451617
 20
200.4772058824
 30
0.0
 10
142.1714801142
 20
200.4772058824
 30
0.0
  0
LINE
  5
416
330
21A
100
AcDbEntity
  8
RUNDUNGEN
  6
Continuous
 62
     9
100
AcDbLine
 10
148.33115174
 20
180.1022436781
 30
0.0
 11
147.5037316821
 21
180.5542412137
 31
0.0
  0
LINE
  5
417
330
21A
100
AcDbEntity
  8
RUNDUNGEN
  6
Continuous
 62
     9
100
AcDbLine
 10
147.5037316821
 20
180.5542412137
 30
0.0
 11
146.6703964236
 21
181.010298625
 31
0.0
  0
LINE
  5
418
330
21A
100
AcDbEntity
  8
RUNDUNGEN
  6
Continuous
 62
     9
100
AcDbLine
 10
146.6703964236
 20
181.010298625
 30
0.0
 11
144.9859740367
 21
181.9345843579
 31
0.0
  0
SPLINE
  5
419
330
21A
100
AcDbEntity
  8
RUNDUNGEN
  6
Continuous
 62
     9
100
AcDbSpline
210
0.0
220
0.0
230
1.0
 70
     8
 71
     3
 72
     9
 73
     5
 74
     0
 42
0.0000000001
 43
0.0000000001
 40
0.0
 40
0.0
 40
0.0
 40
0.0
 40
0.5021288614000001
 40
1.0
 40
1.0
 40
1.0
 40
1.0
 10
141.5322839628
 20
199.4772058824
 30
0.0
 10
141.5322839628
 20
199.711939941
 30
0.0
 10
141.3586837654
 20
200.1962633306
 30
0.0
 10
140.9031179525
 20
200.4383684703
 30
0.0
 10
140.6723773526
 20
200.4688379722
 30
0.0
  0
LINE
  5
41A
330
21A
100
AcDbEntity
  8
RUNDUNGEN
  6
Continuous
 62
     9
100
AcDbLine
 10
278.1605726076
 20
181.934607781
 30
0.0
 11
276.4761105615
 21
181.0103003233
 31
0.0
  0
LINE
  5
41B
330
21A
100
AcDbEntity
  8
RUNDUNGEN
  6
Continuous
 62
     9
100
AcDbLine
 10
276.4761105615
 20
181.0103003233
 30
0.0
 11
275.6427692702
 21
180.5542395247
 31
0.0
  0
LINE
  5
41C
330
21A
100
AcDbEntity
  8
RUNDUNGEN
  6
Continuous
 62
     9
100
AcDbLine
 10
275.6427692702
 20
180.5542395247
 30
0.0
 11
274.8153524202
 21
180.1022436781
 31
0.0
  0
SPLINE
  5
41D
330
21A
100
AcDbEntity
  8
RUNDUNGEN
  6
Continuous
 62
     9
100
AcDbSpline
210
0.0
220
0.0
230
1.0
 70
     8
 71
     3
 72
     9
 73
     5
 74
     0
 42
0.0000000001
 43
0.0000000001
 40
0.0
 40
0.0
 40
0.0
 40
0.0
 40
0.4917062888000001
 40
1.0
 40
1.0
 40
1.0
 40
1.0
 10
280.9786664281
 20
183.5663452933
 30
0.0
 10
280.5279006724
 20
183.2804596144
 30
0.0
 10
279.5902849074
 20
182.7324568144
 30
0.0
 10
278.6441261619
 20
182.2003968583
 30
0.0
 10
278.1605726076
 20
181.934607781
 30
0.0
  0
SPLINE
  5
41E
330
21A
100
AcDbEntity
  8
RUNDUNGEN
  6
Continuous
 62
     9
100
AcDbSpline
210
0.0
220
0.0
230
1.0
 70
     8
 71
     3
 72
     9
 73
     5
 74
     0
 42
0.0000000001
 43
0.0000000001
 40
0.0
 40
0.0
 40
0.0
 40
0.0
 40
0.4978858737
 40
1.0
 40
1.0
 40
1.0
 40
1.0
 10
274.8153925299
 20
180.1022436781
 30
0.0
 10
274.6681484947
 20
180.0155414805
 30
0.0
 10
274.4148571828
 20
179.7578608116
 30
0.0
 10
274.3251433154
 20
179.4085438587
 30
0.0
 10
274.3251433657
 20
179.2362182743
 30
0.0
  0
SPLINE
  5
41F
330
21A
100
AcDbEntity
  8
RUNDUNGEN
  6
Continuous
 62
     9
100
AcDbSpline
210
0.0
220
0.0
230
1.0
 70
     8
 71
     3
 72
     9
 73
     5
 74
     0
 42
0.0000000001
 43
0.0000000001
 40
0.0
 40
0.0
 40
0.0
 40
0.0
 40
0.5021141460000001
 40
1.0
 40
1.0
 40
1.0
 40
1.0
 10
148.8213605188
 20
179.2362182743
 30
0.0
 10
148.8213605427
 20
179.4085438628
 30
0.0
 10
148.7316466599
 20
179.7578607932
 30
0.0
 10
148.4783553765
 20
180.0155414757
 30
0.0
 10
148.3311113552
 20
180.1022436781
 30
0.0
  0
SPLINE
  5
420
330
21A
100
AcDbEntity
  8
RUNDUNGEN
  6
Continuous
 62
     9
100
AcDbSpline
210
0.0
220
0.0
230
1.0
 70
     8
 71
     3
 72
    13
 73
     9
 74
     0
 42
0.0000000001
 43
0.0000000001
 40
0.0
 40
0.0
 40
0.0
 40
0.0
 40
0.0676113985
 40
0.1337201625
 40
0.2232295846
 40
0.3470217359
 40
0.6601306364
 40
1.0
 40
1.0
 40
1.0
 40
1.0
 10
148.3311113482
 20
180.1022437639
 30
0.0
 10
148.3559983804999
 20
180.0942869433
 30
0.0
 10
148.4105503617
 20
180.0856636243
 30
0.0
 10
148.4888616614
 20
180.1365060699
 30
0.0
 10
148.5276327871
 20
180.2419119418999
 30
0.0
 10
148.5440332738
 20
180.4448797051
 30
0.0
 10
148.4963686344
 20
180.7448697359
 30
0.0
 10
148.4268734755
 20
180.9872072146
 30
0.0
 10
148.3850903378
 20
181.1117244432
 30
0.0
  0
SPLINE
  5
421
330
21A
100
AcDbEntity
  8
RUNDUNGEN
  6
Continuous
 62
     9
100
AcDbSpline
210
0.0
220
0.0
230
1.0
 70
     8
 71
     3
 72
    13
 73
     9
 74
     0
 42
0.0000000001
 43
0.0000000001
 40
0.0
 40
0.0
 40
0.0
 40
0.0
 40
0.3684547431
 40
0.6839584766
 40
0.8065408471999999
 40
0.901208579
 40
0.9660976120999999
 40
1.0
 40
1.0
 40
1.0
 40
1.0
 10
148.3850903844
 20
182.7501377102
 30
0.0
 10
148.391823031
 20
182.8768138609
 30
0.0
 10
148.3839007014
 20
183.1126295609
 30
0.0
 10
148.358485429
 20
183.3897865413
 30
0.0
 10
148.327222036
 20
183.5699662491
 30
0.0
 10
148.2970725579
 20
183.6644060226
 30
0.0
 10
148.2662997944
 20
183.7203074145
 30
0.0
 10
148.2401124368
 20
183.7494028586
 30
0.0
 10
148.2284547615
 20
183.7499854054
 30
0.0
  0
SPLINE
  5
422
330
21A
100
AcDbEntity
  8
RUNDUNGEN
  6
Continuous
 62
     9
100
AcDbSpline
210
0.0
220
0.0
230
1.0
 70
     8
 71
     3
 72
    11
 73
     7
 74
     0
 42
0.0000000001
 43
0.0000000001
 40
0.0
 40
0.0
 40
0.0
 40
0.0
 40
0.2470559946
 40
0.495912149
 40
0.7471253214
 40
1.0
 40
1.0
 40
1.0
 40
1.0
 10
148.2284547615
 20
183.7499854054
 30
0.0
 10
148.3539750427
 20
183.7477377944
 30
0.0
 10
148.6077935733
 20
183.69182643
 30
0.0
 10
148.9257015406
 20
183.4673316572
 30
0.0
 10
149.1370823016
 20
183.1374306451
 30
0.0
 10
149.1862392796
 20
182.8786348515
 30
0.0
 10
149.1862392796
 20
182.7501377102
 30
0.0
  0
SPLINE
  5
423
330
21A
100
AcDbEntity
  8
RUNDUNGEN
  6
Continuous
 62
     9
100
AcDbSpline
210
0.0
220
0.0
230
1.0
 70
     8
 71
     3
 72
     9
 73
     5
 74
     0
 42
0.0000000001
 43
0.0000000001
 40
0.0
 40
0.0
 40
0.0
 40
0.0
 40
0.3020795304
 40
1.0
 40
1.0
 40
1.0
 40
1.0
 10
142.5416101703
 20
183.6388344228
 30
0.0
 10
142.5080000905
 20
183.6191575303
 30
0.0
 10
142.3947784876
 20
183.5611211474
 30
0.0
 10
142.2520353013
 20
183.5348405599
 30
0.0
 10
142.1677497705
 20
183.5663452933
 30
0.0
  0
SPLINE
  5
424
330
21A
100
AcDbEntity
  8
RUNDUNGEN
  6
Continuous
 62
     9
100
AcDbSpline
210
0.0
220
0.0
230
1.0
 70
     8
 71
     3
 72
     9
 73
     5
 74
     0
 42
0.0000000001
 43
0.0000000001
 40
0.0
 40
0.0
 40
0.0
 40
0.0
 40
0.501676774
 40
1.0
 40
1.0
 40
1.0
 40
1.0
 10
141.6755121656
 20
184.4323707548
 30
0.0
 10
141.6755121611
 20
184.2600020197
 30
0.0
 10
141.7658114687
 20
183.910274367
 30
0.0
 10
142.0200576188
 20
183.6529600732
 30
0.0
 10
142.1677497705
 20
183.5663452933
 30
0.0
  0
SPLINE
  5
425
330
21A
100
AcDbEntity
  8
RUNDUNGEN
  6
Continuous
 62
     9
100
AcDbSpline
210
0.0
220
0.0
230
1.0
 70
     8
 71
     3
 72
    10
 73
     6
 74
     0
 42
0.0000000001
 43
0.0000000001
 40
0.0
 40
0.0
 40
0.0
 40
0.0
 40
0.4675928493
 40
0.7301201263000001
 40
1.0
 40
1.0
 40
1.0
 40
1.0
 10
141.6755121656
 20
184.4323707548
 30
0.0
 10
141.7018757166
 20
184.2410588571
 30
0.0
 10
141.8722842175
 20
183.9554144953
 30
0.0
 10
142.2195173267
 20
183.7287323606
 30
0.0
 10
142.4314684773
 20
183.6559441116
 30
0.0
 10
142.5416101703
 20
183.6388344228
 30
0.0
  0
SPLINE
  5
426
330
21A
100
AcDbEntity
  8
RUNDUNGEN
  6
Continuous
 62
     9
100
AcDbSpline
210
0.0
220
0.0
230
1.0
 70
     8
 71
     3
 72
     9
 73
     5
 74
     0
 42
0.0000000001
 43
0.0000000001
 40
0.0
 40
0.0
 40
0.0
 40
0.0
 40
0.4993777078
 40
1.0
 40
1.0
 40
1.0
 40
1.0
 10
145.3042560914
 20
182.8006334936
 30
0.0
 10
144.8417002152
 20
182.9310997662
 30
0.0
 10
143.9176915375
 20
183.1999248786
 30
0.0
 10
142.9968463996
 20
183.481064567
 30
0.0
 10
142.5416093186
 20
183.6388344879
 30
0.0
  0
SPLINE
  5
427
330
21A
100
AcDbEntity
  8
RUNDUNGEN
  6
Continuous
 62
     9
100
AcDbSpline
210
0.0
220
0.0
230
1.0
 70
     8
 71
     3
 72
    12
 73
     8
 74
     0
 42
0.0000000001
 43
0.0000000001
 40
0.0
 40
0.0
 40
0.0
 40
0.0
 40
0.0433226295
 40
0.1131551514
 40
0.3324751589999999
 40
0.6402364691
 40
1.0
 40
1.0
 40
1.0
 40
1.0
 10
144.9859303981
 20
181.9346068582
 30
0.0
 10
144.9790912503
 20
181.946220727
 30
0.0
 10
144.9760827859
 20
181.983308537
 30
0.0
 10
144.9905572072
 20
182.0847826612
 30
0.0
 10
145.050170713
 20
182.2627758327
 30
0.0
 10
145.1582800321
 20
182.5159440253
 30
0.0
 10
145.2515856517
 20
182.7018760706
 30
0.0
 10
145.3042560914
 20
182.8006334936
 30
0.0
  0
SPLINE
  5
428
330
21A
100
AcDbEntity
  8
RUNDUNGEN
  6
Continuous
 62
     9
100
AcDbSpline
210
0.0
220
0.0
230
1.0
 70
     8
 71
     3
 72
    11
 73
     7
 74
     0
 42
0.0000000001
 43
0.0000000001
 40
0.0
 40
0.0
 40
0.0
 40
0.0
 40
0.2477924567
 40
0.4969041556000001
 40
0.7478226573000001
 40
1.0
 40
1.0
 40
1.0
 40
1.0
 10
142.8803491924
 20
183.8378699958
 30
0.0
 10
142.7540607753
 20
183.8401168732
 30
0.0
 10
142.4989469556
 20
183.8958924127
 30
0.0
 10
142.1789832979
 20
184.120130145
 30
0.0
 10
141.9659825204
 20
184.4500556050999
 30
0.0
 10
141.9163888626
 20
184.7091741593
 30
0.0
 10
141.9163888635
 20
184.837717691
 30
0.0
  0
SPLINE
  5
429
330
21A
100
AcDbEntity
  8
RUNDUNGEN
  6
Continuous
 62
     9
100
AcDbSpline
210
0.0
220
0.0
230
1.0
 70
     8
 71
     3
 72
    12
 73
     8
 74
     0
 42
0.0000000001
 43
0.0000000001
 40
0.0
 40
0.0
 40
0.0
 40
0.0
 40
0.2822587762
 40
0.6028574636
 40
0.7447169733
 40
0.8544204485999999
 40
1.0
 40
1.0
 40
1.0
 40
1.0
 10
332.4319132866
 20
193.4772058824
 30
0.0
 10
332.6577373455
 20
193.3906983606
 30
0.0
 10
333.1529093897
 20
193.2391672238999
 30
0.0
 10
333.7900630171
 20
193.1482853761
 30
0.0
 10
334.2820364264
 20
193.181409027
 30
0.0
 10
334.6124505262
 20
193.2613705988
 30
0.0
 10
334.8114750899
 20
193.3797885142
 30
0.0
 10
334.8893623172001
 20
193.4772058745
 30
0.0
  0
SPLINE
  5
42A
330
21A
100
AcDbEntity
  8
RUNDUNGEN
  6
Continuous
 62
     9
100
AcDbSpline
210
0.0
220
0.0
230
1.0
 70
     8
 71
     3
 72
     9
 73
     5
 74
     0
 42
0.0000000001
 43
0.0000000001
 40
0.0
 40
0.0
 40
0.0
 40
0.0
 40
0.5441211588
 40
1.0
 40
1.0
 40
1.0
 40
1.0
 10
142.5416295893
 20
183.638790335
 30
0.0
 10
142.5842042079
 20
183.6987075296
 30
0.0
 10
142.6813308767
 20
183.7998857441999
 30
0.0
 10
142.8187706292
 20
183.8385582989
 30
0.0
 10
142.8803496988
 20
183.8378994883
 30
0.0
  0
SPLINE
  5
42B
330
21A
100
AcDbEntity
  8
RUNDUNGEN
  6
Continuous
 62
     9
100
AcDbSpline
210
0.0
220
0.0
230
1.0
 70
     8
 71
     3
 72
    11
 73
     7
 74
     0
 42
0.0000000001
 43
0.0000000001
 40
0.0
 40
0.0
 40
0.0
 40
0.0
 40
0.2529156503
 40
0.5041695788000001
 40
0.752981954
 40
1.0
 40
1.0
 40
1.0
 40
1.0
 10
273.9602646049
 20
182.7501377102
 30
0.0
 10
273.9602646049
 20
182.8786556848
 30
0.0
 10
274.0094423599
 20
183.1374932343
 30
0.0
 10
274.2208625984
 20
183.4673954654
 30
0.0
 10
274.5387710988
 20
183.6918482699
 30
0.0
 10
274.7925481088
 20
183.7477381394
 30
0.0
 10
274.9180491231
 20
183.7499854054
 30
0.0
  0
SPLINE
  5
42C
330
21A
100
AcDbEntity
  8
RUNDUNGEN
  6
Continuous
 62
     9
100
AcDbSpline
210
0.0
220
0.0
230
1.0
 70
     8
 71
     3
 72
    12
 73
     8
 74
     0
 42
0.0000000001
 43
0.0000000001
 40
0.0
 40
0.0
 40
0.0
 40
0.0
 40
0.03776197
 40
0.1013036701
 40
0.3171058599
 40
0.6320037765
 40
1.0
 40
1.0
 40
1.0
 40
1.0
 10
274.9180491231
 20
183.7499854054
 30
0.0
 10
274.9050392428
 20
183.7494765496
 30
0.0
 10
274.8749271575
 20
183.7236534468999
 30
0.0
 10
274.8313861387
 20
183.6247132672
 30
0.0
 10
274.7904473586
 20
183.4207655182
 30
0.0
 10
274.7634023044
 20
183.1129686559
 30
0.0
 10
274.7594036697
 20
182.8770020224
 30
0.0
 10
274.7614135001
 20
182.7501377102
 30
0.0
  0
SPLINE
  5
42D
330
21A
100
AcDbEntity
  8
RUNDUNGEN
  6
Continuous
 62
     9
100
AcDbSpline
210
0.0
220
0.0
230
1.0
 70
     8
 71
     3
 72
     9
 73
     5
 74
     0
 42
0.0000000001
 43
0.0000000001
 40
0.0
 40
0.0
 40
0.0
 40
0.0
 40
0.5092478647
 40
1.0
 40
1.0
 40
1.0
 40
1.0
 10
334.6172960914
 20
194.4772058824
 30
0.0
 10
334.4615986795
 20
194.77009539
 30
0.0
 10
334.0054618635
 20
195.2819355859999
 30
0.0
 10
333.3421775308
 20
195.4772058824
 30
0.0
 10
333.0225232386
 20
195.4772058824
 30
0.0
  0
SPLINE
  5
42E
330
21A
100
AcDbEntity
  8
RUNDUNGEN
  6
Continuous
 62
     9
100
AcDbSpline
210
0.0
220
0.0
230
1.0
 70
     8
 71
     3
 72
    10
 73
     6
 74
     0
 42
0.0000000001
 43
0.0000000001
 40
0.0
 40
0.0
 40
0.0
 40
0.0
 40
0.2742523476
 40
0.5451745718
 40
1.0
 40
1.0
 40
1.0
 40
1.0
 10
332.1564978348
 20
194.4772058824
 30
0.0
 10
332.3660602703
 20
194.5790815685
 30
0.0
 10
332.8093600353
 20
194.7331773093
 30
0.0
 10
333.6486747207
 20
194.8401023328
 30
0.0
 10
334.3085716466
 20
194.7096277796
 30
0.0
 10
334.6172960914
 20
194.4772058824
 30
0.0
  0
SPLINE
  5
42F
330
21A
100
AcDbEntity
  8
RUNDUNGEN
  6
Continuous
 62
     9
100
AcDbSpline
210
0.0
220
0.0
230
1.0
 70
     8
 71
     3
 72
    13
 73
     9
 74
     0
 42
0.0000000001
 43
0.0000000001
 40
0.0
 40
0.0
 40
0.0
 40
0.0
 40
0.3397570902
 40
0.6527806480000001
 40
0.7766336358000001
 40
0.8662261975999999
 40
0.9323731075999999
 40
1.0
 40
1.0
 40
1.0
 40
1.0
 10
274.761413516
 20
181.1117244443
 30
0.0
 10
274.7196412366
 20
180.9872500565
 30
0.0
 10
274.6501717771
 20
180.7449847774
 30
0.0
 10
274.6024831484
 20
180.4450614687
 30
0.0
 10
274.618833254
 20
180.2420664185
 30
0.0
 10
274.6575894904
 20
180.13658391
 30
0.0
 10
274.7359201314
 20
180.085659449
 30
0.0
 10
274.7904999844
 20
180.0942848215
 30
0.0
 10
274.8153923959
 20
180.102244033
 30
0.0
  0
SPLINE
  5
430
330
21A
100
AcDbEntity
  8
RUNDUNGEN
  6
Continuous
 62
     9
100
AcDbSpline
210
0.0
220
0.0
230
1.0
 70
     8
 71
     3
 72
     9
 73
     5
 74
     0
 42
0.0000000001
 43
0.0000000001
 40
0.0
 40
0.0
 40
0.0
 40
0.0
 40
0.2094827434
 40
1.0
 40
1.0
 40
1.0
 40
1.0
 10
280.9787541146
 20
183.5663452932
 30
0.0
 10
280.9533580189
 20
183.5568009465
 30
0.0
 10
280.8236076942
 20
183.5328930557
 30
0.0
 10
280.6933751692
 20
183.587328528
 30
0.0
 10
280.6048936849
 20
183.6388344407
 30
0.0
  0
SPLINE
  5
431
330
21A
100
AcDbEntity
  8
RUNDUNGEN
  6
Continuous
 62
     9
100
AcDbSpline
210
0.0
220
0.0
230
1.0
 70
     8
 71
     3
 72
     9
 73
     5
 74
     0
 42
0.0000000001
 43
0.0000000001
 40
0.0
 40
0.0
 40
0.0
 40
0.0
 40
0.5299126049
 40
1.0
 40
1.0
 40
1.0
 40
1.0
 10
280.6048936849
 20
183.6388344407
 30
0.0
 10
280.8173325783
 20
183.686468255
 30
0.0
 10
281.2134826608
 20
183.851812356
 30
0.0
 10
281.4498101429
 20
184.2404010995
 30
0.0
 10
281.4709917187
 20
184.4323706972
 30
0.0
  0
SPLINE
  5
432
330
21A
100
AcDbEntity
  8
RUNDUNGEN
  6
Continuous
 62
     9
100
AcDbSpline
210
0.0
220
0.0
230
1.0
 70
     8
 71
     3
 72
    12
 73
     8
 74
     0
 42
0.0000000001
 43
0.0000000001
 40
0.0
 40
0.0
 40
0.0
 40
0.0
 40
0.2822571794
 40
0.602850722
 40
0.7447177569
 40
0.8544199228
 40
1.0
 40
1.0
 40
1.0
 40
1.0
 10
90.71459059709999
 20
193.4772058824
 30
0.0
 10
90.4886945085
 20
193.3908661686
 30
0.0
 10
89.99373631190001
 20
193.2385402200999
 30
0.0
 10
89.3564148003
 20
193.1485728557
 30
0.0
 10
88.86444186510001
 20
193.181297319
 30
0.0
 10
88.5339358491
 20
193.2611945274
 30
0.0
 10
88.33508379889998
 20
193.3798262097
 30
0.0
 10
88.2571415656
 20
193.4772058716
 30
0.0
  0
SPLINE
  5
433
330
21A
100
AcDbEntity
  8
RUNDUNGEN
  6
Continuous
 62
     9
100
AcDbSpline
210
0.0
220
0.0
230
1.0
 70
     8
 71
     3
 72
     9
 73
     5
 74
     0
 42
0.0000000001
 43
0.0000000001
 40
0.0
 40
0.0
 40
0.0
 40
0.0
 40
0.4983173697
 40
1.0
 40
1.0
 40
1.0
 40
1.0
 10
280.9787541146
 20
183.5663452932
 30
0.0
 10
281.1264445633
 20
183.6529590745
 30
0.0
 10
281.3806920674
 20
183.9102715695999
 30
0.0
 10
281.4709917187
 20
184.2599999117
 30
0.0
 10
281.4709917187
 20
184.4323706972
 30
0.0
  0
SPLINE
  5
434
330
21A
100
AcDbEntity
  8
RUNDUNGEN
  6
Continuous
 62
     9
100
AcDbSpline
210
0.0
220
0.0
230
1.0
 70
     8
 71
     3
 72
    12
 73
     8
 74
     0
 42
0.0000000001
 43
0.0000000001
 40
0.0
 40
0.0
 40
0.0
 40
0.0
 40
0.3597639343
 40
0.6675253981
 40
0.8868452203
 40
0.9566775523
 40
1.0
 40
1.0
 40
1.0
 40
1.0
 10
277.8422479175
 20
182.8006334946
 30
0.0
 10
277.8949183348
 20
182.7018761002
 30
0.0
 10
277.9882238829
 20
182.5159441557
 30
0.0
 10
278.096333031
 20
182.2627762077
 30
0.0
 10
278.1559463467
 20
182.0847833035
 30
0.0
 10
278.1704205855
 20
181.9833094945
 30
0.0
 10
278.1674119912
 20
181.9462218321
 30
0.0
 10
278.1605727862
 20
181.9346080851
 30
0.0
  0
SPLINE
  5
435
330
21A
100
AcDbEntity
  8
RUNDUNGEN
  6
Continuous
 62
     9
100
AcDbSpline
210
0.0
220
0.0
230
1.0
 70
     8
 71
     3
 72
     9
 73
     5
 74
     0
 42
0.0000000001
 43
0.0000000001
 40
0.0
 40
0.0
 40
0.0
 40
0.0
 40
0.5006279967000001
 40
1.0
 40
1.0
 40
1.0
 40
1.0
 10
280.6048948292
 20
183.6388345138
 30
0.0
 10
280.1496394907
 20
183.4811004343
 30
0.0
 10
279.2288125158
 20
183.1999091377999
 30
0.0
 10
278.3048018302
 20
182.9310865991
 30
0.0
 10
277.8422479175
 20
182.8006334946
 30
0.0
  0
SPLINE
  5
436
330
21A
100
AcDbEntity
  8
RUNDUNGEN
  6
Continuous
 62
     9
100
AcDbSpline
210
0.0
220
0.0
230
1.0
 70
     8
 71
     3
 72
     9
 73
     5
 74
     0
 42
0.0000000001
 43
0.0000000001
 40
0.0
 40
0.0
 40
0.0
 40
0.0
 40
0.4557278841
 40
1.0
 40
1.0
 40
1.0
 40
1.0
 10
280.2661537701
 20
183.8379236613
 30
0.0
 10
280.3277032638
 20
183.8385820082
 30
0.0
 10
280.4649575377
 20
183.7996458753
 30
0.0
 10
280.5624827676
 20
183.698878706
 30
0.0
 10
280.6048940321
 20
183.63883424
 30
0.0
  0
SPLINE
  5
437
330
21A
100
AcDbEntity
  8
RUNDUNGEN
  6
Continuous
 62
     9
100
AcDbSpline
210
0.0
220
0.0
230
1.0
 70
     8
 71
     3
 72
    11
 73
     7
 74
     0
 42
0.0000000001
 43
0.0000000001
 40
0.0
 40
0.0
 40
0.0
 40
0.0
 40
0.2521772133
 40
0.5030956919000001
 40
0.7522074799
 40
1.0
 40
1.0
 40
1.0
 40
1.0
 10
281.230115021
 20
184.837717691
 30
0.0
 10
281.2301150203
 20
184.7091742252
 30
0.0
 10
281.1805214186
 20
184.45005575
 30
0.0
 10
280.96752072
 20
184.1201302763
 30
0.0
 10
280.647557039
 20
183.8958924516999
 30
0.0
 10
280.3924431414
 20
183.8401168737
 30
0.0
 10
280.2661546919
 20
183.8378699958
 30
0.0
  0
SPLINE
  5
438
330
21A
100
AcDbEntity
  8
RUNDUNGEN
  6
Continuous
 62
     9
100
AcDbSpline
210
0.0
220
0.0
230
1.0
 70
     8
 71
     3
 72
    12
 73
     8
 74
     0
 42
0.0000000001
 43
0.0000000001
 40
0.0
 40
0.0
 40
0.0
 40
0.0
 40
0.1125161889
 40
0.1988877582
 40
0.3099307268
 40
0.6081489375000001
 40
1.0
 40
1.0
 40
1.0
 40
1.0
 10
141.9163888715
 20
193.8723231647
 30
0.0
 10
141.8760078172
 20
193.8723207786999
 30
0.0
 10
141.8121735543
 20
193.926834975
 30
0.0
 10
141.759492585
 20
194.02200364
 30
0.0
 10
141.6930785378
 20
194.188754492
 30
0.0
 10
141.6293485596
 20
194.4694935931
 30
0.0
 10
141.5954949348
 20
194.7151546671
 30
0.0
 10
141.5808360011
 20
194.8550204279
 30
0.0
  0
SPLINE
  5
439
330
21A
100
AcDbEntity
  8
RUNDUNGEN
  6
Continuous
 62
     9
100
AcDbSpline
210
0.0
220
0.0
230
1.0
 70
     8
 71
     3
 72
     9
 73
     5
 74
     0
 42
0.0000000001
 43
0.0000000001
 40
0.0
 40
0.0
 40
0.0
 40
0.0
 40
0.2325834136
 40
1.0
 40
1.0
 40
1.0
 40
1.0
 10
141.5808360011
 20
194.8550204279
 30
0.0
 10
141.5726944413
 20
194.932664002
 30
0.0
 10
141.5431651806
 20
195.2670593607
 30
0.0
 10
141.5322381725
 20
195.6029846446
 30
0.0
 10
141.5322839627
 20
195.8605767246
 30
0.0
  0
SPLINE
  5
43A
330
21A
100
AcDbEntity
  8
RUNDUNGEN
  6
Continuous
 62
     9
100
AcDbSpline
210
0.0
220
0.0
230
1.0
 70
     8
 71
     3
 72
    10
 73
     6
 74
     0
 42
0.0000000001
 43
0.0000000001
 40
0.0
 40
0.0
 40
0.0
 40
0.0
 40
0.3759626922999999
 40
0.6634900325000001
 40
1.0
 40
1.0
 40
1.0
 40
1.0
 10
281.4705815275
 20
184.432370697
 30
0.0
 10
281.4557942134
 20
184.491767423
 30
0.0
 10
281.4243722881
 20
184.5973098901
 30
0.0
 10
281.3655241616999
 20
184.7416156563
 30
0.0
 10
281.2849015584
 20
184.8377296964
 30
0.0
 10
281.2301150144
 20
184.837717691
 30
0.0
  0
SPLINE
  5
43B
330
21A
100
AcDbEntity
  8
RUNDUNGEN
  6
Continuous
 62
     9
100
AcDbSpline
210
0.0
220
0.0
230
1.0
 70
     8
 71
     3
 72
    10
 73
     6
 74
     0
 42
0.0000000001
 43
0.0000000001
 40
0.0
 40
0.0
 40
0.0
 40
0.0
 40
0.3758939665
 40
0.6631159196000001
 40
1.0
 40
1.0
 40
1.0
 40
1.0
 10
141.6756120691
 20
184.432370697
 30
0.0
 10
141.6904059802
 20
184.4917694500999
 30
0.0
 10
141.7218382237
 20
184.5972826165
 30
0.0
 10
141.7809650337
 20
184.7415048211
 30
0.0
 10
141.8615282005
 20
184.8377043231
 30
0.0
 10
141.9163888722
 20
184.837717691
 30
0.0
  0
SPLINE
  5
43C
330
21A
100
AcDbEntity
  8
RUNDUNGEN
  6
Continuous
 62
     9
100
AcDbSpline
210
0.0
220
0.0
230
1.0
 70
     8
 71
     3
 72
    11
 73
     7
 74
     0
 42
0.0000000001
 43
0.0000000001
 40
0.0
 40
0.0
 40
0.0
 40
0.0
 40
0.3158430778
 40
0.586292071
 40
0.8094240509
 40
1.0
 40
1.0
 40
1.0
 40
1.0
 10
332.4319132866
 20
193.4772058824
 30
0.0
 10
332.3909248816
 20
193.3352112761
 30
0.0
 10
332.2949497514
 20
193.0764514431
 30
0.0
 10
332.0935581338
 20
192.7518245174
 30
0.0
 10
331.8500415808
 20
192.5339969319
 30
0.0
 10
331.6550638238
 20
192.4772058834
 30
0.0
 10
331.565887806
 20
192.4772058824
 30
0.0
  0
SPLINE
  5
43D
330
21A
100
AcDbEntity
  8
RUNDUNGEN
  6
Continuous
 62
     9
100
AcDbSpline
210
0.0
220
0.0
230
1.0
 70
     8
 71
     3
 72
     9
 73
     5
 74
     0
 42
0.0000000001
 43
0.0000000001
 40
0.0
 40
0.0
 40
0.0
 40
0.0
 40
0.5094973299000002
 40
1.0
 40
1.0
 40
1.0
 40
1.0
 10
334.889362315
 20
193.4772058779
 30
0.0
 10
335.044656819
 20
193.1844594957
 30
0.0
 10
335.4994323063
 20
192.6727413364
 30
0.0
 10
336.1617541858
 20
192.4772058824
 30
0.0
 10
336.4807859383
 20
192.4772058824
 30
0.0
  0
SPLINE
  5
43E
330
21A
100
AcDbEntity
  8
RUNDUNGEN
  6
Continuous
 62
     9
100
AcDbSpline
210
0.0
220
0.0
230
1.0
 70
     8
 71
     3
 72
     8
 73
     4
 74
     0
 42
0.0000000001
 43
0.0000000001
 40
0.0
 40
0.0
 40
0.0
 40
0.0
 40
1.0
 40
1.0
 40
1.0
 40
1.0
 10
148.3850903844
 20
195.9599025316
 30
0.0
 10
146.3717658544
 20
195.9270279259
 30
0.0
 10
144.3584454305
 20
195.8939012704
 30
0.0
 10
142.3451282918
 20
195.8605770726
 30
0.0
  0
LINE
  5
43F
330
21A
100
AcDbEntity
  8
RUNDUNGEN
  6
Continuous
 62
     9
100
AcDbLine
 10
145.3042559676
 20
182.8006334936
 30
0.0
 11
148.3850903844
 21
182.7501378886
 31
0.0
  0
SPLINE
  5
440
330
21A
100
AcDbEntity
  8
RUNDUNGEN
  6
Continuous
 62
     9
100
AcDbSpline
210
0.0
220
0.0
230
1.0
 70
     8
 71
     3
 72
     9
 73
     5
 74
     0
 42
0.0000000001
 43
0.0000000001
 40
0.0
 40
0.0
 40
0.0
 40
0.0
 40
0.4905026798
 40
1.0
 40
1.0
 40
1.0
 40
1.0
 10
86.66571794620001
 20
192.4772058824
 30
0.0
 10
86.98474970479999
 20
192.4772058824
 30
0.0
 10
87.64707158440002
 20
192.6727413403
 30
0.0
 10
88.10184706780001
 20
193.1844594999
 30
0.0
 10
88.25714156910001
 20
193.4772058759999
 30
0.0
  0
LINE
  5
441
330
21A
100
AcDbEntity
  8
RUNDUNGEN
  6
Continuous
 62
     9
100
AcDbLine
 10
90.98997337290001
 20
194.4772058824
 30
0.0
 11
90.9224378378
 21
194.2328847057
 31
0.0
  0
SPLINE
  5
442
330
21A
100
AcDbEntity
  8
RUNDUNGEN
  6
Continuous
 62
     9
100
AcDbSpline
210
0.0
220
0.0
230
1.0
 70
     8
 71
     3
 72
     8
 73
     4
 74
     0
 42
0.0000000001
 43
0.0000000001
 40
0.0
 40
0.0
 40
0.0
 40
0.0
 40
1.0
 40
1.0
 40
1.0
 40
1.0
 10
90.9224378378
 20
194.2328847057
 30
0.0
 10
90.85292201280001
 20
193.9810560769
 30
0.0
 10
90.7836321515
 20
193.729164941
 30
0.0
 10
90.7145905632
 20
193.4772058824
 30
0.0
  0
SPLINE
  5
443
330
21A
100
AcDbEntity
  8
RUNDUNGEN
  6
Continuous
 62
     9
100
AcDbSpline
210
0.0
220
0.0
230
1.0
 70
     8
 71
     3
 72
    11
 73
     7
 74
     0
 42
0.0000000001
 43
0.0000000001
 40
0.0
 40
0.0
 40
0.0
 40
0.0
 40
0.1905713972
 40
0.4137028083
 40
0.6841537875000001
 40
1.0
 40
1.0
 40
1.0
 40
1.0
 10
91.58061600080001
 20
192.4772058824
 30
0.0
 10
91.49144244969999
 20
192.4772058824
 30
0.0
 10
91.2964683452
 20
192.5339986992
 30
0.0
 10
91.05295587639998
 20
192.7518259229
 30
0.0
 10
90.8515620194
 20
193.0764518839
 30
0.0
 10
90.7555822121
 20
193.3352112577999
 30
0.0
 10
90.71459059250001
 20
193.4772058821
 30
0.0
  0
SPLINE
  5
444
330
21A
100
AcDbEntity
  8
RUNDUNGEN
  6
Continuous
 62
     9
100
AcDbSpline
210
0.0
220
0.0
230
1.0
 70
     8
 71
     3
 72
     8
 73
     4
 74
     0
 42
0.0000000001
 43
0.0000000001
 40
0.0
 40
0.0
 40
0.0
 40
0.0
 40
1.0
 40
1.0
 40
1.0
 40
1.0
 10
280.1096243808
 20
195.8720189912
 30
0.0
 10
280.3437716267
 20
195.8681318237
 30
0.0
 10
280.5802589898
 20
195.8264986553
 30
0.0
 10
280.8013755928
 20
195.7493786791
 30
0.0
  0
SPLINE
  5
445
330
21A
100
AcDbEntity
  8
RUNDUNGEN
  6
Continuous
 62
     9
100
AcDbSpline
210
0.0
220
0.0
230
1.0
 70
     8
 71
     3
 72
     8
 73
     4
 74
     0
 42
0.0000000001
 43
0.0000000001
 40
0.0
 40
0.0
 40
0.0
 40
0.0
 40
1.0
 40
1.0
 40
1.0
 40
1.0
 10
280.1096243808
 20
195.8720189912
 30
0.0
 10
278.3268902608
 20
195.9014858429
 30
0.0
 10
276.5441534914
 20
195.9307930661999
 30
0.0
 10
274.7614135001
 20
195.9599025469
 30
0.0
  0
LINE
  5
446
330
21A
100
AcDbEntity
  8
RUNDUNGEN
  6
Continuous
 62
     9
100
AcDbLine
 10
274.7614135001
 20
182.7501379417
 30
0.0
 11
277.8422478759
 21
182.800633471
 31
0.0
  0
SPLINE
  5
447
330
21A
100
AcDbEntity
  8
RUNDUNGEN
  6
Continuous
 62
     9
100
AcDbSpline
210
0.0
220
0.0
230
1.0
 70
     8
 71
     3
 72
     8
 73
     4
 74
     0
 42
0.0000000001
 43
0.0000000001
 40
0.0
 40
0.0
 40
0.0
 40
0.0
 40
1.0
 40
1.0
 40
1.0
 40
1.0
 10
280.6361128102
 20
194.8108509219
 30
0.0
 10
280.517282783
 20
194.8496437677
 30
0.0
 10
280.3911415652
 20
194.8702363417
 30
0.0
 10
280.2661546944
 20
194.8721708599
 30
0.0
  0
SPLINE
  5
448
330
21A
100
AcDbEntity
  8
RUNDUNGEN
  6
Continuous
 62
     9
100
AcDbSpline
210
0.0
220
0.0
230
1.0
 70
     8
 71
     3
 72
    12
 73
     8
 74
     0
 42
0.0000000001
 43
0.0000000001
 40
0.0
 40
0.0
 40
0.0
 40
0.0
 40
0.0377378306
 40
0.1011919956
 40
0.3171422108
 40
0.6314860332
 40
1.0
 40
1.0
 40
1.0
 40
1.0
 10
280.2661546936
 20
194.8721708173
 30
0.0
 10
280.2531495246
 20
194.872642909
 30
0.0
 10
280.2228335981
 20
194.8981220441
 30
0.0
 10
280.1794397951
 20
194.9973694706
 30
0.0
 10
280.1386835026
 20
195.2010138029
 30
0.0
 10
280.1114037066
 20
195.5089766037
 30
0.0
 10
280.1075918646
 20
195.744954364
 30
0.0
 10
280.1096287841
 20
195.8720185550999
 30
0.0
  0
SPLINE
  5
449
330
21A
100
AcDbEntity
  8
RUNDUNGEN
  6
Continuous
 62
     9
100
AcDbSpline
210
0.0
220
0.0
230
1.0
 70
     8
 71
     3
 72
    12
 73
     8
 74
     0
 42
0.0000000001
 43
0.0000000001
 40
0.0
 40
0.0
 40
0.0
 40
0.0
 40
0.3614637713
 40
0.6709864222000001
 40
0.8895550886
 40
0.9579413943
 40
1.0
 40
1.0
 40
1.0
 40
1.0
 10
280.8013756132
 20
195.7493786791
 30
0.0
 10
280.7640433588
 20
195.6390145678
 30
0.0
 10
280.7003506216
 20
195.4318646459999
 30
0.0
 10
280.6347127984
 20
195.1535519102
 30
0.0
 10
280.6073018473
 20
194.9607138655
 30
0.0
 10
280.6133980326
 20
194.8559951961
 30
0.0
 10
280.6259312449
 20
194.819800592
 30
0.0
 10
280.6361123336
 20
194.810849602
 30
0.0
  0
SPLINE
  5
44A
330
21A
100
AcDbEntity
  8
RUNDUNGEN
  6
Continuous
 62
     9
100
AcDbSpline
210
0.0
220
0.0
230
1.0
 70
     8
 71
     3
 72
     9
 73
     5
 74
     0
 42
0.0000000001
 43
0.0000000001
 40
0.0
 40
0.0
 40
0.0
 40
0.0
 40
0.5077332385
 40
1.0
 40
1.0
 40
1.0
 40
1.0
 10
280.8013755928
 20
195.7493786791
 30
0.0
 10
280.9524376111
 20
195.6440119375999
 30
0.0
 10
281.1879756739
 20
195.3522133215
 30
0.0
 10
281.340412781
 20
195.0226160306
 30
0.0
 10
281.4020441852
 20
194.8550204279
 30
0.0
  0
SPLINE
  5
44B
330
21A
100
AcDbEntity
  8
RUNDUNGEN
  6
Continuous
 62
     9
100
AcDbSpline
210
0.0
220
0.0
230
1.0
 70
     8
 71
     3
 72
     9
 73
     5
 74
     0
 42
0.0000000001
 43
0.0000000001
 40
0.0
 40
0.0
 40
0.0
 40
0.0
 40
0.2140879705
 40
1.0
 40
1.0
 40
1.0
 40
1.0
 10
281.3192234616
 20
194.3636717963
 30
0.0
 10
281.2797637493
 20
194.4069621899
 30
0.0
 10
281.084710442
 20
194.5987439502
 30
0.0
 10
280.8405276878
 20
194.7441225512
 30
0.0
 10
280.6361128102
 20
194.8108509219
 30
0.0
  0
SPLINE
  5
44C
330
21A
100
AcDbEntity
  8
RUNDUNGEN
  6
Continuous
 62
     9
100
AcDbSpline
210
0.0
220
0.0
230
1.0
 70
     8
 71
     3
 72
     9
 73
     5
 74
     0
 42
0.0000000001
 43
0.0000000001
 40
0.0
 40
0.0
 40
0.0
 40
0.0
 40
0.2530314877
 40
1.0
 40
1.0
 40
1.0
 40
1.0
 10
281.4020441852
 20
194.8550204279
 30
0.0
 10
281.4313656865
 20
194.7754495771
 30
0.0
 10
281.5344433779
 20
194.4563508643
 30
0.0
 10
281.5935147483001
 20
194.1234971762
 30
0.0
 10
281.6141006204
 20
193.874004845
 30
0.0
  0
SPLINE
  5
44D
330
21A
100
AcDbEntity
  8
RUNDUNGEN
  6
Continuous
 62
     9
100
AcDbSpline
210
0.0
220
0.0
230
1.0
 70
     8
 71
     3
 72
     9
 73
     5
 74
     0
 42
0.0000000001
 43
0.0000000001
 40
0.0
 40
0.0
 40
0.0
 40
0.0
 40
0.2317099277
 40
1.0
 40
1.0
 40
1.0
 40
1.0
 10
281.6139334682
 20
193.8730754450999
 30
0.0
 10
281.6002316626
 20
193.9152987737
 30
0.0
 10
281.5297597350999
 20
194.0937904004
 30
0.0
 10
281.4183299748
 20
194.2548490738
 30
0.0
 10
281.3192234616
 20
194.3636717963
 30
0.0
  0
SPLINE
  5
44E
330
21A
100
AcDbEntity
  8
RUNDUNGEN
  6
Continuous
 62
     9
100
AcDbSpline
210
0.0
220
0.0
230
1.0
 70
     8
 71
     3
 72
    13
 73
     9
 74
     0
 42
0.0000000001
 43
0.0000000001
 40
0.0
 40
0.0
 40
0.0
 40
0.0
 40
0.3684547526
 40
0.6839584941
 40
0.806540867
 40
0.9012085984
 40
0.9660976263
 40
1.0
 40
1.0
 40
1.0
 40
1.0
 10
274.7614135001
 20
195.9599031455
 30
0.0
 10
274.7546808667
 20
195.8332269938
 30
0.0
 10
274.7626032164
 20
195.5974112944
 30
0.0
 10
274.7880184998
 20
195.3202543138
 30
0.0
 10
274.8192818899
 20
195.1400746079
 30
0.0
 10
274.8494313598
 20
195.045634833
 30
0.0
 10
274.8802041117
 20
194.9897334498
 30
0.0
 10
274.906391453
 20
194.9606379972
 30
0.0
 10
274.9180491231
 20
194.9600554503
 30
0.0
  0
SPLINE
  5
44F
330
21A
100
AcDbEntity
  8
RUNDUNGEN
  6
Continuous
 62
     9
100
AcDbSpline
210
0.0
220
0.0
230
1.0
 70
     8
 71
     3
 72
    11
 73
     7
 74
     0
 42
0.0000000001
 43
0.0000000001
 40
0.0
 40
0.0
 40
0.0
 40
0.0
 40
0.2470559946
 40
0.495912149
 40
0.7471253214
 40
1.0
 40
1.0
 40
1.0
 40
1.0
 10
274.9180491231
 20
194.9600554503
 30
0.0
 10
274.7925288418
 20
194.9623030613
 30
0.0
 10
274.5387103112
 20
195.0182144257
 30
0.0
 10
274.220802344
 20
195.2427091985
 30
0.0
 10
274.009421583
 20
195.5726102106
 30
0.0
 10
273.9602646049
 20
195.8314060041999
 30
0.0
 10
273.9602646049
 20
195.9599031455
 30
0.0
  0
SPLINE
  5
450
330
21A
100
AcDbEntity
  8
RUNDUNGEN
  6
Continuous
 62
     9
100
AcDbSpline
210
0.0
220
0.0
230
1.0
 70
     8
 71
     3
 72
    11
 73
     7
 74
     0
 42
0.0000000001
 43
0.0000000001
 40
0.0
 40
0.0
 40
0.0
 40
0.0
 40
0.2529156503
 40
0.5041695788000001
 40
0.752981954
 40
1.0
 40
1.0
 40
1.0
 40
1.0
 10
149.1862392796
 20
195.9599031455
 30
0.0
 10
149.1862392796
 20
195.8313851709
 30
0.0
 10
149.1370615246
 20
195.5725476214
 30
0.0
 10
148.9256412862
 20
195.2426453903
 30
0.0
 10
148.6077327857
 20
195.0181925858
 30
0.0
 10
148.3539557758
 20
194.9623027163
 30
0.0
 10
148.2284547615
 20
194.9600554503
 30
0.0
  0
SPLINE
  5
451
330
21A
100
AcDbEntity
  8
RUNDUNGEN
  6
Continuous
 62
     9
100
AcDbSpline
210
0.0
220
0.0
230
1.0
 70
     8
 71
     3
 72
    12
 73
     8
 74
     0
 42
0.0000000001
 43
0.0000000001
 40
0.0
 40
0.0
 40
0.0
 40
0.0
 40
0.0377619856
 40
0.1013036928
 40
0.317105881
 40
0.6320037875
 40
1.0
 40
1.0
 40
1.0
 40
1.0
 10
148.2284547615
 20
194.9600554503
 30
0.0
 10
148.2414646475
 20
194.9605643062
 30
0.0
 10
148.2715767479
 20
194.9863874015
 30
0.0
 10
148.3151177979
 20
195.0853275847
 30
0.0
 10
148.3560565844
 20
195.2892753354
 30
0.0
 10
148.3831016202
 20
195.5970722013
 30
0.0
 10
148.3871002276
 20
195.833038834
 30
0.0
 10
148.3850903844
 20
195.9599031455
 30
0.0
  0
SPLINE
  5
452
330
21A
100
AcDbEntity
  8
RUNDUNGEN
  6
Continuous
 62
     9
100
AcDbSpline
210
0.0
220
0.0
230
1.0
 70
     8
 71
     3
 72
     8
 73
     4
 74
     0
 42
0.0000000001
 43
0.0000000001
 40
0.0
 40
0.0
 40
0.0
 40
0.0
 40
1.0
 40
1.0
 40
1.0
 40
1.0
 10
280.2661781825
 20
194.8721708599
 30
0.0
 10
278.4834618407
 20
194.9016379557
 30
0.0
 10
276.700742852
 20
194.9309455801
 30
0.0
 10
274.9180206412
 20
194.9600554503
 30
0.0
  0
SPLINE
  5
453
330
21A
100
AcDbEntity
  8
RUNDUNGEN
  6
Continuous
 62
     9
100
AcDbSpline
210
0.0
220
0.0
230
1.0
 70
     8
 71
     3
 72
     8
 73
     4
 74
     0
 42
0.0000000001
 43
0.0000000001
 40
0.0
 40
0.0
 40
0.0
 40
0.0
 40
1.0
 40
1.0
 40
1.0
 40
1.0
 10
148.228483166
 20
194.9600554503
 30
0.0
 10
146.4457616313
 20
194.9309455805
 30
0.0
 10
144.663043319
 20
194.9016379389
 30
0.0
 10
142.8803276529
 20
194.8721708599
 30
0.0
  0
SPLINE
  5
454
330
21A
100
AcDbEntity
  8
RUNDUNGEN
  6
Continuous
 62
     9
100
AcDbSpline
210
0.0
220
0.0
230
1.0
 70
     8
 71
     3
 72
     8
 73
     4
 74
     0
 42
0.0000000001
 43
0.0000000001
 40
0.0
 40
0.0
 40
0.0
 40
0.0
 40
1.0
 40
1.0
 40
1.0
 40
1.0
 10
142.8803276096
 20
183.8378699958
 30
0.0
 10
144.6630432802
 20
183.8084029279
 30
0.0
 10
146.4457615966
 20
183.7790952753
 30
0.0
 10
148.2284831357
 20
183.7499854054
 30
0.0
  0
SPLINE
  5
455
330
21A
100
AcDbEntity
  8
RUNDUNGEN
  6
Continuous
 62
     9
100
AcDbSpline
210
0.0
220
0.0
230
1.0
 70
     8
 71
     3
 72
     8
 73
     4
 74
     0
 42
0.0000000001
 43
0.0000000001
 40
0.0
 40
0.0
 40
0.0
 40
0.0
 40
1.0
 40
1.0
 40
1.0
 40
1.0
 10
274.9180206711
 20
183.7499854054
 30
0.0
 10
276.7007422871
 20
183.7790952659999
 30
0.0
 10
278.4834606806
 20
183.8084029069
 30
0.0
 10
280.2661764276
 20
183.8378699958
 30
0.0
  0
SPLINE
  5
456
330
21A
100
AcDbEntity
  8
RUNDUNGEN
  6
Continuous
 62
     9
100
AcDbSpline
210
0.0
220
0.0
230
1.0
 70
     8
 71
     3
 72
    13
 73
     9
 74
     0
 42
0.0000000001
 43
0.0000000001
 40
0.0
 40
0.0
 40
0.0
 40
0.0
 40
0.358191447
 40
0.6743057096
 40
0.7996788592000001
 40
0.8953603895
 40
0.9598803665
 40
1.0
 40
1.0
 40
1.0
 40
1.0
 10
273.9602646049
 20
181.1117244443
 30
0.0
 10
273.9602612186
 20
180.8771957583
 30
0.0
 10
273.9743816745
 20
180.4356107806
 30
0.0
 10
274.0331145546
 20
179.9141359632
 30
0.0
 10
274.1096827498
 20
179.5703747984
 30
0.0
 10
274.1724891141
 20
179.3935196486
 30
0.0
 10
274.2346638324
 20
179.2775534225
 30
0.0
 10
274.298874022
 20
179.2362154288
 30
0.0
 10
274.3251426696
 20
179.2362182743
 30
0.0
  0
SPLINE
  5
457
330
21A
100
AcDbEntity
  8
RUNDUNGEN
  6
Continuous
 62
     9
100
AcDbSpline
210
0.0
220
0.0
230
1.0
 70
     8
 71
     3
 72
    13
 73
     9
 74
     0
 42
0.0000000001
 43
0.0000000001
 40
0.0
 40
0.0
 40
0.0
 40
0.0
 40
0.0401067634
 40
0.1045893439
 40
0.2002199548
 40
0.325559182
 40
0.6417229767000001
 40
1.0
 40
1.0
 40
1.0
 40
1.0
 10
148.8213614096
 20
179.2362182743
 30
0.0
 10
148.8476217272
 20
179.2362179001
 30
0.0
 10
148.9118095466
 20
179.2775109379
 30
0.0
 10
148.9739799612
 20
179.3934130199
 30
0.0
 10
149.0367711586
 20
179.5701865659
 30
0.0
 10
149.1133578149
 20
179.9139225519
 30
0.0
 10
149.1721156134
 20
180.4354635882
 30
0.0
 10
149.1862414389
 20
180.8771388618
 30
0.0
 10
149.1862392796
 20
181.1117244432
 30
0.0
  0
SPLINE
  5
458
330
21A
100
AcDbEntity
  8
RUNDUNGEN
  6
Continuous
 62
     9
100
AcDbSpline
210
0.0
220
0.0
230
1.0
 70
     8
 71
     3
 72
    11
 73
     7
 74
     0
 42
0.0000000001
 43
0.0000000001
 40
0.0
 40
0.0
 40
0.0
 40
0.0
 40
0.1953195714
 40
0.4124128993000001
 40
0.6757451394000001
 40
1.0
 40
1.0
 40
1.0
 40
1.0
 10
142.8803501678
 20
194.8721140388
 30
0.0
 10
142.8332103784
 20
194.8716098228
 30
0.0
 10
142.732284003
 20
194.8924123358
 30
0.0
 10
142.5967231494
 20
194.9897268965
 30
0.0
 10
142.4829175174
 20
195.1502195706
 30
0.0
 10
142.4305179259
 20
195.283355323
 30
0.0
 10
142.4085288981
 20
195.3584651581
 30
0.0
  0
SPLINE
  5
459
330
21A
100
AcDbEntity
  8
RUNDUNGEN
  6
Continuous
 62
     9
100
AcDbSpline
210
0.0
220
0.0
230
1.0
 70
     8
 71
     3
 72
    11
 73
     7
 74
     0
 42
0.0000000001
 43
0.0000000001
 40
0.0
 40
0.0
 40
0.0
 40
0.0
 40
0.2521771857
 40
0.5030956587
 40
0.7522074662
 40
1.0
 40
1.0
 40
1.0
 40
1.0
 10
141.9163888635
 20
193.8723231647
 30
0.0
 10
141.9163888634
 20
194.0008666166
 30
0.0
 10
141.9659824519
 20
194.2599850755
 30
0.0
 10
142.1789831359
 20
194.5899105506
 30
0.0
 10
142.4989468212
 20
194.8141483955
 30
0.0
 10
142.754060736
 20
194.8699239818999
 30
0.0
 10
142.8803491926
 20
194.8721708599
 30
0.0
  0
LEADER
  5
5C9
330
21A
100
AcDbEntity
  8
ZEICHNUNGSBEMASSUNGEN
  6
Continuous
 62
     7
100
AcDbLeader
  3
DIMSTYLE_2
 74
     0
 76
     3
 10
219.5732509288442
 20
217.677206283143
 30
0.0
 10
235.711837755044
 20
227.3214503668004
 30
0.0
 10
254.7944917833053
 20
227.3232624648693
 30
0.0
213
8.546107528269942
223
6.697880158863256
233
0.0
1001
ACAD
1000
DSTYLE
1002
{
1070
    41
1040
5.0
1070
   147
1040
1.5
1070
   178
1070
   256
1002
}
  0
LINE
  5
5CA
330
21A
100
AcDbEntity
  8
0
100
AcDbLine
 10
255.1622382270275
 20
224.0428530107203
 30
0.0
 11
263.801401501362
 21
224.0428530107203
 31
0.0
  0
LINE
  5
5CB
330
21A
100
AcDbEntity
  8
0
100
AcDbLine
 10
256.6574586016068
 20
222.8972261052105
 30
0.0
 11
262.2900923987903
 21
222.8972261052105
 31
0.0
  0
LINE
  5
5CC
330
21A
100
AcDbEntity
  8
0
100
AcDbLine
 10
258.0682700551209
 20
221.9647786764585
 30
0.0
 11
261.072338568574
 21
221.9647786764585
 31
0.0
  0
LINE
  5
5CD
330
21A
100
AcDbEntity
  8
0
100
AcDbLine
 10
259.4344712071459
 20
225.6376587110477
 30
0.0
 11
259.4344712071459
 21
231.0787643109737
 31
0.0
  0
ENDSEC
  0
SECTION
  2
OBJECTS
  0
DICTIONARY
  5
C
330
0
100
AcDbDictionary
281
     1
  3
ACAD_COLOR
350
48B
  3
ACAD_GROUP
350
D
  3
ACAD_LAYOUT
350
1A
  3
ACAD_MATERIAL
350
45E
  3
ACAD_MLEADERSTYLE
350
4A0
  3
ACAD_MLINESTYLE
350
17
  3
ACAD_PLOTSETTINGS
350
19
  3
ACAD_PLOTSTYLENAME
350
E
  3
ACAD_SCALELIST
350
48E
  3
ACAD_TABLESTYLE
350
48C
  3
ACAD_VISUALSTYLE
350
477
  3
ACDB_RECOMPOSE_DATA
350
5DD
  3
AcDbVariableDictionary
350
5CE
  3
AcmDictionary
350
4FB
  3
AMG
350
4A5
  3
AMGSNAPSETTINGS
350
540
  3
DWGPROPS
350
5DE
  0
DICTIONARY
  5
48B
102
{ACAD_REACTORS
330
C
102
}
330
C
100
AcDbDictionary
281
     1
  0
DICTIONARY
  5
D
102
{ACAD_REACTORS
330
C
102
}
330
C
100
AcDbDictionary
281
     1
  0
DICTIONARY
  5
1A
102
{ACAD_REACTORS
330
C
102
}
330
C
100
AcDbDictionary
281
     1
  3
Layout1
350
45B
  3
Model
350
45A
  0
DICTIONARY
  5
45E
102
{ACAD_REACTORS
330
C
102
}
330
C
100
AcDbDictionary
281
     1
  3
ByBlock
350
467
  3
ByLayer
350
45F
  3
Global
350
46F
  0
DICTIONARY
  5
4A0
102
{ACAD_REACTORS
330
C
102
}
330
C
100
AcDbDictionary
281
     1
  3
Standard
350
4A1
  0
DICTIONARY
  5
17
102
{ACAD_REACTORS
330
C
102
}
330
C
100
AcDbDictionary
281
     1
  3
Standard
350
18
  0
DICTIONARY
  5
19
102
{ACAD_REACTORS
330
C
102
}
330
C
100
AcDbDictionary
281
     1
  0
ACDBDICTIONARYWDFLT
  5
E
102
{ACAD_REACTORS
330
C
102
}
330
C
100
AcDbDictionary
281
     1
  3
Normal
350
F
100
AcDbDictionaryWithDefault
340
F
  0
DICTIONARY
  5
48E
102
{ACAD_REACTORS
330
C
102
}
330
C
100
AcDbDictionary
281
     1
  3
A0
350
48F
  3
A1
350
490
  3
A2
350
491
  3
A3
350
492
  3
A4
350
493
  3
A5
350
494
  3
A6
350
495
  3
A7
350
496
  3
A8
350
497
  3
A9
350
498
  3
B0
350
499
  3
B1
350
49A
  3
B2
350
49B
  3
B3
350
49C
  3
B4
350
49D
  3
B5
350
49E
  3
B6
350
49F
  0
DICTIONARY
  5
48C
102
{ACAD_REACTORS
330
C
102
}
330
C
100
AcDbDictionary
281
     1
  3
Standard
350
48D
  0
DICTIONARY
  5
477
102
{ACAD_REACTORS
330
C
102
}
330
C
100
AcDbDictionary
281
     1
  3
2dWireframe
350
47D
  3
3D Hidden
350
47F
  3
3dWireframe
350
47E
  3
Basic
350
47C
  3
Brighten
350
483
  3
ColorChange
350
487
  3
Conceptual
350
480
  3
Dim
350
482
  3
EdgeColorOff
350
48A
  3
Facepattern
350
486
  3
Flat
350
478
  3
FlatWithEdges
350
479
  3
Gouraud
350
47A
  3
GouraudWithEdges
350
47B
  3
JitterOff
350
488
  3
Linepattern
350
485
  3
OverhangOff
350
489
  3
Realistic
350
481
  3
Thicken
350
484
  0
XRECORD
  5
5DD
102
{ACAD_REACTORS
330
C
102
}
330
C
100
AcDbXrecord
280
     1
 90
        1
330
48D
  0
DICTIONARY
  5
5CE
102
{ACAD_REACTORS
330
C
102
}
330
C
100
AcDbDictionary
281
     1
  3
CANNOSCALE
350
5D2
  3
CMLEADERSTYLE
350
5D0
  3
CTABLESTYLE
350
5CF
  3
DIMASSOC
350
5D9
  3
HIDETEXT
350
5D8
  3
INDEXCTL
350
5D7
  3
LAYEREVAL
350
5D4
  3
LAYERNOTIFY
350
5D5
  3
LIGHTINGUNITS
350
5D3
  3
MSLTSCALE
350
5D1
  3
SORTENTS
350
5D6
  3
XCLIPFRAME
350
5DA
  0
DICTIONARY
  5
4FB
102
{ACAD_REACTORS
330
C
102
}
330
C
100
AcDbDictionary
281
     1
  3
AcmStdDictionary
350
505
  0
DICTIONARY
  5
4A5
102
{ACAD_REACTORS
330
C
102
}
330
C
100
AcDbDictionary
281
     1
  0
DICTIONARY
  5
540
102
{ACAD_REACTORS
330
C
102
}
330
C
100
AcDbDictionary
281
     1
  0
XRECORD
  5
5DE
102
{ACAD_REACTORS
330
C
102
}
330
C
100
AcDbXrecord
280
     1
  1
DWGPROPS COOKIE
  2

  3

  4

  6

  7

  8
sheim
  9

300
=
301
=
302
=
303
=
304
=
305
=
306
=
307
=
308
=
309
=
 40
0.0010705787037037
 41
2456324.442847893
 42
2456324.443918114
  1

 90
        0
  0
LAYOUT
  5
45B
102
{ACAD_XDICTIONARY
360
5E1
102
}
102
{ACAD_REACTORS
330
1A
102
}
330
1A
100
AcDbPlotSettings
  1

  2
none_device
  4
ISO_A3_(420.00_x_297.00_MM)
  6

 40
0.0
 41
0.0
 42
0.0
 43
0.0
 44
420.0
 45
297.0
 46
0.0
 47
0.0
 48
0.0
 49
0.0
140
0.0
141
0.0
142
1.0
143
1.0
 70
     0
 72
     1
 73
     0
 74
     0
  7

 75
     0
147
1.0
148
0.0
149
0.0
100
AcDbLayout
  1
Layout1
 70
     1
 71
     1
 10
0.0
 20
0.0
 11
12.0
 21
9.0
 12
0.0
 22
0.0
 32
0.0
 14
1.000000000000000E+20
 24
1.000000000000000E+20
 34
1.000000000000000E+20
 15
-1.000000000000000E+20
 25
-1.000000000000000E+20
 35
-1.000000000000000E+20
146
0.0
 13
0.0
 23
0.0
 33
0.0
 16
1.0
 26
0.0
 36
0.0
 17
0.0
 27
1.0
 37
0.0
 76
     0
330
21B
  0
LAYOUT
  5
45A
102
{ACAD_XDICTIONARY
360
5DF
102
}
102
{ACAD_REACTORS
330
1A
102
}
330
1A
100
AcDbPlotSettings
  1

  2
none_device
  4
ISO_A3_(420.00_x_297.00_MM)
  6

 40
0.0
 41
0.0
 42
0.0
 43
0.0
 44
420.0
 45
297.0
 46
0.0
 47
0.0
 48
0.0
 49
0.0
140
0.0
141
0.0
142
1.0
143
1.0
 70
  1024
 72
     1
 73
     0
 74
     0
  7

 75
     0
147
1.0
148
0.0
149
0.0
100
AcDbLayout
  1
Model
 70
     0
 71
     0
 10
0.0
 20
0.0
 11
420.0
 21
297.0
 12
0.0
 22
0.0
 32
0.0
 14
0.0
 24
0.0
 34
0.0
 15
0.0
 25
0.0
 35
0.0
146
0.0
 13
0.0
 23
0.0
 33
0.0
 16
1.0
 26
0.0
 36
0.0
 17
0.0
 27
1.0
 37
0.0
 76
     0
330
21A
331
1F4
  0
MATERIAL
  5
467
102
{ACAD_XDICTIONARY
360
468
102
}
102
{ACAD_REACTORS
330
45E
102
}
330
45E
100
AcDbMaterial
  1
ByBlock
 72
     0
 43
0.0008202099737533
 43
0.0
 43
0.0
 43
0.0
 43
0.0
 43
0.0008202099737533
 43
0.0
 43
0.0
 43
0.0
 43
0.0
 43
1.0
 43
0.0
 43
0.0
 43
0.0
 43
0.0
 43
1.0
 77
     0
 47
0.0008202099737533
 47
0.0
 47
0.0
 47
0.0
 47
0.0
 47
0.0008202099737533
 47
0.0
 47
0.0
 47
0.0
 47
0.0
 47
1.0
 47
0.0
 47
0.0
 47
0.0
 47
0.0
 47
1.0
171
     0
 49
0.0008202099737533
 49
0.0
 49
0.0
 49
0.0
 49
0.0
 49
0.0008202099737533
 49
0.0
 49
0.0
 49
0.0
 49
0.0
 49
1.0
 49
0.0
 49
0.0
 49
0.0
 49
0.0
 49
1.0
175
     0
142
0.0008202099737533
142
0.0
142
0.0
142
0.0
142
0.0
142
0.0008202099737533
142
0.0
142
0.0
142
0.0
142
0.0
142
1.0
142
0.0
142
0.0
142
0.0
142
0.0
142
1.0
179
     0
144
0.0008202099737533
144
0.0
144
0.0
144
0.0
144
0.0
144
0.0008202099737533
144
0.0
144
0.0
144
0.0
144
0.0
144
1.0
144
0.0
144
0.0
144
0.0
144
0.0
144
1.0
147
0.0008202099737533
147
0.0
147
0.0
147
0.0
147
0.0
147
0.0008202099737533
147
0.0
147
0.0
147
0.0
147
0.0
147
1.0
147
0.0
147
0.0
147
0.0
147
0.0
147
1.0
  0
MATERIAL
  5
45F
102
{ACAD_XDICTIONARY
360
460
102
}
102
{ACAD_REACTORS
330
45E
102
}
330
45E
100
AcDbMaterial
  1
ByLayer
 72
     0
 43
0.0008202099737533
 43
0.0
 43
0.0
 43
0.0
 43
0.0
 43
0.0008202099737533
 43
0.0
 43
0.0
 43
0.0
 43
0.0
 43
1.0
 43
0.0
 43
0.0
 43
0.0
 43
0.0
 43
1.0
 77
     0
 47
0.0008202099737533
 47
0.0
 47
0.0
 47
0.0
 47
0.0
 47
0.0008202099737533
 47
0.0
 47
0.0
 47
0.0
 47
0.0
 47
1.0
 47
0.0
 47
0.0
 47
0.0
 47
0.0
 47
1.0
171
     0
 49
0.0008202099737533
 49
0.0
 49
0.0
 49
0.0
 49
0.0
 49
0.0008202099737533
 49
0.0
 49
0.0
 49
0.0
 49
0.0
 49
1.0
 49
0.0
 49
0.0
 49
0.0
 49
0.0
 49
1.0
175
     0
142
0.0008202099737533
142
0.0
142
0.0
142
0.0
142
0.0
142
0.0008202099737533
142
0.0
142
0.0
142
0.0
142
0.0
142
1.0
142
0.0
142
0.0
142
0.0
142
0.0
142
1.0
179
     0
144
0.0008202099737533
144
0.0
144
0.0
144
0.0
144
0.0
144
0.0008202099737533
144
0.0
144
0.0
144
0.0
144
0.0
144
1.0
144
0.0
144
0.0
144
0.0
144
0.0
144
1.0
147
0.0008202099737533
147
0.0
147
0.0
147
0.0
147
0.0
147
0.0008202099737533
147
0.0
147
0.0
147
0.0
147
0.0
147
1.0
147
0.0
147
0.0
147
0.0
147
0.0
147
1.0
  0
MATERIAL
  5
46F
102
{ACAD_XDICTIONARY
360
470
102
}
102
{ACAD_REACTORS
330
45E
102
}
330
45E
100
AcDbMaterial
  1
Global
 72
     0
 43
0.0008202099737533
 43
0.0
 43
0.0
 43
0.0
 43
0.0
 43
0.0008202099737533
 43
0.0
 43
0.0
 43
0.0
 43
0.0
 43
1.0
 43
0.0
 43
0.0
 43
0.0
 43
0.0
 43
1.0
 77
     0
 47
0.0008202099737533
 47
0.0
 47
0.0
 47
0.0
 47
0.0
 47
0.0008202099737533
 47
0.0
 47
0.0
 47
0.0
 47
0.0
 47
1.0
 47
0.0
 47
0.0
 47
0.0
 47
0.0
 47
1.0
171
     0
 49
0.0008202099737533
 49
0.0
 49
0.0
 49
0.0
 49
0.0
 49
0.0008202099737533
 49
0.0
 49
0.0
 49
0.0
 49
0.0
 49
1.0
 49
0.0
 49
0.0
 49
0.0
 49
0.0
 49
1.0
175
     0
142
0.0008202099737533
142
0.0
142
0.0
142
0.0
142
0.0
142
0.0008202099737533
142
0.0
142
0.0
142
0.0
142
0.0
142
1.0
142
0.0
142
0.0
142
0.0
142
0.0
142
1.0
179
     0
144
0.0008202099737533
144
0.0
144
0.0
144
0.0
144
0.0
144
0.0008202099737533
144
0.0
144
0.0
144
0.0
144
0.0
144
1.0
144
0.0
144
0.0
144
0.0
144
0.0
144
1.0
147
0.0008202099737533
147
0.0
147
0.0
147
0.0
147
0.0
147
0.0008202099737533
147
0.0
147
0.0
147
0.0
147
0.0
147
1.0
147
0.0
147
0.0
147
0.0
147
0.0
147
1.0
  0
MLEADERSTYLE
  5
4A1
102
{ACAD_REACTORS
330
4A0
102
}
330
4A0
100
AcDbMLeaderStyle
170
     2
171
     1
172
     0
 90
        2
 40
0.0
 41
0.0
173
     1
 91
-1056964608
340
14
 92
       -2
290
     1
 42
2.0
291
     1
 43
0.36
  3
Standard
 44
4.0
300

342
11
174
     1
178
     6
175
     1
176
     0
 93
-1056964608
 45
4.0
292
     0
297
     0
 46
4.0
 94
-1056964608
 47
1.0
 49
1.0
140
1.0
293
     1
141
0.0
294
     1
177
     0
142
1.0
295
     0
296
     0
143
0.125
1001
ACAD_MLEADERVER
1070
     2
  0
MLINESTYLE
  5
18
102
{ACAD_REACTORS
330
17
102
}
330
17
100
AcDbMlineStyle
  2
STANDARD
 70
     0
  3

 62
   256
 51
90.0
 52
90.0
 71
     2
 49
0.5
 62
   256
  6
BYLAYER
 49
-0.5
 62
   256
  6
BYLAYER
  0
ACDBPLACEHOLDER
  5
F
102
{ACAD_REACTORS
330
E
102
}
330
E
  0
SCALE
  5
48F
102
{ACAD_REACTORS
330
48E
102
}
330
48E
100
AcDbScale
 70
     0
300
1:1
140
1.0
141
1.0
290
     1
  0
SCALE
  5
490
102
{ACAD_REACTORS
330
48E
102
}
330
48E
100
AcDbScale
 70
     0
300
1:2
140
1.0
141
2.0
290
     0
  0
SCALE
  5
491
102
{ACAD_REACTORS
330
48E
102
}
330
48E
100
AcDbScale
 70
     0
300
1:4
140
1.0
141
4.0
290
     0
  0
SCALE
  5
492
102
{ACAD_REACTORS
330
48E
102
}
330
48E
100
AcDbScale
 70
     0
300
1:5
140
1.0
141
5.0
290
     0
  0
SCALE
  5
493
102
{ACAD_REACTORS
330
48E
102
}
330
48E
100
AcDbScale
 70
     0
300
1:8
140
1.0
141
8.0
290
     0
  0
SCALE
  5
494
102
{ACAD_REACTORS
330
48E
102
}
330
48E
100
AcDbScale
 70
     0
300
1:10
140
1.0
141
10.0
290
     0
  0
SCALE
  5
495
102
{ACAD_REACTORS
330
48E
102
}
330
48E
100
AcDbScale
 70
     0
300
1:16
140
1.0
141
16.0
290
     0
  0
SCALE
  5
496
102
{ACAD_REACTORS
330
48E
102
}
330
48E
100
AcDbScale
 70
     0
300
1:20
140
1.0
141
20.0
290
     0
  0
SCALE
  5
497
102
{ACAD_REACTORS
330
48E
102
}
330
48E
100
AcDbScale
 70
     0
300
1:30
140
1.0
141
30.0
290
     0
  0
SCALE
  5
498
102
{ACAD_REACTORS
330
48E
102
}
330
48E
100
AcDbScale
 70
     0
300
1:40
140
1.0
141
40.0
290
     0
  0
SCALE
  5
499
102
{ACAD_REACTORS
330
48E
102
}
330
48E
100
AcDbScale
 70
     0
300
1:50
140
1.0
141
50.0
290
     0
  0
SCALE
  5
49A
102
{ACAD_REACTORS
330
48E
102
}
330
48E
100
AcDbScale
 70
     0
300
1:100
140
1.0
141
100.0
290
     0
  0
SCALE
  5
49B
102
{ACAD_REACTORS
330
48E
102
}
330
48E
100
AcDbScale
 70
     0
300
2:1
140
2.0
141
1.0
290
     0
  0
SCALE
  5
49C
102
{ACAD_REACTORS
330
48E
102
}
330
48E
100
AcDbScale
 70
     0
300
4:1
140
4.0
141
1.0
290
     0
  0
SCALE
  5
49D
102
{ACAD_REACTORS
330
48E
102
}
330
48E
100
AcDbScale
 70
     0
300
8:1
140
8.0
141
1.0
290
     0
  0
SCALE
  5
49E
102
{ACAD_REACTORS
330
48E
102
}
330
48E
100
AcDbScale
 70
     0
300
10:1
140
10.0
141
1.0
290
     0
  0
SCALE
  5
49F
102
{ACAD_REACTORS
330
48E
102
}
330
48E
100
AcDbScale
 70
     0
300
100:1
140
100.0
141
1.0
290
     0
  0
TABLESTYLE
  5
48D
102
{ACAD_XDICTIONARY
360
5DB
102
}
102
{ACAD_REACTORS
330
48C
102
}
330
48C
100
AcDbTableStyle
  3
Standard
 70
     0
 71
     0
 40
1.5
 41
1.5
280
     0
281
     0
  7
STANDARD
140
4.5
170
     2
 62
     0
 63
     7
283
     0
274
    -2
284
     1
 64
     0
275
    -2
285
     1
 65
     0
276
    -2
286
     1
 66
     0
277
    -2
287
     1
 67
     0
278
    -2
288
     1
 68
     0
279
    -2
289
     1
 69
     0
  7
STANDARD
140
6.0
170
     5
 62
     0
 63
     7
283
     0
274
    -2
284
     1
 64
     0
275
    -2
285
     1
 65
     0
276
    -2
286
     1
 66
     0
277
    -2
287
     1
 67
     0
278
    -2
288
     1
 68
     0
279
    -2
289
     1
 69
     0
  7
STANDARD
140
4.5
170
     5
 62
     0
 63
     7
283
     0
274
    -2
284
     1
 64
     0
275
    -2
285
     1
 65
     0
276
    -2
286
     1
 66
     0
277
    -2
287
     1
 67
     0
278
    -2
288
     1
 68
     0
279
    -2
289
     1
 69
     0
  0
VISUALSTYLE
  5
47D
102
{ACAD_XDICTIONARY
360
5F0
102
}
102
{ACAD_REACTORS
330
477
102
}
330
477
100
AcDbVisualStyle
  2
2dWireframe
 70
     4
 71
     0
 72
     2
 73
     0
 90
        0
 40
-0.6
 41
-30.0
 62
     5
 63
     7
 74
     1
 91
        4
 64
     7
 65
   257
 75
     1
175
     1
 42
1.0
 92
        0
 66
   257
 43
1.0
 76
     1
 77
     6
 78
     2
 67
     7
 79
     5
170
     0
171
     0
290
     0
174
     0
 93
        1
 44
0.0
173
     0
291
     0
 45
0.0
1001
ACAD
1000
AcDbSavedByObjectVersion
1070
     0
  0
VISUALSTYLE
  5
47F
102
{ACAD_XDICTIONARY
360
5F4
102
}
102
{ACAD_REACTORS
330
477
102
}
330
477
100
AcDbVisualStyle
  2
3D Hidden
 70
     6
 71
     1
 72
     2
 73
     2
 90
        0
 40
-0.6
 41
-30.0
 62
     5
 63
     7
 74
     2
 91
        2
 64
     7
 65
   257
 75
     2
175
     1
 42
179.0
 92
        0
 66
   257
 43
1.0
 76
     1
 77
     6
 78
     2
 67
     7
 79
     3
170
     0
171
     0
290
     0
174
     0
 93
        1
 44
0.0
173
     0
291
     0
 45
0.0
1001
ACAD
1000
AcDbSavedByObjectVersion
1070
     0
  0
VISUALSTYLE
  5
47E
102
{ACAD_XDICTIONARY
360
5F2
102
}
102
{ACAD_REACTORS
330
477
102
}
330
477
100
AcDbVisualStyle
  2
3dWireframe
 70
     5
 71
     0
 72
     2
 73
     0
 90
        0
 40
-0.6
 41
-30.0
 62
     5
 63
     7
 74
     1
 91
        4
 64
     7
 65
   257
 75
     1
175
     1
 42
1.0
 92
        0
 66
   257
 43
1.0
 76
     1
 77
     6
 78
     2
 67
     7
 79
     5
170
     0
171
     0
290
     0
174
     0
 93
        1
 44
0.0
173
     0
291
     0
 45
0.0
1001
ACAD
1000
AcDbSavedByObjectVersion
1070
     0
  0
VISUALSTYLE
  5
47C
102
{ACAD_XDICTIONARY
360
5EE
102
}
102
{ACAD_REACTORS
330
477
102
}
330
477
100
AcDbVisualStyle
  2
Basic
 70
     7
 71
     1
 72
     0
 73
     1
 90
        0
 40
-0.6
 41
-30.0
 62
     5
 63
     7
 74
     0
 91
        4
 64
     7
 65
   257
 75
     1
175
     1
 42
1.0
 92
        8
 66
     7
 43
1.0
 76
     1
 77
     6
 78
     2
 67
     7
 79
     5
170
     0
171
     0
290
     0
174
     0
 93
        1
 44
0.0
173
     0
291
     1
 45
0.0
1001
ACAD
1000
AcDbSavedByObjectVersion
1070
     0
  0
VISUALSTYLE
  5
483
102
{ACAD_XDICTIONARY
360
5FC
102
}
102
{ACAD_REACTORS
330
477
102
}
330
477
100
AcDbVisualStyle
  2
Brighten
 70
    12
 71
     2
 72
     2
 73
     0
 90
        0
 40
-0.6
 41
-30.0
 62
     5
 63
     7
 74
     1
 91
        4
 64
     7
 65
   257
 75
     1
175
     1
 42
1.0
 92
        8
 66
     7
 43
1.0
 76
     1
 77
     6
 78
     2
 67
     7
 79
     5
170
     0
171
     0
290
     0
174
     0
 93
        1
 44
50.0
173
     0
291
     1
 45
0.0
1001
ACAD
1000
AcDbSavedByObjectVersion
1070
     0
  0
VISUALSTYLE
  5
487
102
{ACAD_XDICTIONARY
360
604
102
}
102
{ACAD_REACTORS
330
477
102
}
330
477
100
AcDbVisualStyle
  2
ColorChange
 70
    16
 71
     2
 72
     2
 73
     3
 90
        0
 40
-0.6
 41
-30.0
 62
     5
 63
     8
 74
     1
 91
        4
 64
     7
 65
   257
 75
     1
175
     1
 42
1.0
 92
        8
 66
     8
 43
1.0
 76
     1
 77
     6
 78
     2
 67
     7
 79
     5
170
     0
171
     0
290
     0
174
     0
 93
        1
 44
0.0
173
     0
291
     1
 45
0.0
1001
ACAD
1000
AcDbSavedByObjectVersion
1070
     0
  0
VISUALSTYLE
  5
480
102
{ACAD_XDICTIONARY
360
5F6
102
}
102
{ACAD_REACTORS
330
477
102
}
330
477
100
AcDbVisualStyle
  2
Conceptual
 70
     9
 71
     3
 72
     2
 73
     0
 90
        0
 40
-0.6
 41
-30.0
 62
     5
 63
     7
 74
     2
 91
        2
 64
     7
 65
   257
 75
     1
175
     1
 42
179.0
 92
        8
 66
     7
 43
1.0
 76
     1
 77
     6
 78
     2
 67
     7
 79
     3
170
     0
171
     0
290
     0
174
     0
 93
        1
 44
0.0
173
     0
291
     0
 45
0.0
1001
ACAD
1000
AcDbSavedByObjectVersion
1070
     0
  0
VISUALSTYLE
  5
482
102
{ACAD_XDICTIONARY
360
5FA
102
}
102
{ACAD_REACTORS
330
477
102
}
330
477
100
AcDbVisualStyle
  2
Dim
 70
    11
 71
     2
 72
     2
 73
     0
 90
        0
 40
-0.6
 41
-30.0
 62
     5
 63
     7
 74
     1
 91
        4
 64
     7
 65
   257
 75
     1
175
     1
 42
1.0
 92
        8
 66
     7
 43
1.0
 76
     1
 77
     6
 78
     2
 67
     7
 79
     5
170
     0
171
     0
290
     0
174
     0
 93
        1
 44
-50.0
173
     0
291
     1
 45
0.0
1001
ACAD
1000
AcDbSavedByObjectVersion
1070
     0
  0
VISUALSTYLE
  5
48A
102
{ACAD_XDICTIONARY
360
60A
102
}
102
{ACAD_REACTORS
330
477
102
}
330
477
100
AcDbVisualStyle
  2
EdgeColorOff
 70
    22
 71
     2
 72
     2
 73
     0
 90
        0
 40
-0.6
 41
-30.0
 62
     5
 63
     7
 74
     1
 91
        4
 64
     7
 65
   257
 75
     1
175
     1
 42
1.0
 92
        8
 66
     7
 43
1.0
 76
     1
 77
     6
 78
     2
 67
     7
 79
     5
170
     0
171
     0
290
     0
174
     0
 93
        1
 44
0.0
173
     0
291
     1
 45
0.0
1001
ACAD
1000
AcDbSavedByObjectVersion
1070
     0
  0
VISUALSTYLE
  5
486
102
{ACAD_XDICTIONARY
360
602
102
}
102
{ACAD_REACTORS
330
477
102
}
330
477
100
AcDbVisualStyle
  2
Facepattern
 70
    15
 71
     2
 72
     2
 73
     0
 90
        0
 40
-0.6
 41
-30.0
 62
     5
 63
     7
 74
     1
 91
        4
 64
     7
 65
   257
 75
     1
175
     1
 42
1.0
 92
        8
 66
     7
 43
1.0
 76
     1
 77
     6
 78
     2
 67
     7
 79
     5
170
     0
171
     0
290
     0
174
     0
 93
        1
 44
0.0
173
     0
291
     1
 45
0.0
1001
ACAD
1000
AcDbSavedByObjectVersion
1070
     0
  0
VISUALSTYLE
  5
478
102
{ACAD_XDICTIONARY
360
5E6
102
}
102
{ACAD_REACTORS
330
477
102
}
330
477
100
AcDbVisualStyle
  2
Flat
 70
     0
 71
     2
 72
     1
 73
     1
 90
        2
 40
-0.6
 41
30.0
 62
     5
 63
     7
 74
     0
 91
        4
 64
     7
 65
   257
 75
     1
175
     1
 42
1.0
 92
        8
 66
     7
 43
1.0
 76
     1
 77
     6
 78
     2
 67
     7
 79
     5
170
     0
171
     0
290
     0
174
     0
 93
       13
 44
0.0
173
     0
291
     1
 45
0.0
1001
ACAD
1000
AcDbSavedByObjectVersion
1070
     0
  0
VISUALSTYLE
  5
479
102
{ACAD_XDICTIONARY
360
5E8
102
}
102
{ACAD_REACTORS
330
477
102
}
330
477
100
AcDbVisualStyle
  2
FlatWithEdges
 70
     1
 71
     2
 72
     1
 73
     1
 90
        2
 40
-0.6
 41
30.0
 62
     5
 63
     7
 74
     1
 91
        4
 64
     7
 65
   257
 75
     1
175
     1
 42
1.0
 92
        0
 66
   257
 43
1.0
 76
     1
 77
     6
 78
     2
 67
     7
 79
     5
170
     0
171
     0
290
     0
174
     0
 93
       13
 44
0.0
173
     0
291
     1
 45
0.0
1001
ACAD
1000
AcDbSavedByObjectVersion
1070
     0
  0
VISUALSTYLE
  5
47A
102
{ACAD_XDICTIONARY
360
5EA
102
}
102
{ACAD_REACTORS
330
477
102
}
330
477
100
AcDbVisualStyle
  2
Gouraud
 70
     2
 71
     2
 72
     2
 73
     1
 90
        2
 40
-0.6
 41
30.0
 62
     5
 63
     7
 74
     0
 91
        4
 64
     7
 65
   257
 75
     1
175
     1
 42
1.0
 92
        0
 66
     7
 43
1.0
 76
     1
 77
     6
 78
     2
 67
     7
 79
     5
170
     0
171
     0
290
     0
174
     0
 93
       13
 44
0.0
173
     0
291
     1
 45
0.0
1001
ACAD
1000
AcDbSavedByObjectVersion
1070
     0
  0
VISUALSTYLE
  5
47B
102
{ACAD_XDICTIONARY
360
5EC
102
}
102
{ACAD_REACTORS
330
477
102
}
330
477
100
AcDbVisualStyle
  2
GouraudWithEdges
 70
     3
 71
     2
 72
     2
 73
     1
 90
        2
 40
-0.6
 41
30.0
 62
     5
 63
     7
 74
     1
 91
        4
 64
     7
 65
   257
 75
     1
175
     1
 42
1.0
 92
        0
 66
   257
 43
1.0
 76
     1
 77
     6
 78
     2
 67
     7
 79
     5
170
     0
171
     0
290
     0
174
     0
 93
       13
 44
0.0
173
     0
291
     1
 45
0.0
1001
ACAD
1000
AcDbSavedByObjectVersion
1070
     0
  0
VISUALSTYLE
  5
488
102
{ACAD_XDICTIONARY
360
606
102
}
102
{ACAD_REACTORS
330
477
102
}
330
477
100
AcDbVisualStyle
  2
JitterOff
 70
    20
 71
     2
 72
     2
 73
     0
 90
        0
 40
-0.6
 41
-30.0
 62
     5
 63
     7
 74
     1
 91
        4
 64
     7
 65
   257
 75
     1
175
     1
 42
1.0
 92
       10
 66
     7
 43
1.0
 76
     1
 77
     6
 78
     2
 67
     7
 79
     5
170
     0
171
     0
290
     0
174
     0
 93
        1
 44
0.0
173
     0
291
     1
 45
0.0
1001
ACAD
1000
AcDbSavedByObjectVersion
1070
     0
  0
VISUALSTYLE
  5
485
102
{ACAD_XDICTIONARY
360
600
102
}
102
{ACAD_REACTORS
330
477
102
}
330
477
100
AcDbVisualStyle
  2
Linepattern
 70
    14
 71
     2
 72
     2
 73
     0
 90
        0
 40
-0.6
 41
-30.0
 62
     5
 63
     7
 74
     1
 91
        4
 64
     7
 65
   257
 75
     7
175
     7
 42
1.0
 92
        8
 66
     7
 43
1.0
 76
     1
 77
     6
 78
     2
 67
     7
 79
     5
170
     0
171
     0
290
     0
174
     0
 93
        1
 44
0.0
173
     0
291
     1
 45
0.0
1001
ACAD
1000
AcDbSavedByObjectVersion
1070
     0
  0
VISUALSTYLE
  5
489
102
{ACAD_XDICTIONARY
360
608
102
}
102
{ACAD_REACTORS
330
477
102
}
330
477
100
AcDbVisualStyle
  2
OverhangOff
 70
    21
 71
     2
 72
     2
 73
     0
 90
        0
 40
-0.6
 41
-30.0
 62
     5
 63
     7
 74
     1
 91
        4
 64
     7
 65
   257
 75
     1
175
     1
 42
1.0
 92
        9
 66
     7
 43
1.0
 76
     1
 77
     6
 78
     2
 67
     7
 79
     5
170
     0
171
     0
290
     0
174
     0
 93
        1
 44
0.0
173
     0
291
     1
 45
0.0
1001
ACAD
1000
AcDbSavedByObjectVersion
1070
     0
  0
VISUALSTYLE
  5
481
102
{ACAD_XDICTIONARY
360
5F8
102
}
102
{ACAD_REACTORS
330
477
102
}
330
477
100
AcDbVisualStyle
  2
Realistic
 70
     8
 71
     2
 72
     2
 73
     0
 90
        0
 40
-0.6
 41
-30.0
 62
     5
 63
     7
 74
     1
 91
        0
 64
     7
 65
   257
 75
     1
175
     1
 42
1.0
 92
        8
 66
     8
 43
1.0
 76
     1
 77
     6
 78
     2
 67
     7
 79
     5
170
     0
171
     0
290
     0
174
     0
 93
       13
 44
0.0
173
     0
291
     0
 45
0.0
1001
ACAD
1000
AcDbSavedByObjectVersion
1070
     0
  0
VISUALSTYLE
  5
484
102
{ACAD_XDICTIONARY
360
5FE
102
}
102
{ACAD_REACTORS
330
477
102
}
330
477
100
AcDbVisualStyle
  2
Thicken
 70
    13
 71
     2
 72
     2
 73
     0
 90
        0
 40
-0.6
 41
-30.0
 62
     5
 63
     7
 74
     1
 91
        4
 64
     7
 65
   257
 75
     1
175
     1
 42
1.0
 92
       12
 66
     7
 43
1.0
 76
     1
 77
     6
 78
     2
 67
     7
 79
     5
170
     0
171
     0
290
     0
174
     0
 93
        1
 44
0.0
173
     0
291
     1
 45
0.0
1001
ACAD
1000
AcDbSavedByObjectVersion
1070
     0
  0
DICTIONARYVAR
  5
5D2
102
{ACAD_REACTORS
330
5CE
102
}
330
5CE
100
DictionaryVariables
280
     0
  1
1:1
  0
DICTIONARYVAR
  5
5D0
102
{ACAD_REACTORS
330
5CE
102
}
330
5CE
100
DictionaryVariables
280
     0
  1
STANDARD
  0
DICTIONARYVAR
  5
5CF
102
{ACAD_REACTORS
330
5CE
102
}
330
5CE
100
DictionaryVariables
280
     0
  1
STANDARD
  0
DICTIONARYVAR
  5
5D9
102
{ACAD_REACTORS
330
5CE
102
}
330
5CE
100
DictionaryVariables
280
     0
  1
2
  0
DICTIONARYVAR
  5
5D8
102
{ACAD_REACTORS
330
5CE
102
}
330
5CE
100
DictionaryVariables
280
     0
  1
1
  0
DICTIONARYVAR
  5
5D7
102
{ACAD_REACTORS
330
5CE
102
}
330
5CE
100
DictionaryVariables
280
     0
  1
0
  0
DICTIONARYVAR
  5
5D4
102
{ACAD_REACTORS
330
5CE
102
}
330
5CE
100
DictionaryVariables
280
     0
  1
0
  0
DICTIONARYVAR
  5
5D5
102
{ACAD_REACTORS
330
5CE
102
}
330
5CE
100
DictionaryVariables
280
     0
  1
0
  0
DICTIONARYVAR
  5
5D3
102
{ACAD_REACTORS
330
5CE
102
}
330
5CE
100
DictionaryVariables
280
     0
  1
2
  0
DICTIONARYVAR
  5
5D1
102
{ACAD_REACTORS
330
5CE
102
}
330
5CE
100
DictionaryVariables
280
     0
  1
1
  0
DICTIONARYVAR
  5
5D6
102
{ACAD_REACTORS
330
5CE
102
}
330
5CE
100
DictionaryVariables
280
     0
  1
127
  0
DICTIONARYVAR
  5
5DA
102
{ACAD_REACTORS
330
5CE
102
}
330
5CE
100
DictionaryVariables
280
     0
  1
2
  0
DICTIONARY
  5
505
102
{ACAD_REACTORS
330
4FB
102
}
330
4FB
100
AcDbDictionary
281
     1
  0
DICTIONARY
  5
5E1
330
45B
100
AcDbDictionary
280
     1
281
     1
  3
ACAD_XREC_ROUNDTRIP
360
5E2
  0
DICTIONARY
  5
5DF
330
45A
100
AcDbDictionary
280
     1
281
     1
  3
ACAD_XREC_ROUNDTRIP
360
5E0
  0
DICTIONARY
  5
468
330
467
100
AcDbDictionary
280
     1
281
     1
  3
ACAD_XREC_ROUNDTRIP
360
5E4
  3
BUMPTILE
360
46A
  3
DIFFUSETILE
360
469
  3
OPACITYTILE
360
46D
  3
REFLECTIONTILE
360
46C
  3
REFRACTIONTILE
360
46E
  3
SPECULARTILE
360
46B
  0
DICTIONARY
  5
460
330
45F
100
AcDbDictionary
280
     1
281
     1
  3
ACAD_XREC_ROUNDTRIP
360
5E3
  3
BUMPTILE
360
462
  3
DIFFUSETILE
360
461
  3
OPACITYTILE
360
465
  3
REFLECTIONTILE
360
464
  3
REFRACTIONTILE
360
466
  3
SPECULARTILE
360
463
  0
DICTIONARY
  5
470
330
46F
100
AcDbDictionary
280
     1
281
     1
  3
ACAD_XREC_ROUNDTRIP
360
5E5
  3
BUMPTILE
360
472
  3
DIFFUSETILE
360
471
  3
OPACITYTILE
360
475
  3
REFLECTIONTILE
360
474
  3
REFRACTIONTILE
360
476
  3
SPECULARTILE
360
473
  0
DICTIONARY
  5
5DB
330
48D
100
AcDbDictionary
280
     1
281
     1
  3
ACAD_ROUNDTRIP_2008_TABLESTYLE_CELLSTYLEMAP
360
5DC
  3
ACAD_XREC_ROUNDTRIP
360
60C
  0
DICTIONARY
  5
5F0
330
47D
100
AcDbDictionary
280
     1
281
     1
  3
ACAD_XREC_ROUNDTRIP
360
5F1
  0
DICTIONARY
  5
5F4
330
47F
100
AcDbDictionary
280
     1
281
     1
  3
ACAD_XREC_ROUNDTRIP
360
5F5
  0
DICTIONARY
  5
5F2
330
47E
100
AcDbDictionary
280
     1
281
     1
  3
ACAD_XREC_ROUNDTRIP
360
5F3
  0
DICTIONARY
  5
5EE
330
47C
100
AcDbDictionary
280
     1
281
     1
  3
ACAD_XREC_ROUNDTRIP
360
5EF
  0
DICTIONARY
  5
5FC
330
483
100
AcDbDictionary
280
     1
281
     1
  3
ACAD_XREC_ROUNDTRIP
360
5FD
  0
DICTIONARY
  5
604
330
487
100
AcDbDictionary
280
     1
281
     1
  3
ACAD_XREC_ROUNDTRIP
360
605
  0
DICTIONARY
  5
5F6
330
480
100
AcDbDictionary
280
     1
281
     1
  3
ACAD_XREC_ROUNDTRIP
360
5F7
  0
DICTIONARY
  5
5FA
330
482
100
AcDbDictionary
280
     1
281
     1
  3
ACAD_XREC_ROUNDTRIP
360
5FB
  0
DICTIONARY
  5
60A
330
48A
100
AcDbDictionary
280
     1
281
     1
  3
ACAD_XREC_ROUNDTRIP
360
60B
  0
DICTIONARY
  5
602
330
486
100
AcDbDictionary
280
     1
281
     1
  3
ACAD_XREC_ROUNDTRIP
360
603
  0
DICTIONARY
  5
5E6
330
478
100
AcDbDictionary
280
     1
281
     1
  3
ACAD_XREC_ROUNDTRIP
360
5E7
  0
DICTIONARY
  5
5E8
330
479
100
AcDbDictionary
280
     1
281
     1
  3
ACAD_XREC_ROUNDTRIP
360
5E9
  0
DICTIONARY
  5
5EA
330
47A
100
AcDbDictionary
280
     1
281
     1
  3
ACAD_XREC_ROUNDTRIP
360
5EB
  0
DICTIONARY
  5
5EC
330
47B
100
AcDbDictionary
280
     1
281
     1
  3
ACAD_XREC_ROUNDTRIP
360
5ED
  0
DICTIONARY
  5
606
330
488
100
AcDbDictionary
280
     1
281
     1
  3
ACAD_XREC_ROUNDTRIP
360
607
  0
DICTIONARY
  5
600
330
485
100
AcDbDictionary
280
     1
281
     1
  3
ACAD_XREC_ROUNDTRIP
360
601
  0
DICTIONARY
  5
608
330
489
100
AcDbDictionary
280
     1
281
     1
  3
ACAD_XREC_ROUNDTRIP
360
609
  0
DICTIONARY
  5
5F8
330
481
100
AcDbDictionary
280
     1
281
     1
  3
ACAD_XREC_ROUNDTRIP
360
5F9
  0
DICTIONARY
  5
5FE
330
484
100
AcDbDictionary
280
     1
281
     1
  3
ACAD_XREC_ROUNDTRIP
360
5FF
  0
XRECORD
  5
5E2
102
{ACAD_REACTORS
330
5E1
102
}
330
5E1
100
AcDbXrecord
280
     1
102
SHADEPLOT
 70
     0
102
SHADEPLOTRESLEVEL
 70
     2
102
SHADEPLOTCUSTOMDPI
 70
   300
  0
XRECORD
  5
5E0
102
{ACAD_REACTORS
330
5DF
102
}
330
5DF
100
AcDbXrecord
280
     1
102
SHADEPLOT
 70
     0
102
SHADEPLOTRESLEVEL
 70
     2
102
SHADEPLOTCUSTOMDPI
 70
   300
  0
XRECORD
  5
5E4
102
{ACAD_REACTORS
330
468
102
}
330
468
100
AcDbXrecord
280
     1
102
MATERIAL
148
0.0
149
0.0
149
0.0
 93
        0
 94
      127
282
     0
 72
     0
 77
     0
171
     0
175
     0
179
     0
273
     0
  0
XRECORD
  5
46A
102
{ACAD_REACTORS
330
468
102
}
330
468
100
AcDbXrecord
280
     1
270
     1
271
     1
  0
XRECORD
  5
469
102
{ACAD_REACTORS
330
468
102
}
330
468
100
AcDbXrecord
280
     1
270
     1
271
     1
  0
XRECORD
  5
46D
102
{ACAD_REACTORS
330
468
102
}
330
468
100
AcDbXrecord
280
     1
270
     1
271
     1
  0
XRECORD
  5
46C
102
{ACAD_REACTORS
330
468
102
}
330
468
100
AcDbXrecord
280
     1
270
     1
271
     1
  0
XRECORD
  5
46E
102
{ACAD_REACTORS
330
468
102
}
330
468
100
AcDbXrecord
280
     1
270
     1
271
     1
  0
XRECORD
  5
46B
102
{ACAD_REACTORS
330
468
102
}
330
468
100
AcDbXrecord
280
     1
270
     1
271
     1
  0
XRECORD
  5
5E3
102
{ACAD_REACTORS
330
460
102
}
330
460
100
AcDbXrecord
280
     1
102
MATERIAL
148
0.0
149
0.0
149
0.0
 93
        0
 94
      127
282
     0
 72
     0
 77
     0
171
     0
175
     0
179
     0
273
     0
  0
XRECORD
  5
462
102
{ACAD_REACTORS
330
460
102
}
330
460
100
AcDbXrecord
280
     1
270
     1
271
     1
  0
XRECORD
  5
461
102
{ACAD_REACTORS
330
460
102
}
330
460
100
AcDbXrecord
280
     1
270
     1
271
     1
  0
XRECORD
  5
465
102
{ACAD_REACTORS
330
460
102
}
330
460
100
AcDbXrecord
280
     1
270
     1
271
     1
  0
XRECORD
  5
464
102
{ACAD_REACTORS
330
460
102
}
330
460
100
AcDbXrecord
280
     1
270
     1
271
     1
  0
XRECORD
  5
466
102
{ACAD_REACTORS
330
460
102
}
330
460
100
AcDbXrecord
280
     1
270
     1
271
     1
  0
XRECORD
  5
463
102
{ACAD_REACTORS
330
460
102
}
330
460
100
AcDbXrecord
280
     1
270
     1
271
     1
  0
XRECORD
  5
5E5
102
{ACAD_REACTORS
330
470
102
}
330
470
100
AcDbXrecord
280
     1
102
MATERIAL
148
0.0
149
0.0
149
0.0
 93
        0
 94
      127
282
     0
 72
     0
 77
     0
171
     0
175
     0
179
     0
273
     0
  0
XRECORD
  5
472
102
{ACAD_REACTORS
330
470
102
}
330
470
100
AcDbXrecord
280
     1
270
     1
271
     1
  0
XRECORD
  5
471
102
{ACAD_REACTORS
330
470
102
}
330
470
100
AcDbXrecord
280
     1
270
     1
271
     1
  0
XRECORD
  5
475
102
{ACAD_REACTORS
330
470
102
}
330
470
100
AcDbXrecord
280
     1
270
     1
271
     1
  0
XRECORD
  5
474
102
{ACAD_REACTORS
330
470
102
}
330
470
100
AcDbXrecord
280
     1
270
     1
271
     1
  0
XRECORD
  5
476
102
{ACAD_REACTORS
330
470
102
}
330
470
100
AcDbXrecord
280
     1
270
     1
271
     1
  0
XRECORD
  5
473
102
{ACAD_REACTORS
330
470
102
}
330
470
100
AcDbXrecord
280
     1
270
     1
271
     1
  0
CELLSTYLEMAP
  5
5DC
102
{ACAD_REACTORS
330
5DB
102
}
330
5DB
100
AcDbCellStyleMap
 90
        3
300
CELLSTYLE
  1
TABLEFORMAT_BEGIN
 90
        5
170
     1
 91
        0
 92
    32768
 62
   257
 93
        1
300
CONTENTFORMAT
  1
CONTENTFORMAT_BEGIN
 90
        0
 91
        0
 92
      512
 93
        0
300

 40
0.0
140
1.0
 94
        5
 62
     0
340
11
144
6.0
309
CONTENTFORMAT_END
171
     1
301
MARGIN
  1
CELLMARGIN_BEGIN
 40
1.5
 40
1.5
 40
1.5
 40
1.5
 40
4.5
 40
4.5
309
CELLMARGIN_END
 94
        6
 95
        1
302
GRIDFORMAT
  1
GRIDFORMAT_BEGIN
 90
        0
 91
        1
 62
     0
 92
       -2
340
0
 93
        0
 40
1.125
309
GRIDFORMAT_END
 95
        2
302
GRIDFORMAT
  1
GRIDFORMAT_BEGIN
 90
        0
 91
        1
 62
     0
 92
       -2
340
0
 93
        0
 40
1.125
309
GRIDFORMAT_END
 95
        4
302
GRIDFORMAT
  1
GRIDFORMAT_BEGIN
 90
        0
 91
        1
 62
     0
 92
       -2
340
0
 93
        0
 40
1.125
309
GRIDFORMAT_END
 95
        8
302
GRIDFORMAT
  1
GRIDFORMAT_BEGIN
 90
        0
 91
        1
 62
     0
 92
       -2
340
0
 93
        0
 40
1.125
309
GRIDFORMAT_END
 95
       16
302
GRIDFORMAT
  1
GRIDFORMAT_BEGIN
 90
        0
 91
        1
 62
     0
 92
       -2
340
0
 93
        0
 40
1.125
309
GRIDFORMAT_END
 95
       32
302
GRIDFORMAT
  1
GRIDFORMAT_BEGIN
 90
        0
 91
        1
 62
     0
 92
       -2
340
0
 93
        0
 40
1.125
309
GRIDFORMAT_END
309
TABLEFORMAT_END
  1
CELLSTYLE_BEGIN
 90
        1
 91
        1
300
_TITLE
309
CELLSTYLE_END
300
CELLSTYLE
  1
TABLEFORMAT_BEGIN
 90
        5
170
     1
 91
        0
 92
        0
 62
   257
 93
        1
300
CONTENTFORMAT
  1
CONTENTFORMAT_BEGIN
 90
        0
 91
        0
 92
      512
 93
        0
300

 40
0.0
140
1.0
 94
        5
 62
     0
340
11
144
4.5
309
CONTENTFORMAT_END
171
     1
301
MARGIN
  1
CELLMARGIN_BEGIN
 40
1.5
 40
1.5
 40
1.5
 40
1.5
 40
4.5
 40
4.5
309
CELLMARGIN_END
 94
        6
 95
        1
302
GRIDFORMAT
  1
GRIDFORMAT_BEGIN
 90
        0
 91
        1
 62
     0
 92
       -2
340
0
 93
        0
 40
1.125
309
GRIDFORMAT_END
 95
        2
302
GRIDFORMAT
  1
GRIDFORMAT_BEGIN
 90
        0
 91
        1
 62
     0
 92
       -2
340
0
 93
        0
 40
1.125
309
GRIDFORMAT_END
 95
        4
302
GRIDFORMAT
  1
GRIDFORMAT_BEGIN
 90
        0
 91
        1
 62
     0
 92
       -2
340
0
 93
        0
 40
1.125
309
GRIDFORMAT_END
 95
        8
302
GRIDFORMAT
  1
GRIDFORMAT_BEGIN
 90
        0
 91
        1
 62
     0
 92
       -2
340
0
 93
        0
 40
1.125
309
GRIDFORMAT_END
 95
       16
302
GRIDFORMAT
  1
GRIDFORMAT_BEGIN
 90
        0
 91
        1
 62
     0
 92
       -2
340
0
 93
        0
 40
1.125
309
GRIDFORMAT_END
 95
       32
302
GRIDFORMAT
  1
GRIDFORMAT_BEGIN
 90
        0
 91
        1
 62
     0
 92
       -2
340
0
 93
        0
 40
1.125
309
GRIDFORMAT_END
309
TABLEFORMAT_END
  1
CELLSTYLE_BEGIN
 90
        2
 91
        1
300
_HEADER
309
CELLSTYLE_END
300
CELLSTYLE
  1
TABLEFORMAT_BEGIN
 90
        5
170
     1
 91
        0
 92
        0
 62
   257
 93
        1
300
CONTENTFORMAT
  1
CONTENTFORMAT_BEGIN
 90
        0
 91
        0
 92
      512
 93
        0
300

 40
0.0
140
1.0
 94
        2
 62
     0
340
11
144
4.5
309
CONTENTFORMAT_END
171
     1
301
MARGIN
  1
CELLMARGIN_BEGIN
 40
1.5
 40
1.5
 40
1.5
 40
1.5
 40
4.5
 40
4.5
309
CELLMARGIN_END
 94
        6
 95
        1
302
GRIDFORMAT
  1
GRIDFORMAT_BEGIN
 90
        0
 91
        1
 62
     0
 92
       -2
340
0
 93
        0
 40
1.125
309
GRIDFORMAT_END
 95
        2
302
GRIDFORMAT
  1
GRIDFORMAT_BEGIN
 90
        0
 91
        1
 62
     0
 92
       -2
340
0
 93
        0
 40
1.125
309
GRIDFORMAT_END
 95
        4
302
GRIDFORMAT
  1
GRIDFORMAT_BEGIN
 90
        0
 91
        1
 62
     0
 92
       -2
340
0
 93
        0
 40
1.125
309
GRIDFORMAT_END
 95
        8
302
GRIDFORMAT
  1
GRIDFORMAT_BEGIN
 90
        0
 91
        1
 62
     0
 92
       -2
340
0
 93
        0
 40
1.125
309
GRIDFORMAT_END
 95
       16
302
GRIDFORMAT
  1
GRIDFORMAT_BEGIN
 90
        0
 91
        1
 62
     0
 92
       -2
340
0
 93
        0
 40
1.125
309
GRIDFORMAT_END
 95
       32
302
GRIDFORMAT
  1
GRIDFORMAT_BEGIN
 90
        0
 91
        1
 62
     0
 92
       -2
340
0
 93
        0
 40
1.125
309
GRIDFORMAT_END
309
TABLEFORMAT_END
  1
CELLSTYLE_BEGIN
 90
        3
 91
        2
300
_DATA
309
CELLSTYLE_END
  0
XRECORD
  5
60C
102
{ACAD_REACTORS
330
5DB
102
}
330
5DB
100
AcDbXrecord
280
     1
102
ACAD_ROUNDTRIP_PRE2007_TABLESTYLE
 90
      512
 91
        0
  1

 92
      512
 93
        0
  2

 94
      512
 95
        0
  3

  0
XRECORD
  5
5F1
102
{ACAD_REACTORS
330
5F0
102
}
330
5F0
100
AcDbXrecord
280
     1
102
RTVSPropertyOp0
 70
     1
102
RTVSPropertyOp1
 70
     1
102
RTVSPropertyOp2
 70
     1
102
RTVSPropertyOp3
 70
     1
102
RTVSPropertyOp4
 70
     1
102
RTVSPropertyOp5
 70
     1
102
RTVSPropertyOp6
 70
     1
102
RTVSPropertyOp7
 70
     1
102
RTVSPropertyOp8
 70
     1
102
RTVSPropertyOp9
 70
     1
102
RTVSPropertyOp10
 70
     1
102
RTVSPropertyOp11
 70
     1
102
RTVSPropertyOp12
 70
     1
102
RTVSPropertyOp13
 70
     1
102
RTVSPropertyOp14
 70
     1
102
RTVSPropertyOp15
 70
     1
102
RTVSPropertyOp16
 70
     1
102
RTVSPropertyOp17
 70
     1
102
RTVSPropertyOp18
 70
     1
102
RTVSPropertyOp19
 70
     1
102
RTVSPropertyOp20
 70
     1
102
RTVSPropertyOp21
 70
     1
102
RTVSPropertyOp22
 70
     1
102
RTVSPropertyOp23
 70
     1
102
RTVSPropertyOp24
 70
     1
102
RTVSPropertyOp25
 70
     1
102
RTVSPropertyOp26
 70
     1
102
RTVSPropertyOp27
 70
     1
  0
XRECORD
  5
5F5
102
{ACAD_REACTORS
330
5F4
102
}
330
5F4
100
AcDbXrecord
280
     1
102
RTVSPropertyOp0
 70
     1
102
RTVSPropertyOp1
 70
     1
102
RTVSPropertyOp2
 70
     1
102
RTVSPropertyOp3
 70
     1
102
RTVSPropertyOp4
 70
     1
102
RTVSPropertyOp5
 70
     1
102
RTVSPropertyOp6
 70
     1
102
RTVSPropertyOp7
 70
     1
102
RTVSPropertyOp8
 70
     1
102
RTVSPropertyOp9
 70
     1
102
RTVSPropertyOp10
 70
     1
102
RTVSPropertyOp11
 70
     1
102
RTVSPropertyOp12
 70
     1
102
RTVSPropertyOp13
 70
     1
102
RTVSPropertyOp14
 70
     1
102
RTVSPropertyOp15
 70
     1
102
RTVSPropertyOp16
 70
     1
102
RTVSPropertyOp17
 70
     1
102
RTVSPropertyOp18
 70
     1
102
RTVSPropertyOp19
 70
     1
102
RTVSPropertyOp20
 70
     1
102
RTVSPropertyOp21
 70
     1
102
RTVSPropertyOp22
 70
     1
102
RTVSPropertyOp23
 70
     1
102
RTVSPropertyOp24
 70
     1
102
RTVSPropertyOp25
 70
     1
102
RTVSPropertyOp26
 70
     1
102
RTVSPropertyOp27
 70
     1
  0
XRECORD
  5
5F3
102
{ACAD_REACTORS
330
5F2
102
}
330
5F2
100
AcDbXrecord
280
     1
102
RTVSPropertyOp0
 70
     1
102
RTVSPropertyOp1
 70
     1
102
RTVSPropertyOp2
 70
     1
102
RTVSPropertyOp3
 70
     1
102
RTVSPropertyOp4
 70
     1
102
RTVSPropertyOp5
 70
     1
102
RTVSPropertyOp6
 70
     1
102
RTVSPropertyOp7
 70
     1
102
RTVSPropertyOp8
 70
     1
102
RTVSPropertyOp9
 70
     1
102
RTVSPropertyOp10
 70
     1
102
RTVSPropertyOp11
 70
     1
102
RTVSPropertyOp12
 70
     1
102
RTVSPropertyOp13
 70
     1
102
RTVSPropertyOp14
 70
     1
102
RTVSPropertyOp15
 70
     1
102
RTVSPropertyOp16
 70
     1
102
RTVSPropertyOp17
 70
     1
102
RTVSPropertyOp18
 70
     1
102
RTVSPropertyOp19
 70
     1
102
RTVSPropertyOp20
 70
     1
102
RTVSPropertyOp21
 70
     1
102
RTVSPropertyOp22
 70
     1
102
RTVSPropertyOp23
 70
     1
102
RTVSPropertyOp24
 70
     1
102
RTVSPropertyOp25
 70
     1
102
RTVSPropertyOp26
 70
     1
102
RTVSPropertyOp27
 70
     1
  0
XRECORD
  5
5EF
102
{ACAD_REACTORS
330
5EE
102
}
330
5EE
100
AcDbXrecord
280
     1
102
RTVSPropertyOp0
 70
     1
102
RTVSPropertyOp1
 70
     1
102
RTVSPropertyOp2
 70
     1
102
RTVSPropertyOp3
 70
     1
102
RTVSPropertyOp4
 70
     1
102
RTVSPropertyOp5
 70
     1
102
RTVSPropertyOp6
 70
     1
102
RTVSPropertyOp7
 70
     1
102
RTVSPropertyOp8
 70
     1
102
RTVSPropertyOp9
 70
     1
102
RTVSPropertyOp10
 70
     1
102
RTVSPropertyOp11
 70
     1
102
RTVSPropertyOp12
 70
     1
102
RTVSPropertyOp13
 70
     1
102
RTVSPropertyOp14
 70
     1
102
RTVSPropertyOp15
 70
     1
102
RTVSPropertyOp16
 70
     1
102
RTVSPropertyOp17
 70
     1
102
RTVSPropertyOp18
 70
     1
102
RTVSPropertyOp19
 70
     1
102
RTVSPropertyOp20
 70
     1
102
RTVSPropertyOp21
 70
     1
102
RTVSPropertyOp22
 70
     1
102
RTVSPropertyOp23
 70
     1
102
RTVSPropertyOp24
 70
     1
102
RTVSPropertyOp25
 70
     1
102
RTVSPropertyOp26
 70
     1
102
RTVSPropertyOp27
 70
     1
  0
XRECORD
  5
5FD
102
{ACAD_REACTORS
330
5FC
102
}
330
5FC
100
AcDbXrecord
280
     1
102
RTVSPropertyOp0
 70
     1
102
RTVSPropertyOp1
 70
     1
102
RTVSPropertyOp2
 70
     1
102
RTVSPropertyOp3
 70
     1
102
RTVSPropertyOp4
 70
     1
102
RTVSPropertyOp5
 70
     1
102
RTVSPropertyOp6
 70
     1
102
RTVSPropertyOp7
 70
     1
102
RTVSPropertyOp8
 70
     1
102
RTVSPropertyOp9
 70
     1
102
RTVSPropertyOp10
 70
     1
102
RTVSPropertyOp11
 70
     1
102
RTVSPropertyOp12
 70
     1
102
RTVSPropertyOp13
 70
     1
102
RTVSPropertyOp14
 70
     1
102
RTVSPropertyOp15
 70
     1
102
RTVSPropertyOp16
 70
     1
102
RTVSPropertyOp17
 70
     1
102
RTVSPropertyOp18
 70
     1
102
RTVSPropertyOp19
 70
     1
102
RTVSPropertyOp20
 70
     1
102
RTVSPropertyOp21
 70
     1
102
RTVSPropertyOp22
 70
     1
102
RTVSPropertyOp23
 70
     1
102
RTVSPropertyOp24
 70
     1
102
RTVSPropertyOp25
 70
     1
102
RTVSPropertyOp26
 70
     1
102
RTVSPropertyOp27
 70
     1
  0
XRECORD
  5
605
102
{ACAD_REACTORS
330
604
102
}
330
604
100
AcDbXrecord
280
     1
102
RTVSPropertyOp0
 70
     1
102
RTVSPropertyOp1
 70
     1
102
RTVSPropertyOp2
 70
     1
102
RTVSPropertyOp3
 70
     1
102
RTVSPropertyOp4
 70
     1
102
RTVSPropertyOp5
 70
     1
102
RTVSPropertyOp6
 70
     1
102
RTVSPropertyOp7
 70
     1
102
RTVSPropertyOp8
 70
     1
102
RTVSPropertyOp9
 70
     1
102
RTVSPropertyOp10
 70
     1
102
RTVSPropertyOp11
 70
     1
102
RTVSPropertyOp12
 70
     1
102
RTVSPropertyOp13
 70
     1
102
RTVSPropertyOp14
 70
     1
102
RTVSPropertyOp15
 70
     1
102
RTVSPropertyOp16
 70
     1
102
RTVSPropertyOp17
 70
     1
102
RTVSPropertyOp18
 70
     1
102
RTVSPropertyOp19
 70
     1
102
RTVSPropertyOp20
 70
     1
102
RTVSPropertyOp21
 70
     1
102
RTVSPropertyOp22
 70
     1
102
RTVSPropertyOp23
 70
     1
102
RTVSPropertyOp24
 70
     1
102
RTVSPropertyOp25
 70
     1
102
RTVSPropertyOp26
 70
     1
102
RTVSPropertyOp27
 70
     1
  0
XRECORD
  5
5F7
102
{ACAD_REACTORS
330
5F6
102
}
330
5F6
100
AcDbXrecord
280
     1
102
RTVSPropertyOp0
 70
     1
102
RTVSPropertyOp1
 70
     1
102
RTVSPropertyOp2
 70
     1
102
RTVSPropertyOp3
 70
     1
102
RTVSPropertyOp4
 70
     1
102
RTVSPropertyOp5
 70
     1
102
RTVSPropertyOp6
 70
     1
102
RTVSPropertyOp7
 70
     1
102
RTVSPropertyOp8
 70
     1
102
RTVSPropertyOp9
 70
     1
102
RTVSPropertyOp10
 70
     1
102
RTVSPropertyOp11
 70
     1
102
RTVSPropertyOp12
 70
     1
102
RTVSPropertyOp13
 70
     1
102
RTVSPropertyOp14
 70
     1
102
RTVSPropertyOp15
 70
     1
102
RTVSPropertyOp16
 70
     1
102
RTVSPropertyOp17
 70
     1
102
RTVSPropertyOp18
 70
     1
102
RTVSPropertyOp19
 70
     1
102
RTVSPropertyOp20
 70
     1
102
RTVSPropertyOp21
 70
     1
102
RTVSPropertyOp22
 70
     1
102
RTVSPropertyOp23
 70
     1
102
RTVSPropertyOp24
 70
     1
102
RTVSPropertyOp25
 70
     1
102
RTVSPropertyOp26
 70
     1
102
RTVSPropertyOp27
 70
     1
  0
XRECORD
  5
5FB
102
{ACAD_REACTORS
330
5FA
102
}
330
5FA
100
AcDbXrecord
280
     1
102
RTVSPropertyOp0
 70
     1
102
RTVSPropertyOp1
 70
     1
102
RTVSPropertyOp2
 70
     1
102
RTVSPropertyOp3
 70
     1
102
RTVSPropertyOp4
 70
     1
102
RTVSPropertyOp5
 70
     1
102
RTVSPropertyOp6
 70
     1
102
RTVSPropertyOp7
 70
     1
102
RTVSPropertyOp8
 70
     1
102
RTVSPropertyOp9
 70
     1
102
RTVSPropertyOp10
 70
     1
102
RTVSPropertyOp11
 70
     1
102
RTVSPropertyOp12
 70
     1
102
RTVSPropertyOp13
 70
     1
102
RTVSPropertyOp14
 70
     1
102
RTVSPropertyOp15
 70
     1
102
RTVSPropertyOp16
 70
     1
102
RTVSPropertyOp17
 70
     1
102
RTVSPropertyOp18
 70
     1
102
RTVSPropertyOp19
 70
     1
102
RTVSPropertyOp20
 70
     1
102
RTVSPropertyOp21
 70
     1
102
RTVSPropertyOp22
 70
     1
102
RTVSPropertyOp23
 70
     1
102
RTVSPropertyOp24
 70
     1
102
RTVSPropertyOp25
 70
     1
102
RTVSPropertyOp26
 70
     1
102
RTVSPropertyOp27
 70
     1
  0
XRECORD
  5
60B
102
{ACAD_REACTORS
330
60A
102
}
330
60A
100
AcDbXrecord
280
     1
102
RTVSPropertyOp0
 70
     0
102
RTVSPropertyOp1
 70
     0
102
RTVSPropertyOp2
 70
     0
102
RTVSPropertyOp3
 70
     0
102
RTVSPropertyOp4
 70
     0
102
RTVSPropertyOp5
 70
     0
102
RTVSPropertyOp6
 70
     0
102
RTVSPropertyOp7
 70
     0
102
RTVSPropertyOp8
 70
     0
102
RTVSPropertyOp9
 70
     0
102
RTVSPropertyOp10
 70
     0
102
RTVSPropertyOp11
 70
     0
102
RTVSPropertyOp12
 70
     0
102
RTVSPropertyOp13
 70
     0
102
RTVSPropertyOp14
 70
     2
102
RTVSPropertyOp15
 70
     0
102
RTVSPropertyOp16
 70
     0
102
RTVSPropertyOp17
 70
     0
102
RTVSPropertyOp18
 70
     0
102
RTVSPropertyOp19
 70
     0
102
RTVSPropertyOp20
 70
     0
102
RTVSPropertyOp21
 70
     0
102
RTVSPropertyOp22
 70
     0
102
RTVSPropertyOp23
 70
     0
102
RTVSPropertyOp24
 70
     0
102
RTVSPropertyOp25
 70
     0
102
RTVSPropertyOp26
 70
     0
102
RTVSPropertyOp27
 70
     0
  0
XRECORD
  5
603
102
{ACAD_REACTORS
330
602
102
}
330
602
100
AcDbXrecord
280
     1
102
RTVSPropertyOp0
 70
     1
102
RTVSPropertyOp1
 70
     1
102
RTVSPropertyOp2
 70
     1
102
RTVSPropertyOp3
 70
     1
102
RTVSPropertyOp4
 70
     1
102
RTVSPropertyOp5
 70
     1
102
RTVSPropertyOp6
 70
     1
102
RTVSPropertyOp7
 70
     1
102
RTVSPropertyOp8
 70
     1
102
RTVSPropertyOp9
 70
     1
102
RTVSPropertyOp10
 70
     1
102
RTVSPropertyOp11
 70
     1
102
RTVSPropertyOp12
 70
     1
102
RTVSPropertyOp13
 70
     1
102
RTVSPropertyOp14
 70
     1
102
RTVSPropertyOp15
 70
     1
102
RTVSPropertyOp16
 70
     1
102
RTVSPropertyOp17
 70
     1
102
RTVSPropertyOp18
 70
     1
102
RTVSPropertyOp19
 70
     1
102
RTVSPropertyOp20
 70
     1
102
RTVSPropertyOp21
 70
     1
102
RTVSPropertyOp22
 70
     1
102
RTVSPropertyOp23
 70
     1
102
RTVSPropertyOp24
 70
     1
102
RTVSPropertyOp25
 70
     1
102
RTVSPropertyOp26
 70
     1
102
RTVSPropertyOp27
 70
     1
  0
XRECORD
  5
5E7
102
{ACAD_REACTORS
330
5E6
102
}
330
5E6
100
AcDbXrecord
280
     1
102
RTVSPropertyOp0
 70
     1
102
RTVSPropertyOp1
 70
     1
102
RTVSPropertyOp2
 70
     1
102
RTVSPropertyOp3
 70
     1
102
RTVSPropertyOp4
 70
     1
102
RTVSPropertyOp5
 70
     1
102
RTVSPropertyOp6
 70
     1
102
RTVSPropertyOp7
 70
     1
102
RTVSPropertyOp8
 70
     1
102
RTVSPropertyOp9
 70
     1
102
RTVSPropertyOp10
 70
     1
102
RTVSPropertyOp11
 70
     1
102
RTVSPropertyOp12
 70
     1
102
RTVSPropertyOp13
 70
     1
102
RTVSPropertyOp14
 70
     1
102
RTVSPropertyOp15
 70
     1
102
RTVSPropertyOp16
 70
     1
102
RTVSPropertyOp17
 70
     1
102
RTVSPropertyOp18
 70
     1
102
RTVSPropertyOp19
 70
     1
102
RTVSPropertyOp20
 70
     1
102
RTVSPropertyOp21
 70
     1
102
RTVSPropertyOp22
 70
     1
102
RTVSPropertyOp23
 70
     1
102
RTVSPropertyOp24
 70
     1
102
RTVSPropertyOp25
 70
     1
102
RTVSPropertyOp26
 70
     1
102
RTVSPropertyOp27
 70
     1
  0
XRECORD
  5
5E9
102
{ACAD_REACTORS
330
5E8
102
}
330
5E8
100
AcDbXrecord
280
     1
102
RTVSPropertyOp0
 70
     1
102
RTVSPropertyOp1
 70
     1
102
RTVSPropertyOp2
 70
     1
102
RTVSPropertyOp3
 70
     1
102
RTVSPropertyOp4
 70
     1
102
RTVSPropertyOp5
 70
     1
102
RTVSPropertyOp6
 70
     1
102
RTVSPropertyOp7
 70
     1
102
RTVSPropertyOp8
 70
     1
102
RTVSPropertyOp9
 70
     1
102
RTVSPropertyOp10
 70
     1
102
RTVSPropertyOp11
 70
     1
102
RTVSPropertyOp12
 70
     1
102
RTVSPropertyOp13
 70
     1
102
RTVSPropertyOp14
 70
     1
102
RTVSPropertyOp15
 70
     1
102
RTVSPropertyOp16
 70
     1
102
RTVSPropertyOp17
 70
     1
102
RTVSPropertyOp18
 70
     1
102
RTVSPropertyOp19
 70
     1
102
RTVSPropertyOp20
 70
     1
102
RTVSPropertyOp21
 70
     1
102
RTVSPropertyOp22
 70
     1
102
RTVSPropertyOp23
 70
     1
102
RTVSPropertyOp24
 70
     1
102
RTVSPropertyOp25
 70
     1
102
RTVSPropertyOp26
 70
     1
102
RTVSPropertyOp27
 70
     1
  0
XRECORD
  5
5EB
102
{ACAD_REACTORS
330
5EA
102
}
330
5EA
100
AcDbXrecord
280
     1
102
RTVSPropertyOp0
 70
     1
102
RTVSPropertyOp1
 70
     1
102
RTVSPropertyOp2
 70
     1
102
RTVSPropertyOp3
 70
     1
102
RTVSPropertyOp4
 70
     1
102
RTVSPropertyOp5
 70
     1
102
RTVSPropertyOp6
 70
     1
102
RTVSPropertyOp7
 70
     1
102
RTVSPropertyOp8
 70
     1
102
RTVSPropertyOp9
 70
     1
102
RTVSPropertyOp10
 70
     1
102
RTVSPropertyOp11
 70
     1
102
RTVSPropertyOp12
 70
     1
102
RTVSPropertyOp13
 70
     1
102
RTVSPropertyOp14
 70
     1
102
RTVSPropertyOp15
 70
     1
102
RTVSPropertyOp16
 70
     1
102
RTVSPropertyOp17
 70
     1
102
RTVSPropertyOp18
 70
     1
102
RTVSPropertyOp19
 70
     1
102
RTVSPropertyOp20
 70
     1
102
RTVSPropertyOp21
 70
     1
102
RTVSPropertyOp22
 70
     1
102
RTVSPropertyOp23
 70
     1
102
RTVSPropertyOp24
 70
     1
102
RTVSPropertyOp25
 70
     1
102
RTVSPropertyOp26
 70
     1
102
RTVSPropertyOp27
 70
     1
  0
XRECORD
  5
5ED
102
{ACAD_REACTORS
330
5EC
102
}
330
5EC
100
AcDbXrecord
280
     1
102
RTVSPropertyOp0
 70
     1
102
RTVSPropertyOp1
 70
     1
102
RTVSPropertyOp2
 70
     1
102
RTVSPropertyOp3
 70
     1
102
RTVSPropertyOp4
 70
     1
102
RTVSPropertyOp5
 70
     1
102
RTVSPropertyOp6
 70
     1
102
RTVSPropertyOp7
 70
     1
102
RTVSPropertyOp8
 70
     1
102
RTVSPropertyOp9
 70
     1
102
RTVSPropertyOp10
 70
     1
102
RTVSPropertyOp11
 70
     1
102
RTVSPropertyOp12
 70
     1
102
RTVSPropertyOp13
 70
     1
102
RTVSPropertyOp14
 70
     1
102
RTVSPropertyOp15
 70
     1
102
RTVSPropertyOp16
 70
     1
102
RTVSPropertyOp17
 70
     1
102
RTVSPropertyOp18
 70
     1
102
RTVSPropertyOp19
 70
     1
102
RTVSPropertyOp20
 70
     1
102
RTVSPropertyOp21
 70
     1
102
RTVSPropertyOp22
 70
     1
102
RTVSPropertyOp23
 70
     1
102
RTVSPropertyOp24
 70
     1
102
RTVSPropertyOp25
 70
     1
102
RTVSPropertyOp26
 70
     1
102
RTVSPropertyOp27
 70
     1
  0
XRECORD
  5
607
102
{ACAD_REACTORS
330
606
102
}
330
606
100
AcDbXrecord
280
     1
102
RTVSPropertyOp0
 70
     0
102
RTVSPropertyOp1
 70
     0
102
RTVSPropertyOp2
 70
     0
102
RTVSPropertyOp3
 70
     0
102
RTVSPropertyOp4
 70
     0
102
RTVSPropertyOp5
 70
     0
102
RTVSPropertyOp6
 70
     0
102
RTVSPropertyOp7
 70
     0
102
RTVSPropertyOp8
 70
     0
102
RTVSPropertyOp9
 70
     0
102
RTVSPropertyOp10
 70
     0
102
RTVSPropertyOp11
 70
     0
102
RTVSPropertyOp12
 70
     0
102
RTVSPropertyOp13
 70
     0
102
RTVSPropertyOp14
 70
     2
102
RTVSPropertyOp15
 70
     0
102
RTVSPropertyOp16
 70
     0
102
RTVSPropertyOp17
 70
     0
102
RTVSPropertyOp18
 70
     0
102
RTVSPropertyOp19
 70
     0
102
RTVSPropertyOp20
 70
     0
102
RTVSPropertyOp21
 70
     0
102
RTVSPropertyOp22
 70
     0
102
RTVSPropertyOp23
 70
     0
102
RTVSPropertyOp24
 70
     0
102
RTVSPropertyOp25
 70
     0
102
RTVSPropertyOp26
 70
     0
102
RTVSPropertyOp27
 70
     0
  0
XRECORD
  5
601
102
{ACAD_REACTORS
330
600
102
}
330
600
100
AcDbXrecord
280
     1
102
RTVSPropertyOp0
 70
     1
102
RTVSPropertyOp1
 70
     1
102
RTVSPropertyOp2
 70
     1
102
RTVSPropertyOp3
 70
     1
102
RTVSPropertyOp4
 70
     1
102
RTVSPropertyOp5
 70
     1
102
RTVSPropertyOp6
 70
     1
102
RTVSPropertyOp7
 70
     1
102
RTVSPropertyOp8
 70
     1
102
RTVSPropertyOp9
 70
     1
102
RTVSPropertyOp10
 70
     1
102
RTVSPropertyOp11
 70
     1
102
RTVSPropertyOp12
 70
     1
102
RTVSPropertyOp13
 70
     1
102
RTVSPropertyOp14
 70
     1
102
RTVSPropertyOp15
 70
     1
102
RTVSPropertyOp16
 70
     1
102
RTVSPropertyOp17
 70
     1
102
RTVSPropertyOp18
 70
     1
102
RTVSPropertyOp19
 70
     1
102
RTVSPropertyOp20
 70
     1
102
RTVSPropertyOp21
 70
     1
102
RTVSPropertyOp22
 70
     1
102
RTVSPropertyOp23
 70
     1
102
RTVSPropertyOp24
 70
     1
102
RTVSPropertyOp25
 70
     1
102
RTVSPropertyOp26
 70
     1
102
RTVSPropertyOp27
 70
     1
  0
XRECORD
  5
609
102
{ACAD_REACTORS
330
608
102
}
330
608
100
AcDbXrecord
280
     1
102
RTVSPropertyOp0
 70
     0
102
RTVSPropertyOp1
 70
     0
102
RTVSPropertyOp2
 70
     0
102
RTVSPropertyOp3
 70
     0
102
RTVSPropertyOp4
 70
     0
102
RTVSPropertyOp5
 70
     0
102
RTVSPropertyOp6
 70
     0
102
RTVSPropertyOp7
 70
     0
102
RTVSPropertyOp8
 70
     0
102
RTVSPropertyOp9
 70
     0
102
RTVSPropertyOp10
 70
     0
102
RTVSPropertyOp11
 70
     0
102
RTVSPropertyOp12
 70
     0
102
RTVSPropertyOp13
 70
     0
102
RTVSPropertyOp14
 70
     2
102
RTVSPropertyOp15
 70
     0
102
RTVSPropertyOp16
 70
     0
102
RTVSPropertyOp17
 70
     0
102
RTVSPropertyOp18
 70
     0
102
RTVSPropertyOp19
 70
     0
102
RTVSPropertyOp20
 70
     0
102
RTVSPropertyOp21
 70
     0
102
RTVSPropertyOp22
 70
     0
102
RTVSPropertyOp23
 70
     0
102
RTVSPropertyOp24
 70
     0
102
RTVSPropertyOp25
 70
     0
102
RTVSPropertyOp26
 70
     0
102
RTVSPropertyOp27
 70
     0
  0
XRECORD
  5
5F9
102
{ACAD_REACTORS
330
5F8
102
}
330
5F8
100
AcDbXrecord
280
     1
102
RTVSPropertyOp0
 70
     1
102
RTVSPropertyOp1
 70
     1
102
RTVSPropertyOp2
 70
     1
102
RTVSPropertyOp3
 70
     1
102
RTVSPropertyOp4
 70
     1
102
RTVSPropertyOp5
 70
     1
102
RTVSPropertyOp6
 70
     1
102
RTVSPropertyOp7
 70
     1
102
RTVSPropertyOp8
 70
     1
102
RTVSPropertyOp9
 70
     1
102
RTVSPropertyOp10
 70
     1
102
RTVSPropertyOp11
 70
     1
102
RTVSPropertyOp12
 70
     1
102
RTVSPropertyOp13
 70
     1
102
RTVSPropertyOp14
 70
     1
102
RTVSPropertyOp15
 70
     1
102
RTVSPropertyOp16
 70
     1
102
RTVSPropertyOp17
 70
     1
102
RTVSPropertyOp18
 70
     1
102
RTVSPropertyOp19
 70
     1
102
RTVSPropertyOp20
 70
     1
102
RTVSPropertyOp21
 70
     1
102
RTVSPropertyOp22
 70
     1
102
RTVSPropertyOp23
 70
     1
102
RTVSPropertyOp24
 70
     1
102
RTVSPropertyOp25
 70
     1
102
RTVSPropertyOp26
 70
     1
102
RTVSPropertyOp27
 70
     1
  0
XRECORD
  5
5FF
102
{ACAD_REACTORS
330
5FE
102
}
330
5FE
100
AcDbXrecord
280
     1
102
RTVSPropertyOp0
 70
     1
102
RTVSPropertyOp1
 70
     1
102
RTVSPropertyOp2
 70
     1
102
RTVSPropertyOp3
 70
     1
102
RTVSPropertyOp4
 70
     1
102
RTVSPropertyOp5
 70
     1
102
RTVSPropertyOp6
 70
     1
102
RTVSPropertyOp7
 70
     1
102
RTVSPropertyOp8
 70
     1
102
RTVSPropertyOp9
 70
     1
102
RTVSPropertyOp10
 70
     1
102
RTVSPropertyOp11
 70
     1
102
RTVSPropertyOp12
 70
     1
102
RTVSPropertyOp13
 70
     1
102
RTVSPropertyOp14
 70
     1
102
RTVSPropertyOp15
 70
     1
102
RTVSPropertyOp16
 70
     1
102
RTVSPropertyOp17
 70
     1
102
RTVSPropertyOp18
 70
     1
102
RTVSPropertyOp19
 70
     1
102
RTVSPropertyOp20
 70
     1
102
RTVSPropertyOp21
 70
     1
102
RTVSPropertyOp22
 70
     1
102
RTVSPropertyOp23
 70
     1
102
RTVSPropertyOp24
 70
     1
102
RTVSPropertyOp25
 70
     1
102
RTVSPropertyOp26
 70
     1
102
RTVSPropertyOp27
 70
     1
  0
ENDSEC
  0
EOF
