  0
SECTION
  2
HEADER
  9
$ACADVER
  1
AC1015
  9
$ACADMAINTVER
 70
    20
  9
$DWGCODEPAGE
  3
ANSI_1252
  9
$INSBASE
 10
0.0
 20
0.0
 30
0.0
  9
$EXTMIN
 10
-13.92665226953886
 20
-52.40936946218358
 30
-0.0000000000000058
  9
$EXTMAX
 10
570.7281975654121
 20
614.9031137817651
 30
0.0000000000000104
  9
$LIMMIN
 10
0.0
 20
0.0
  9
$LIMMAX
 10
12.0
 20
9.0
  9
$ORTHOMODE
 70
     0
  9
$REGENMODE
 70
     1
  9
$FILLMODE
 70
     1
  9
$QTEXTMODE
 70
     0
  9
$MIRRTEXT
 70
     0
  9
$LTSCALE
 40
5.0
  9
$ATTMODE
 70
     1
  9
$TEXTSIZE
 40
0.2
  9
$TRACEWID
 40
0.05
  9
$TEXTSTYLE
  7
iso
  9
$CLAYER
  8
0
  9
$CELTYPE
  6
ByLayer
  9
$CECOLOR
 62
   256
  9
$CELTSCALE
 40
1.0
  9
$DISPSILH
 70
     0
  9
$DIMSCALE
 40
30.0
  9
$DIMASZ
 40
0.25
  9
$DIMEXO
 40
0.0
  9
$DIMDLI
 40
0.0
  9
$DIMRND
 40
0.0
  9
$DIMDLE
 40
0.1
  9
$DIMEXE
 40
0.1
  9
$DIMTP
 40
0.0
  9
$DIMTM
 40
0.0
  9
$DIMTXT
 40
0.25
  9
$DIMCEN
 40
0.09
  9
$DIMTSZ
 40
0.0
  9
$DIMTOL
 70
     0
  9
$DIMLIM
 70
     0
  9
$DIMTIH
 70
     0
  9
$DIMTOH
 70
     0
  9
$DIMSE1
 70
     0
  9
$DIMSE2
 70
     0
  9
$DIMTAD
 70
     1
  9
$DIMZIN
 70
     0
  9
$DIMBLK
  1

  9
$DIMASO
 70
     1
  9
$DIMSHO
 70
     1
  9
$DIMPOST
  1

  9
$DIMAPOST
  1

  9
$DIMALT
 70
     0
  9
$DIMALTD
 70
     2
  9
$DIMALTF
 40
25.4
  9
$DIMLFAC
 40
1.0
  9
$DIMTOFL
 70
     1
  9
$DIMTVP
 40
0.0
  9
$DIMTIX
 70
     0
  9
$DIMSOXD
 70
     0
  9
$DIMSAH
 70
     0
  9
$DIMBLK1
  1

  9
$DIMBLK2
  1

  9
$DIMSTYLE
  2
LEADER
  9
$DIMCLRD
 70
   256
  9
$DIMCLRE
 70
   256
  9
$DIMCLRT
 70
     2
  9
$DIMTFAC
 40
1.0
  9
$DIMGAP
 40
0.1
  9
$DIMJUST
 70
     0
  9
$DIMSD1
 70
     0
  9
$DIMSD2
 70
     0
  9
$DIMTOLJ
 70
     1
  9
$DIMTZIN
 70
     0
  9
$DIMALTZ
 70
     0
  9
$DIMALTTZ
 70
     0
  9
$DIMUPT
 70
     0
  9
$DIMDEC
 70
     0
  9
$DIMTDEC
 70
     0
  9
$DIMALTU
 70
     2
  9
$DIMALTTD
 70
     2
  9
$DIMTXSTY
  7
ISOCP
  9
$DIMAUNIT
 70
     0
  9
$DIMADEC
 70
     0
  9
$DIMALTRND
 40
0.0
  9
$DIMAZIN
 70
     0
  9
$DIMDSEP
 70
    46
  9
$DIMATFIT
 70
     3
  9
$DIMFRAC
 70
     0
  9
$DIMLDRBLK
  1
None
  9
$DIMLUNIT
 70
     2
  9
$DIMLWD
 70
    -1
  9
$DIMLWE
 70
    -1
  9
$DIMTMOVE
 70
     2
  9
$LUNITS
 70
     2
  9
$LUPREC
 70
     4
  9
$SKETCHINC
 40
0.1
  9
$FILLETRAD
 40
0.0
  9
$AUNITS
 70
     0
  9
$AUPREC
 70
     0
  9
$MENU
  1
.
  9
$ELEVATION
 40
0.0
  9
$PELEVATION
 40
0.0
  9
$THICKNESS
 40
0.0
  9
$LIMCHECK
 70
     0
  9
$CHAMFERA
 40
0.0
  9
$CHAMFERB
 40
0.0
  9
$CHAMFERC
 40
0.0
  9
$CHAMFERD
 40
0.0
  9
$SKPOLY
 70
     0
  9
$TDCREATE
 40
2454041.365801134
  9
$TDUCREATE
 40
2454041.324134468
  9
$TDUPDATE
 40
2454090.685068172
  9
$TDUUPDATE
 40
2454090.643401504
  9
$TDINDWG
 40
0.5105427315
  9
$TDUSRTIMER
 40
0.5105427315
  9
$USRTIMER
 70
     1
  9
$ANGBASE
 50
0.0
  9
$ANGDIR
 70
     0
  9
$PDMODE
 70
     0
  9
$PDSIZE
 40
0.0
  9
$PLINEWID
 40
0.0
  9
$SPLFRAME
 70
     0
  9
$SPLINETYPE
 70
     6
  9
$SPLINESEGS
 70
     8
  9
$HANDSEED
  5
D174
  9
$SURFTAB1
 70
     6
  9
$SURFTAB2
 70
     6
  9
$SURFTYPE
 70
     6
  9
$SURFU
 70
     6
  9
$SURFV
 70
     6
  9
$UCSBASE
  2

  9
$UCSNAME
  2

  9
$UCSORG
 10
0.0
 20
0.0
 30
0.0
  9
$UCSXDIR
 10
1.0
 20
0.0
 30
0.0
  9
$UCSYDIR
 10
0.0
 20
1.0
 30
0.0
  9
$UCSORTHOREF
  2

  9
$UCSORTHOVIEW
 70
     0
  9
$UCSORGTOP
 10
0.0
 20
0.0
 30
0.0
  9
$UCSORGBOTTOM
 10
0.0
 20
0.0
 30
0.0
  9
$UCSORGLEFT
 10
0.0
 20
0.0
 30
0.0
  9
$UCSORGRIGHT
 10
0.0
 20
0.0
 30
0.0
  9
$UCSORGFRONT
 10
0.0
 20
0.0
 30
0.0
  9
$UCSORGBACK
 10
0.0
 20
0.0
 30
0.0
  9
$PUCSBASE
  2

  9
$PUCSNAME
  2

  9
$PUCSORG
 10
0.0
 20
0.0
 30
0.0
  9
$PUCSXDIR
 10
1.0
 20
0.0
 30
0.0
  9
$PUCSYDIR
 10
0.0
 20
1.0
 30
0.0
  9
$PUCSORTHOREF
  2

  9
$PUCSORTHOVIEW
 70
     0
  9
$PUCSORGTOP
 10
0.0
 20
0.0
 30
0.0
  9
$PUCSORGBOTTOM
 10
0.0
 20
0.0
 30
0.0
  9
$PUCSORGLEFT
 10
0.0
 20
0.0
 30
0.0
  9
$PUCSORGRIGHT
 10
0.0
 20
0.0
 30
0.0
  9
$PUCSORGFRONT
 10
0.0
 20
0.0
 30
0.0
  9
$PUCSORGBACK
 10
0.0
 20
0.0
 30
0.0
  9
$USERI1
 70
     0
  9
$USERI2
 70
     0
  9
$USERI3
 70
     0
  9
$USERI4
 70
     0
  9
$USERI5
 70
     0
  9
$USERR1
 40
0.0
  9
$USERR2
 40
0.0
  9
$USERR3
 40
0.0
  9
$USERR4
 40
0.0
  9
$USERR5
 40
0.0
  9
$WORLDVIEW
 70
     1
  9
$SHADEDGE
 70
     3
  9
$SHADEDIF
 70
    70
  9
$TILEMODE
 70
     1
  9
$MAXACTVP
 70
    64
  9
$PINSBASE
 10
0.0
 20
0.0
 30
0.0
  9
$PLIMCHECK
 70
     0
  9
$PEXTMIN
 10
0.0
 20
0.0
 30
0.0
  9
$PEXTMAX
 10
0.0
 20
0.0
 30
0.0
  9
$PLIMMIN
 10
0.0
 20
0.0
  9
$PLIMMAX
 10
12.0
 20
9.0
  9
$UNITMODE
 70
     0
  9
$VISRETAIN
 70
     1
  9
$PLINEGEN
 70
     0
  9
$PSLTSCALE
 70
     1
  9
$TREEDEPTH
 70
  3020
  9
$CMLSTYLE
  2
Standard
  9
$CMLJUST
 70
     0
  9
$CMLSCALE
 40
1.0
  9
$PROXYGRAPHICS
 70
     1
  9
$MEASUREMENT
 70
     0
  9
$CELWEIGHT
370
    -1
  9
$ENDCAPS
280
     0
  9
$JOINSTYLE
280
     0
  9
$LWDISPLAY
290
     0
  9
$INSUNITS
 70
     4
  9
$HYPERLINKBASE
  1

  9
$STYLESHEET
  1
monochrome.ctb
  9
$XEDIT
290
     1
  9
$CEPSNTYPE
380
     0
  9
$PSTYLEMODE
290
     1
  9
$FINGERPRINTGUID
  2
{FDEAD576-A652-11D2-9A35-0060089B3A3F}
  9
$VERSIONGUID
  2
{B8C65375-AEA0-4999-BF8D-6612E095A4F0}
  9
$EXTNAMES
290
     1
  9
$PSVPSCALE
 40
0.0
  9
$OLESTARTUP
290
     0
  0
ENDSEC
  0
SECTION
  2
CLASSES
  0
CLASS
  1
ACDBDICTIONARYWDFLT
  2
AcDbDictionaryWithDefault
  3
ObjectDBX Classes
 90
        0
280
     0
281
     0
  0
CLASS
  1
ACDBPLACEHOLDER
  2
AcDbPlaceHolder
  3
ObjectDBX Classes
 90
        0
280
     0
281
     0
  0
CLASS
  1
LAYOUT
  2
AcDbLayout
  3
ObjectDBX Classes
 90
        0
280
     0
281
     0
  0
CLASS
  1
DICTIONARYVAR
  2
AcDbDictionaryVar
  3
ObjectDBX Classes
 90
        0
280
     0
281
     0
  0
CLASS
  1
RASTERVARIABLES
  2
AcDbRasterVariables
  3
ISM
 90
        0
280
     0
281
     0
  0
CLASS
  1
IMAGEDEF
  2
AcDbRasterImageDef
  3
ISM
 90
    32768
280
     0
281
     0
  0
CLASS
  1
IMAGEDEF_REACTOR
  2
AcDbRasterImageDefReactor
  3
ISM
 90
    32769
280
     0
281
     0
  0
CLASS
  1
IMAGE
  2
AcDbRasterImage
  3
ISM
 90
    32895
280
     0
281
     1
  0
CLASS
  1
DIMASSOC
  2
AcDbDimAssoc
  3
"AcDbDimAssoc|Product Desc:     AcDim ARX App For Dimension|Company:          Autodesk, Inc.|WEB Address:      www.autodesk.com"
 90
        0
280
     0
281
     0
  0
CLASS
  1
SORTENTSTABLE
  2
AcDbSortentsTable
  3
ObjectDBX Classes
 90
        0
280
     0
281
     0
  0
CLASS
  1
TABLESTYLE
  2
AcDbTableStyle
  3
ObjectDBX Classes
 90
     2047
280
     0
281
     0
  0
CLASS
  1
ACME_DOCUMENT
  2
AcMeDbDoc
  3
AcMeServices
 90
        0
280
     0
281
     0
  0
CLASS
  1
AMGSETTINGSOBJ
  2
AmgSettingsObj
  3
"AcadM|Product Description: AutoCAD Mechanical 2000|Company: Autodesk"
 90
        0
280
     0
281
     0
  0
CLASS
  1
ACMESCOPE
  2
AcMeScope
  3
AcMeServices
 90
        0
280
     0
281
     0
  0
CLASS
  1
ACMECOMMANDHISTORY
  2
AcMeCommandHistory
  3
AcMeServices
 90
        0
280
     0
281
     0
  0
CLASS
  1
ACIMSYSVARMAN
  2
AcImSysVarManager
  3
AcMeServices
 90
        0
280
     0
281
     0
  0
CLASS
  1
ACIMINTSYSVAR
  2
AcImIntSysVar
  3
AcMeServices
 90
        0
280
     0
281
     0
  0
CLASS
  1
ACMEDRAWINGMAN
  2
AcMeDrawingMan
  3
AcMeServices
 90
        0
280
     0
281
     0
  0
CLASS
  1
ACMEVIEW
  2
AcMeView
  3
AcMeServices
 90
        0
280
     0
281
     0
  0
CLASS
  1
ACDBENTITYCACHE
  2
AcMeEntityCache
  3
AcMeServices
 90
        0
280
     0
281
     0
  0
CLASS
  1
GSMANAGER
  2
AcMeGSManager
  3
AcMeServices
 90
        0
280
     0
281
     0
  0
CLASS
  1
AMDTINTERNALREACTOR
  2
AmdtInternalReactor
  3
AcMeServices
 90
        0
280
     0
281
     0
  0
CLASS
  1
ACMESTATEMGR
  2
AcMeStateMgr
  3
AcMeServices
 90
        0
280
     0
281
     0
  0
CLASS
  1
ACGREFMASTER
  2
AcGrefMaster
  3
AcAttribServices
 90
        0
280
     0
281
     0
  0
CLASS
  1
AM_DRAWING_MGR
  2
AcDmDwgMgr
  3
AcMechDwgViewMgmt
 90
        0
280
     0
281
     0
  0
CLASS
  1
AM_DWG_DOCUMENT
  2
AcDmDwgDocument
  3
AcMechDwgViewMgmt
 90
        0
280
     0
281
     0
  0
CLASS
  1
AM_DWG_SHEET
  2
AcDmSheet
  3
AcMechDwgViewMgmt
 90
        0
280
     0
281
     0
  0
CLASS
  1
AM_VIEWDIMPARMAP
  2
AcDmViewDimParMap
  3
AcMechDwgViewMgmt
 90
        0
280
     0
281
     0
  0
CLASS
  1
ACIMREALSYSVAR
  2
AcImRealSysVar
  3
AcMeServices
 90
        0
280
     0
281
     0
  0
CLASS
  1
AM_DWGMGR_NAME
  2
AcDmDwgMgrName
  3
AcMechDwgViewMgmt
 90
        0
280
     0
281
     0
  0
CLASS
  1
ACME_DATABASE
  2
AcMeDbDatabase
  3
AcMeServices
 90
        0
280
     0
281
     0
  0
CLASS
  1
ACRFINSADJUSTERMGR
  2
AcRfInsAdjusterMgr
  3
AcMeServices
 90
        0
280
     0
281
     0
  0
CLASS
  1
ACGREFACADMASTER
  2
AcGrefacadMaster
  3
AcGrefServices
 90
        0
280
     0
281
     0
  0
CLASS
  1
AMDTMENUSTATEMGR
  2
AmdtMenuStateMgr
  3
McadcomServices
 90
        0
280
     0
281
     0
  0
CLASS
  1
AMDTMCOMMENUSTATE
  2
AmdtMcomMenuState
  3
McadcomServices
 90
        0
280
     0
281
     0
  0
CLASS
  1
AMIMASTER
  2
AmiMaster
  3
AmiServices
 90
        0
280
     0
281
     0
  0
CLASS
  1
MAPIAMMOUDLE
  2
MApiAmModule
  3
MApiAmServices
 90
        0
280
     0
281
     0
  0
CLASS
  1
ACIMSTRSYSVAR
  2
AcImStrSysVar
  3
AcMeServices
 90
        0
280
     0
281
     0
  0
CLASS
  1
AMDTADMENUSTATE
  2
AmdtAdMenuState
  3
DesignerServices
 90
        0
280
     0
281
     0
  0
CLASS
  1
ADAPPL
  2
AcAdAppl
  3
DesignerServices
 90
        0
280
     0
281
     0
  0
CLASS
  1
DEPMGR
  2
AcAdDepMgr
  3
DesignerServices
 90
        0
280
     0
281
     0
  0
CLASS
  1
PARAMMGR
  2
AcAdParamMgr
  3
DesignerServices
 90
        0
280
     0
281
     0
  0
CLASS
  1
PARAMSCOPE
  2
AcAdParamScope
  3
DesignerServices
 90
        0
280
     0
281
     0
  0
CLASS
  1
NAMEDAPPL
  2
AcAdNamedAppl
  3
DesignerServices
 90
        0
280
     0
281
     0
  0
CLASS
  1
AMDTDMMENUSTATE
  2
AmdtDmMenuState
  3
AcMechDwgViewMgmt
 90
        0
280
     0
281
     0
  0
CLASS
  1
AMDTAMMENUSTATE
  2
AmdtAmMenuState
  3
DesignerAssemblies
 90
        0
280
     0
281
     0
  0
CLASS
  1
ACAMPROJECT
  2
AcAmProject
  3
DesignerAssemblies
 90
        0
280
     0
281
     0
  0
CLASS
  1
ACAMGRCOMPDEF
  2
AcAmGrCompDef
  3
DesignerAssemblies
 90
        0
280
     0
281
     0
  0
CLASS
  1
ACCMCONTEXT
  2
AcCmContext
  3
DesignerAssemblies
 90
        0
280
     0
281
     0
  0
CLASS
  1
ACAMCOMPDEF
  2
AcAmCompDef
  3
DesignerAssemblies
 90
        0
280
     0
281
     0
  0
CLASS
  1
ACAMCOMPDEFMGR
  2
AcAmCompDefMgr
  3
DesignerAssemblies
 90
        0
280
     0
281
     0
  0
CLASS
  1
AMCONTEXTMGR
  2
AcAmContextMgr
  3
DesignerAssemblies
 90
        0
280
     0
281
     0
  0
CLASS
  1
ACAMCONTEXTMODELER
  2
AcAmContextModeler
  3
DesignerAssemblies
 90
        0
280
     0
281
     0
  0
CLASS
  1
ACMDATADICTIONARY
  2
AcmDataDictionary
  3
"AcmSymBB|Product Description: AutoCAD Mechanical 2004 DX|Company: Autodesk"
 90
        0
280
     0
281
     0
  0
CLASS
  1
CATALOGSTATE
  2
AcAmCatalogState
  3
DesignerAssemblies
 90
        0
280
     0
281
     0
  0
CLASS
  1
ACAMGRCOMPDEFSET
  2
AcAmGrCompDefSet
  3
DesignerAssemblies
 90
        0
280
     0
281
     0
  0
CLASS
  1
AMDTBROWSERDBTAB
  2
AmdtBrowserDbTab
  3
McadcomServices
 90
        0
280
     0
281
     0
  0
CLASS
  1
CBROWSERAPPOBJECT
  2
CBrowserAppObject
  3
McadcomServices
 90
        0
280
     0
281
     0
  0
CLASS
  1
DM_PLACEHOLDER
  2
AcDmSelsetPlaceholder
  3
AcMechDwgViewMgmt
 90
        0
280
     0
281
     0
  0
CLASS
  1
ACMSTANDARDANSI
  2
AcmStandardANSI
  3
"Amdt_StdImp|Product Description: AutoCAD Mechanical 2004 DX|Company: Autodesk"
 90
        0
280
     0
281
     0
  0
CLASS
  1
AMGOBJPROPCFG
  2
AmgObjPropCfg
  3
"AmgLay|Product Description: AutoCAD Mechanical 2000|Company: Autodesk"
 90
        1
280
     0
281
     0
  0
CLASS
  1
ACMSURFSTANDARDANSI
  2
AcmSurfTextStdANSI
  3
"Amdt_StdImp|Product Description: AutoCAD Mechanical 2004 DX|Company: Autodesk"
 90
        0
280
     0
281
     0
  0
CLASS
  1
ACMFCFSTANDARDANSI
  2
AcmFCFStdANSI
  3
"Amdt_StdImp|Product Description: AutoCAD Mechanical 2004 DX|Company: Autodesk"
 90
        0
280
     0
281
     0
  0
CLASS
  1
ACMWELDSTANDARDANSI
  2
AcmWeldingStdANSI
  3
"Amdt_StdImp|Product Description: AutoCAD Mechanical 2004 DX|Company: Autodesk"
 90
        0
280
     0
281
     0
  0
CLASS
  1
ACMIDSTANDARDANSI
  2
AcmIdStdANSI
  3
"Amdt_StdImp|Product Description: AutoCAD Mechanical 2004 DX|Company: Autodesk"
 90
        0
280
     0
281
     0
  0
CLASS
  1
ACMDATUMSTANDARDANSI
  2
AcmDatumStdANSI
  3
"Amdt_StdImp|Product Description: AutoCAD Mechanical 2004 DX|Company: Autodesk"
 90
        0
280
     0
281
     0
  0
CLASS
  1
ACMBOMSTANDARDANSI
  2
AcmBOMStdANSI
  3
"Amdt_StdImp|Product Description: AutoCAD Mechanical 2004 DX|Company: Autodesk"
 90
        0
280
     0
281
     0
  0
CLASS
  1
ACMDETAILSTANDARDANSI
  2
AmdtDetailSymStdANSI
  3
"Amdt_StdImp|Product Description: AutoCAD Mechanical 2004 DX|Company: Autodesk"
 90
        0
280
     0
281
     0
  0
CLASS
  1
ACMSECTIONSTANDARDANSI
  2
AmdtSectionSymStdANSI
  3
"Amdt_StdImp|Product Description: AutoCAD Mechanical 2004 DX|Company: Autodesk"
 90
        0
280
     0
281
     0
  0
CLASS
  1
ACMCENTERLINESTANDARDANSI
  2
AmdtCenterLineStdANSI
  3
"Amdt_StdImp|Product Description: AutoCAD Mechanical 2004 DX|Company: Autodesk"
 90
        0
280
     0
281
     0
  0
CLASS
  1
ACMTHREADLINESTANDARDANSI
  2
AmdtThreadLineStdANSI
  3
"Amdt_StdImp|Product Description: AutoCAD Mechanical 2004 DX|Company: Autodesk"
 90
        0
280
     0
281
     0
  0
CLASS
  1
ACMNOTESTANDARDANSI
  2
AmdtNoteStdANSI
  3
"Amdt_StdImp|Product Description: AutoCAD Mechanical 2004 DX|Company: Autodesk"
 90
        0
280
     0
281
     0
  0
CLASS
  1
AMDTNOTETEMPLATEDB
  2
AmdtNoteTemplateDB
  3
AMDT_STDIMP_MODULE_NAME
 90
        0
280
     0
281
     0
  0
CLASS
  1
ACAMGLAYSTD
  2
AcAmgLayStd
  3
"AcAmgLayStd|Product Description: AutoCAD Mechanical 2000|Company: Autodesk"
 90
        0
280
     0
281
     0
  0
CLASS
  1
ACAMGDIMSTD
  2
AcAmgDimStd
  3
"AcAmgDimStd|Product Description: AutoCAD Mechanical 2000|Company: Autodesk"
 90
        0
280
     0
281
     0
  0
CLASS
  1
ACAMGHOLECHARTSTDANSI
  2
AcAmgHoleChartStdANSI
  3
ACMSYMBB_MODULE_NAME
 90
        0
280
     0
281
     0
  0
CLASS
  1
ACAMGTITLESTD
  2
AcAmgTitleStd
  3
"TITLEAPP"
 90
        0
280
     0
281
     0
  0
CLASS
  1
ACAMGFILTERDAT
  2
AcAmgFilterDat
  3
"AcadM|Product Description: AutoCAD Mechanical 2000|Company: Autodesk"
 90
        0
280
     0
281
     0
  0
CLASS
  1
ACMDATAENTRYBLOCK
  2
AcmDataEntryBlock
  3
"AcmSymBB|Product Description: AutoCAD Mechanical 2004 DX|Company: Autodesk"
 90
    32768
280
     0
281
     0
  0
CLASS
  1
ACMSTANDARDDIN
  2
AcmStandardDIN
  3
"Amdt_StdImp|Product Description: AutoCAD Mechanical 2004 DX|Company: Autodesk"
 90
        0
280
     0
281
     0
  0
CLASS
  1
AMDTEDGESTANDARDDIN13715
  2
AmdtEdgeStdDIN13715
  3
"Amdt_StdImp|Product Description: AutoCAD Mechanical 2004 DX|Company: Autodesk"
 90
        0
280
     0
281
     0
  0
CLASS
  1
ACMSURFSTANDARDDIN
  2
AcmSurfTextStdDIN
  3
"Amdt_StdImp|Product Description: AutoCAD Mechanical 2004 DX|Company: Autodesk"
 90
        0
280
     0
281
     0
  0
CLASS
  1
ACMFCFSTANDARDDIN
  2
AcmFCFStdDIN
  3
"Amdt_StdImp|Product Description: AutoCAD Mechanical 2004 DX|Company: Autodesk"
 90
        0
280
     0
281
     0
  0
CLASS
  1
ACMWELDSTANDARDDIN
  2
AcmWeldingStdDIN
  3
"Amdt_StdImp|Product Description: AutoCAD Mechanical 2004 DX|Company: Autodesk"
 90
        0
280
     0
281
     0
  0
CLASS
  1
ACMIDSTANDARDDIN
  2
AcmIdStdDIN
  3
"Amdt_StdImp|Product Description: AutoCAD Mechanical 2004 DX|Company: Autodesk"
 90
        0
280
     0
281
     0
  0
CLASS
  1
ACMDATUMSTANDARDDIN
  2
AcmDatumStdDIN
  3
"Amdt_StdImp|Product Description: AutoCAD Mechanical 2004 DX|Company: Autodesk"
 90
        0
280
     0
281
     0
  0
CLASS
  1
ACMBOMSTANDARDDIN
  2
AcmBOMStdDIN
  3
"Amdt_StdImp|Product Description: AutoCAD Mechanical 2004 DX|Company: Autodesk"
 90
        0
280
     0
281
     0
  0
CLASS
  1
ACMDETAILSTANDARDDIN
  2
AmdtDetailSymStdDIN
  3
"Amdt_StdImp|Product Description: AutoCAD Mechanical 2004 DX|Company: Autodesk"
 90
        0
280
     0
281
     0
  0
CLASS
  1
ACMSECTIONSTANDARDDIN
  2
AmdtSectionSymStdDIN
  3
"Amdt_StdImp|Product Description: AutoCAD Mechanical 2004 DX|Company: Autodesk"
 90
        0
280
     0
281
     0
  0
CLASS
  1
ACMCENTERLINESTANDARDDIN
  2
AmdtCenterLineStdDIN
  3
"Amdt_StdImp|Product Description: AutoCAD Mechanical 2004 DX|Company: Autodesk"
 90
        0
280
     0
281
     0
  0
CLASS
  1
ACMTHREADLINESTANDARDDIN
  2
AmdtThreadLineStdDIN
  3
"Amdt_StdImp|Product Description: AutoCAD Mechanical 2004 DX|Company: Autodesk"
 90
        0
280
     0
281
     0
  0
CLASS
  1
ACMNOTESTANDARDDIN
  2
AmdtNoteStdDIN
  3
"Amdt_StdImp|Product Description: AutoCAD Mechanical 2004 DX|Company: Autodesk"
 90
        0
280
     0
281
     0
  0
CLASS
  1
ACAMGHOLECHARTSTDDIN
  2
AcAmgHoleChartStdDIN
  3
ACMSYMBB_MODULE_NAME
 90
        0
280
     0
281
     0
  0
CLASS
  1
EXACXREFPANELOBJECT
  2
ExAcXREFPanelObject
  3
EXAC_ESW
 90
        0
280
     0
281
     0
  0
CLASS
  1
ACRFATTGENMGR
  2
AcRfAttGeneralMgr
  3
AcAttribServices
 90
        0
280
     0
281
     0
  0
ENDSEC
  0
SECTION
  2
TABLES
  0
TABLE
  2
VPORT
  5
8
330
0
100
AcDbSymbolTable
 70
     3
  0
VPORT
  5
D16C
330
8
100
AcDbSymbolTableRecord
100
AcDbViewportTableRecord
  2
*Active
 70
     0
 10
0.0
 20
0.0
 11
1.0
 21
1.0
 12
278.4007726479366
 22
281.2468721597907
 13
0.0
 23
0.0
 14
0.1
 24
0.1
 15
0.5
 25
0.5
 16
0.0
 26
0.0
 36
1.0
 17
0.0
 27
0.0
 37
0.0
 40
672.4721158463503
 41
1.363870967741935
 42
50.0
 43
0.0
 44
0.0
 50
0.0
 51
0.0
 71
     0
 72
  1000
 73
     1
 74
     1
 75
     0
 76
     0
 77
     0
 78
     0
281
     0
 65
     1
110
0.0
120
0.0
130
0.0
111
1.0
121
0.0
131
0.0
112
0.0
122
1.0
132
0.0
 79
     0
146
0.0
  0
ENDTAB
  0
TABLE
  2
LTYPE
  5
5
330
0
100
AcDbSymbolTable
 70
    17
  0
LTYPE
  5
14
330
5
100
AcDbSymbolTableRecord
100
AcDbLinetypeTableRecord
  2
ByBlock
 70
     0
  3

 72
    65
 73
     0
 40
0.0
  0
LTYPE
  5
15
330
5
100
AcDbSymbolTableRecord
100
AcDbLinetypeTableRecord
  2
ByLayer
 70
     0
  3

 72
    65
 73
     0
 40
0.0
  0
LTYPE
  5
16
330
5
100
AcDbSymbolTableRecord
100
AcDbLinetypeTableRecord
  2
Continuous
 70
     0
  3
Solid line
 72
    65
 73
     0
 40
0.0
  0
LTYPE
  5
F3
330
5
100
AcDbSymbolTableRecord
100
AcDbLinetypeTableRecord
  2
HIDDEN
 70
     0
  3
Hidden __ __ __ __ __ __ __ __ __ __ __ __ __ _
 72
    65
 73
     2
 40
0.375
 49
0.25
 74
     0
 49
-0.125
 74
     0
  0
LTYPE
  5
112
330
5
100
AcDbSymbolTableRecord
100
AcDbLinetypeTableRecord
  2
CENTER
 70
     0
  3
Center ____ _ ____ _ ____ _ ____ _ ____ _ ____
 72
    65
 73
     4
 40
2.0
 49
1.25
 74
     0
 49
-0.25
 74
     0
 49
0.25
 74
     0
 49
-0.25
 74
     0
  0
LTYPE
  5
8AB6
330
5
100
AcDbSymbolTableRecord
100
AcDbLinetypeTableRecord
  2
DASHED
 70
     0
  3
Dashed __ __ __ __ __ __ __ __ __ __ __ __ __ _
 72
    65
 73
     2
 40
0.75
 49
0.5
 74
     0
 49
-0.25
 74
     0
  0
LTYPE
  5
A1B5
330
5
100
AcDbSymbolTableRecord
100
AcDbLinetypeTableRecord
  2
GEN7A
 70
     0
  3
__ . __ . __
 72
    65
 73
     4
 40
6.875
 49
4.75
 74
     0
 49
-0.875
 74
     0
 49
0.375
 74
     0
 49
-0.875
 74
     0
  0
LTYPE
  5
A1B6
330
5
100
AcDbSymbolTableRecord
100
AcDbLinetypeTableRecord
  2
STRICHPUNKT
 70
     0
  3
__ . __ . __ . __ . __ . __ . __ . __ . __ . __
 72
    65
 73
     4
 40
1.0
 49
0.5
 74
     0
 49
-0.25
 74
     0
 49
0.0
 74
     0
 49
-0.25
 74
     0
  0
LTYPE
  5
AFE0
330
5
100
AcDbSymbolTableRecord
100
AcDbLinetypeTableRecord
  2
PHANTOM2
 70
     0
  3
Phantom (.5x) ___ _ _ ___ _ _ ___ _ _ ___ _ _
 72
    65
 73
     6
 40
1.25
 49
0.625
 74
     0
 49
-0.125
 74
     0
 49
0.125
 74
     0
 49
-0.125
 74
     0
 49
0.125
 74
     0
 49
-0.125
 74
     0
  0
LTYPE
  5
B015
330
5
100
AcDbSymbolTableRecord
100
AcDbLinetypeTableRecord
  2
AM_ISO08W050
 70
     0
  3
____ . ____ . ____ . ____ . ____ . ____ . ____
 72
    65
 73
     4
 40
18.0
 49
12.0
 74
     0
 49
-1.5
 74
     0
 49
3.0
 74
     0
 49
-1.5
 74
     0
  0
LTYPE
  5
B017
330
5
100
AcDbSymbolTableRecord
100
AcDbLinetypeTableRecord
  2
Amconstr
 70
     0
  3
_______________________
 72
    65
 73
     2
 40
9999.0
 49
9999.0
 74
     0
 49
0.0
 74
     0
  0
LTYPE
  5
B01D
330
5
100
AcDbSymbolTableRecord
100
AcDbLinetypeTableRecord
  2
CENTER2
 70
     0
  3
Center (.5x) ___ _ ___ _ ___ _ ___ _ ___ _ ___
 72
    65
 73
     4
 40
1.125
 49
0.75
 74
     0
 49
-0.125
 74
     0
 49
0.125
 74
     0
 49
-0.125
 74
     0
  0
LTYPE
  5
B01E
330
5
100
AcDbSymbolTableRecord
100
AcDbLinetypeTableRecord
  2
HIDDEN2
 70
     0
  3
Hidden (.5x) _ _ _ _ _ _ _ _ _ _ _ _ _ _ _ _ _
 72
    65
 73
     2
 40
0.1875
 49
0.125
 74
     0
 49
-0.0625
 74
     0
  0
LTYPE
  5
B01F
330
5
100
AcDbSymbolTableRecord
100
AcDbLinetypeTableRecord
  2
Amzigzag2
 70
     0
  3
/\/-/\/-/\/-/\/-/\/-/\/
 72
    65
 73
     2
 40
0.4401
 49
0.0001
 74
     4
 75
   136
340
B01B
 46
0.0016
 50
0.0
 44
0.0
 45
0.0
 49
-0.4400000000000001
 74
     0
  0
LTYPE
  5
B02D
330
5
100
AcDbSymbolTableRecord
100
AcDbLinetypeTableRecord
  2
ACANSTGB
 70
     0
  3
__ . . __ . .
 72
    65
 73
     6
 40
0.35433070866
 49
0.15748031496
 74
     0
 49
-0.03937007874
 74
     0
 49
0.03937007874
 74
     0
 49
-0.03937007874
 74
     0
 49
0.03937007874
 74
     0
 49
-0.03937007874
 74
     0
  0
LTYPE
  5
B02E
330
5
100
AcDbSymbolTableRecord
100
AcDbLinetypeTableRecord
  2
ACANSTGL
 70
     0
  3
_ _ _ _ _
 72
    65
 73
     2
 40
0.11811023622
 49
0.07874015748
 74
     0
 49
-0.03937007874
 74
     0
  0
LTYPE
  5
BBC2
330
5
100
AcDbSymbolTableRecord
100
AcDbLinetypeTableRecord
  2
ACDINWELD
 70
     0
  3
_ _ _ _ _
 72
    65
 73
     2
 40
2.0
 49
2.0
 74
     0
 49
-1.0
 74
     0
  0
LTYPE
  5
BBC3
330
5
100
AcDbSymbolTableRecord
100
AcDbLinetypeTableRecord
  2
ACDINTGB
 70
     0
  3
__ . . __ . .
 72
    65
 73
     6
 40
9.0
 49
4.0
 74
     0
 49
-1.0
 74
     0
 49
1.0
 74
     0
 49
-1.0
 74
     0
 49
1.0
 74
     0
 49
-1.0
 74
     0
  0
LTYPE
  5
BBC4
330
5
100
AcDbSymbolTableRecord
100
AcDbLinetypeTableRecord
  2
ACDINTGL
 70
     0
  3
_ _ _ _ _
 72
    65
 73
     2
 40
3.0
 49
2.0
 74
     0
 49
-1.0
 74
     0
  0
ENDTAB
  0
TABLE
  2
LAYER
  5
2
102
{ACAD_XDICTIONARY
360
CC42
102
}
330
0
100
AcDbSymbolTable
 70
    11
  0
LAYER
  5
10
330
2
100
AcDbSymbolTableRecord
100
AcDbLayerTableRecord
  2
0
 70
     0
 62
     7
  6
Continuous
370
    -3
390
F
  0
LAYER
  5
187
330
2
100
AcDbSymbolTableRecord
100
AcDbLayerTableRecord
  2
Defpoints
 70
     0
 62
     7
  6
Continuous
290
     0
370
    -3
390
F
  0
LAYER
  5
A1BA
330
2
100
AcDbSymbolTableRecord
100
AcDbLayerTableRecord
  2
3A
 70
     0
 62
     6
  6
Continuous
370
    -3
390
F
  0
LAYER
  5
A1BC
330
2
100
AcDbSymbolTableRecord
100
AcDbLayerTableRecord
  2
6
 70
     0
 62
     2
  6
Continuous
370
    -3
390
F
  0
LAYER
  5
A1BD
330
2
100
AcDbSymbolTableRecord
100
AcDbLayerTableRecord
  2
7A
 70
     0
 62
     4
  6
GEN7A
370
    -3
390
F
  0
LAYER
  5
A1BE
330
2
100
AcDbSymbolTableRecord
100
AcDbLayerTableRecord
  2
8
 70
     0
 62
     1
  6
Continuous
370
    -3
390
F
  0
LAYER
  5
A1C0
330
2
100
AcDbSymbolTableRecord
100
AcDbLayerTableRecord
  2
Schnitt
 70
     0
 62
     5
  6
STRICHPUNKT
370
    -3
390
F
  0
LAYER
  5
C71D
330
2
100
AcDbSymbolTableRecord
100
AcDbLayerTableRecord
  2
AM_5
 70
     0
 62
     3
  6
Continuous
370
    15
390
F
1001
AcAecLayerStandard
1000

1000

  0
LAYER
  5
CC47
330
2
100
AcDbSymbolTableRecord
100
AcDbLayerTableRecord
  2
AM_8
 70
     0
 62
     1
  6
Continuous
370
    15
390
F
1001
AcAecLayerStandard
1000

1000

  0
LAYER
  5
D10D
330
2
100
AcDbSymbolTableRecord
100
AcDbLayerTableRecord
  2
AM_0
 70
     0
 62
     7
  6
Continuous
370
    30
390
F
1001
AcAecLayerStandard
1000

1000

  0
LAYER
  5
D10F
330
2
100
AcDbSymbolTableRecord
100
AcDbLayerTableRecord
  2
AM_4
 70
     0
 62
     3
  6
Continuous
370
    15
390
F
1001
AcAecLayerStandard
1000

1000

  0
ENDTAB
  0
TABLE
  2
STYLE
  5
3
330
0
100
AcDbSymbolTable
 70
     8
  0
STYLE
  5
11
330
3
100
AcDbSymbolTableRecord
100
AcDbTextStyleTableRecord
  2
Standard
 70
     0
 40
0.0
 41
1.0
 50
0.0
 71
     0
 42
0.2
  3
txt
  4

  0
STYLE
  5
182
330
3
100
AcDbSymbolTableRecord
100
AcDbTextStyleTableRecord
  2
iso
 70
     0
 40
0.0
 41
1.0
 50
0.0
 71
     0
 42
0.2
  3
isocp.shx
  4

  0
STYLE
  5
4602
330
3
100
AcDbSymbolTableRecord
100
AcDbTextStyleTableRecord
  2
ISOCP
 70
     0
 40
0.0
 41
1.0
 50
0.0
 71
     0
 42
4.047062330212611
  3
isocp.shx
  4

  0
STYLE
  5
B01B
330
3
100
AcDbSymbolTableRecord
100
AcDbTextStyleTableRecord
  2

 70
     1
 40
0.0
 41
1.0
 50
0.0
 71
     0
 42
0.2
  3
genltshp.shx
  4

  0
STYLE
  5
B020
330
3
100
AcDbSymbolTableRecord
100
AcDbTextStyleTableRecord
  2
ACANSTS
 70
     0
 40
1.0
 41
1.0
 50
0.0
 71
     0
 42
0.2
  3
romans.shx
  4

  0
STYLE
  5
B02C
330
3
100
AcDbSymbolTableRecord
100
AcDbTextStyleTableRecord
  2
ACANSGDT
 70
     0
 40
0.0
 41
1.0
 50
0.0
 71
     0
 42
0.2
  3
AMGDT
  4

  0
STYLE
  5
BBC5
330
3
100
AcDbSymbolTableRecord
100
AcDbTextStyleTableRecord
  2
ACDINTS
 70
     0
 40
1.0
 41
1.0
 50
0.0
 71
     0
 42
2.5
  3
isocp.shx
  4

  0
STYLE
  5
BBC6
330
3
100
AcDbSymbolTableRecord
100
AcDbTextStyleTableRecord
  2
ACDINGDT
 70
     0
 40
0.0
 41
1.0
 50
0.0
 71
     0
 42
2.5
  3
AMGDT
  4

  0
ENDTAB
  0
TABLE
  2
VIEW
  5
6
330
0
100
AcDbSymbolTable
 70
     0
  0
ENDTAB
  0
TABLE
  2
UCS
  5
7
330
0
100
AcDbSymbolTable
 70
     0
  0
ENDTAB
  0
TABLE
  2
APPID
  5
9
330
0
100
AcDbSymbolTable
 70
    15
  0
APPID
  5
12
330
9
100
AcDbSymbolTableRecord
100
AcDbRegAppTableRecord
  2
ACAD
 70
     0
  0
APPID
  5
AFB1
330
9
100
AcDbSymbolTableRecord
100
AcDbRegAppTableRecord
  2
MCAD_NO_VIS
 70
     0
  0
APPID
  5
AFB2
330
9
100
AcDbSymbolTableRecord
100
AcDbRegAppTableRecord
  2
ACAD_TEMP_GRAPHIC
 70
     0
  0
APPID
  5
AFE2
330
9
100
AcDbSymbolTableRecord
100
AcDbRegAppTableRecord
  2
AD_DRAW
 70
     0
  0
APPID
  5
AFE5
330
9
100
AcDbSymbolTableRecord
100
AcDbRegAppTableRecord
  2
ACATTRIBSERVICES
 70
     0
  0
APPID
  5
B005
330
9
100
AcDbSymbolTableRecord
100
AcDbRegAppTableRecord
  2
DESIGNERASSEMBLIES
 70
     0
  0
APPID
  5
B00B
330
9
100
AcDbSymbolTableRecord
100
AcDbRegAppTableRecord
  2
ACADM_DIM_EDIT
 70
     0
  0
APPID
  5
B00C
330
9
100
AcDbSymbolTableRecord
100
AcDbRegAppTableRecord
  2
AMDT_DM_ADJ
 70
     0
  0
APPID
  5
B03A
330
9
100
AcDbSymbolTableRecord
100
AcDbRegAppTableRecord
  2
ACAD_DSTYLE_DIMARC_LENGTH_SYMBOL
 70
     0
  0
APPID
  5
B03B
330
9
100
AcDbSymbolTableRecord
100
AcDbRegAppTableRecord
  2
ACAD_DSTYLE_DIMJOGGED_JOGANGLE_SYMBOL
 70
     0
  0
APPID
  5
C71E
330
9
100
AcDbSymbolTableRecord
100
AcDbRegAppTableRecord
  2
AcAecLayerStandard
 70
     0
  0
APPID
  5
C920
330
9
100
AcDbSymbolTableRecord
100
AcDbRegAppTableRecord
  2
GENIUS_GENDTOL_13
 70
     0
  0
APPID
  5
CC48
330
9
100
AcDbSymbolTableRecord
100
AcDbRegAppTableRecord
  2
GENIUS_GENOBJ-N-HTC_13
 70
     0
  0
APPID
  5
CC49
330
9
100
AcDbSymbolTableRecord
100
AcDbRegAppTableRecord
  2
GENIUS_GENODEF_13
 70
     0
  0
APPID
  5
CC4A
330
9
100
AcDbSymbolTableRecord
100
AcDbRegAppTableRecord
  2
GENIUS_GENHATCH_13
 70
     0
  0
ENDTAB
  0
TABLE
  2
DIMSTYLE
  5
A
330
0
100
AcDbSymbolTable
 70
    15
100
AcDbDimStyleTable
 71
     1
340
A1C3
  0
DIMSTYLE
105
A1C3
330
A
100
AcDbSymbolTableRecord
100
AcDbDimStyleTableRecord
  2
LEADER
 70
     0
 40
30.0
 41
0.25
 42
0.0
 43
0.0
 44
0.1
 46
0.1
 73
     0
 74
     0
 77
     1
140
0.25
147
0.1
172
     1
176
   256
177
   256
178
     2
271
     0
272
     0
279
     2
340
4602
341
3F23
371
    -1
372
    -1
  0
DIMSTYLE
105
B039
330
A
100
AcDbSymbolTableRecord
100
AcDbDimStyleTableRecord
  2
AM_ANSI
 70
     0
  4
mm
 41
0.1
 42
0.05
 43
0.5
 44
0.1
 47
0.1
 48
0.1
 78
     7
 79
     2
140
0.12
141
0.0
146
0.71
147
0.06
176
   256
177
   256
178
     2
274
     4
284
     7
340
11
371
    -1
372
    -1
1001
ACAD_DSTYLE_DIMARC_LENGTH_SYMBOL
1070
   379
1070
     1
1001
ACAD_DSTYLE_DIMJOGGED_JOGANGLE_SYMBOL
1070
   384
1040
0.7853981633974483
  0
DIMSTYLE
105
B042
330
A
100
AcDbSymbolTableRecord
100
AcDbDimStyleTableRecord
  2
AM_ANSI$3
 70
     0
  4
mm
 41
0.1
 42
0.05
 43
0.5
 44
0.1
 47
0.1
 48
0.1
 78
     7
 79
     2
140
0.12
141
0.0
146
0.71
147
0.06
176
   256
177
   256
178
     2
274
     4
284
     7
288
     1
289
     0
340
11
371
    -1
372
    -1
1001
ACAD_DSTYLE_DIMARC_LENGTH_SYMBOL
1070
   379
1070
     1
1001
ACAD_DSTYLE_DIMJOGGED_JOGANGLE_SYMBOL
1070
   384
1040
0.7853981633974483
  0
DIMSTYLE
105
B045
330
A
100
AcDbSymbolTableRecord
100
AcDbDimStyleTableRecord
  2
AM_ANSI$4
 70
     0
  4
mm
 41
0.1
 42
0.05
 43
0.5
 44
0.1
 47
0.1
 48
0.1
 78
     7
 79
     2
140
0.12
141
0.0
146
0.71
147
0.06
176
   256
177
   256
178
     2
274
     4
284
     7
288
     1
289
     0
340
11
371
    -1
372
    -1
1001
ACAD_DSTYLE_DIMARC_LENGTH_SYMBOL
1070
   379
1070
     1
1001
ACAD_DSTYLE_DIMJOGGED_JOGANGLE_SYMBOL
1070
   384
1040
0.7853981633974483
  0
DIMSTYLE
105
B04A
330
A
100
AcDbSymbolTableRecord
100
AcDbDimStyleTableRecord
  2
AM_ANSI$7
 70
     0
  4
mm
 41
0.1
 42
0.05
 43
0.5
 44
0.1
 47
0.1
 48
0.1
 78
     7
 79
     2
140
0.24
141
0.0
146
0.71
147
0.06
176
   256
177
   256
178
     2
274
     4
284
     7
340
11
371
    -1
372
    -1
1001
ACAD_DSTYLE_DIMARC_LENGTH_SYMBOL
1070
   379
1070
     1
1001
ACAD_DSTYLE_DIMJOGGED_JOGANGLE_SYMBOL
1070
   384
1040
0.7853981633974483
  0
DIMSTYLE
105
B04D
330
A
100
AcDbSymbolTableRecord
100
AcDbDimStyleTableRecord
  2
AM_ANSI$SF
 70
     0
  4
mm
 41
0.1
 42
0.05
 43
0.5
 44
0.1
 47
0.1
 48
0.1
 75
     1
 76
     1
 78
     7
 79
     2
140
0.12
141
0.0
146
0.71
147
0.06
176
   256
177
   256
178
     2
274
     4
284
     7
340
11
371
    -1
372
    -1
1001
ACAD_DSTYLE_DIMARC_LENGTH_SYMBOL
1070
   379
1070
     1
1001
ACAD_DSTYLE_DIMJOGGED_JOGANGLE_SYMBOL
1070
   384
1040
0.7853981633974483
  0
DIMSTYLE
105
B054
330
A
100
AcDbSymbolTableRecord
100
AcDbDimStyleTableRecord
  2
AM_ANSI$SH
 70
     0
  4
mm
 41
0.1
 42
0.05
 43
0.5
 44
0.1
 47
0.1
 48
0.1
 75
     1
 76
     1
 78
     7
 79
     2
140
0.12
141
0.0
146
0.71
147
0.06
173
     1
176
   256
177
   256
178
     2
274
     4
284
     7
340
11
343
B04E
371
    -1
372
    -1
1001
ACAD_DSTYLE_DIMARC_LENGTH_SYMBOL
1070
   379
1070
     1
1001
ACAD_DSTYLE_DIMJOGGED_JOGANGLE_SYMBOL
1070
   384
1040
0.7853981633974483
  0
DIMSTYLE
105
BBC8
330
A
100
AcDbSymbolTableRecord
100
AcDbDimStyleTableRecord
  2
AM_DIN
 70
     0
  4
"
 41
2.5
 42
1.0
 43
10.0
 44
1.0
 47
0.1
 48
0.1
 73
     0
 74
     0
 77
     1
 78
     8
 79
     2
140
3.5
141
0.0
143
0.0393701
146
0.71
147
1.5
172
     1
176
   256
177
   256
178
     2
271
     2
272
     3
274
     4
283
     0
284
     8
340
11
371
    -1
372
    -1
1001
ACAD_DSTYLE_DIMARC_LENGTH_SYMBOL
1070
   379
1070
     0
1001
ACAD_DSTYLE_DIMJOGGED_JOGANGLE_SYMBOL
1070
   384
1040
1.570796326794896
  0
DIMSTYLE
105
BBC9
330
A
100
AcDbSymbolTableRecord
100
AcDbDimStyleTableRecord
  2
AM_DIN$3
 70
     0
  4
"
 41
2.5
 42
1.0
 43
10.0
 44
1.0
 47
0.1
 48
0.1
 73
     0
 77
     1
 78
     8
 79
     2
140
3.5
141
0.0
143
0.0393701
146
0.71
147
1.5
176
   256
177
   256
178
     2
271
     2
272
     3
274
     4
283
     0
284
     8
288
     1
289
     0
340
11
371
    -1
372
    -1
1001
ACAD_DSTYLE_DIMARC_LENGTH_SYMBOL
1070
   379
1070
     0
1001
ACAD_DSTYLE_DIMJOGGED_JOGANGLE_SYMBOL
1070
   384
1040
1.570796326794896
  0
DIMSTYLE
105
BBCA
330
A
100
AcDbSymbolTableRecord
100
AcDbDimStyleTableRecord
  2
AM_DIN$4
 70
     0
  4
"
 41
2.5
 42
1.0
 43
10.0
 44
1.0
 47
0.1
 48
0.1
 73
     0
 77
     1
 78
     8
 79
     2
140
3.5
141
0.0
143
0.0393701
146
0.71
147
1.5
176
   256
177
   256
178
     2
271
     2
272
     3
274
     4
283
     0
284
     8
288
     1
289
     0
340
11
371
    -1
372
    -1
1001
ACAD_DSTYLE_DIMARC_LENGTH_SYMBOL
1070
   379
1070
     0
1001
ACAD_DSTYLE_DIMJOGGED_JOGANGLE_SYMBOL
1070
   384
1040
1.570796326794896
  0
DIMSTYLE
105
BBCB
330
A
100
AcDbSymbolTableRecord
100
AcDbDimStyleTableRecord
  2
AM_DIN$6
 70
     0
  4
"
 41
2.5
 42
1.0
 43
10.0
 44
1.0
 47
0.1
 48
0.1
 73
     0
 74
     0
 78
     8
 79
     2
140
3.5
141
0.0
143
0.0393701
146
0.71
147
1.5
172
     1
176
   256
177
   256
178
     2
271
     2
272
     3
274
     4
283
     0
284
     8
340
11
371
    -1
372
    -1
1001
ACAD_DSTYLE_DIMARC_LENGTH_SYMBOL
1070
   379
1070
     0
1001
ACAD_DSTYLE_DIMJOGGED_JOGANGLE_SYMBOL
1070
   384
1040
1.570796326794896
  0
DIMSTYLE
105
BBCC
330
A
100
AcDbSymbolTableRecord
100
AcDbDimStyleTableRecord
  2
AM_DIN$7
 70
     0
  4
"
 41
2.5
 42
1.0
 43
10.0
 44
1.0
 47
0.1
 48
0.1
 73
     0
 74
     0
 77
     1
 78
     8
 79
     2
140
5.0
141
0.0
143
0.0393701
146
0.71
147
1.5
172
     1
176
   256
177
   256
178
     2
271
     2
272
     3
274
     4
283
     0
284
     8
340
11
371
    -1
372
    -1
1001
ACAD_DSTYLE_DIMARC_LENGTH_SYMBOL
1070
   379
1070
     0
1001
ACAD_DSTYLE_DIMJOGGED_JOGANGLE_SYMBOL
1070
   384
1040
1.570796326794896
  0
DIMSTYLE
105
BBCD
330
A
100
AcDbSymbolTableRecord
100
AcDbDimStyleTableRecord
  2
AM_DIN$SF
 70
     0
  4
"
 41
2.5
 42
1.0
 43
10.0
 44
1.0
 47
0.1
 48
0.1
 73
     0
 74
     0
 75
     1
 76
     1
 77
     1
 78
     8
 79
     2
140
3.5
141
0.0
143
0.0393701
146
0.71
147
1.5
172
     1
176
   256
177
   256
178
     2
271
     2
272
     3
274
     4
283
     0
284
     8
340
11
371
    -1
372
    -1
1001
ACAD_DSTYLE_DIMARC_LENGTH_SYMBOL
1070
   379
1070
     0
1001
ACAD_DSTYLE_DIMJOGGED_JOGANGLE_SYMBOL
1070
   384
1040
1.570796326794896
  0
DIMSTYLE
105
BBCE
330
A
100
AcDbSymbolTableRecord
100
AcDbDimStyleTableRecord
  2
AM_DIN$SH
 70
     0
  4
"
 41
2.5
 42
1.0
 43
10.0
 44
1.0
 47
0.1
 48
0.1
 73
     0
 74
     0
 75
     1
 76
     1
 77
     1
 78
     8
 79
     2
140
3.5
141
0.0
143
0.0393701
144
2.0
146
0.71
147
1.5
172
     1
173
     1
176
   256
177
   256
178
     2
271
     2
272
     3
274
     4
283
     0
284
     8
340
11
343
B04E
371
    -1
372
    -1
1001
ACAD_DSTYLE_DIMARC_LENGTH_SYMBOL
1070
   379
1070
     0
1001
ACAD_DSTYLE_DIMJOGGED_JOGANGLE_SYMBOL
1070
   384
1040
1.570796326794896
  0
DIMSTYLE
105
C988
102
{ACAD_REACTORS
330
C98C
330
111D
330
C8C4
330
AD5
330
269A
330
2E41
330
CA53
330
CA98
330
D58
330
CAEF
330
CFBF
330
D0A4
102
}
330
A
100
AcDbSymbolTableRecord
100
AcDbDimStyleTableRecord
  2
LEADER$0
 70
     0
 40
30.0
 41
0.25
 42
0.0
 43
0.0
 44
0.1
 46
0.1
 73
     0
 74
     0
 77
     1
140
0.25
147
0.1
172
     1
176
   256
177
   256
178
     2
271
     0
272
     0
279
     2
340
4602
341
3F23
371
    -1
372
    -1
  0
ENDTAB
  0
TABLE
  2
BLOCK_RECORD
  5
1
330
0
100
AcDbSymbolTable
 70
    16
  0
BLOCK_RECORD
  5
1F
102
{ACAD_XDICTIONARY
360
662B
102
}
330
1
100
AcDbSymbolTableRecord
100
AcDbBlockTableRecord
  2
*Model_Space
340
22
  0
BLOCK_RECORD
  5
58
330
1
100
AcDbSymbolTableRecord
100
AcDbBlockTableRecord
  2
*Paper_Space
340
59
  0
BLOCK_RECORD
  5
5D
330
1
100
AcDbSymbolTableRecord
100
AcDbBlockTableRecord
  2
*Paper_Space0
340
5E
  0
BLOCK_RECORD
  5
AD6
330
1
100
AcDbSymbolTableRecord
100
AcDbBlockTableRecord
  2
*D1
340
0
  0
BLOCK_RECORD
  5
D59
330
1
100
AcDbSymbolTableRecord
100
AcDbBlockTableRecord
  2
*D2
340
0
  0
BLOCK_RECORD
  5
111E
330
1
100
AcDbSymbolTableRecord
100
AcDbBlockTableRecord
  2
*D3
340
0
  0
BLOCK_RECORD
  5
269B
330
1
100
AcDbSymbolTableRecord
100
AcDbBlockTableRecord
  2
*D4
340
0
  0
BLOCK_RECORD
  5
3F23
330
1
100
AcDbSymbolTableRecord
100
AcDbBlockTableRecord
  2
_None
340
0
  0
BLOCK_RECORD
  5
7E9D
330
1
100
AcDbSymbolTableRecord
100
AcDbBlockTableRecord
  2
*D6
340
0
  0
BLOCK_RECORD
  5
B04E
330
1
100
AcDbSymbolTableRecord
100
AcDbBlockTableRecord
  2
GENAXEH
340
0
  0
BLOCK_RECORD
  5
C8CB
330
1
100
AcDbSymbolTableRecord
100
AcDbBlockTableRecord
  2
*D9
340
0
  0
BLOCK_RECORD
  5
C98D
330
1
100
AcDbSymbolTableRecord
100
AcDbBlockTableRecord
  2
*D10
340
0
  0
BLOCK_RECORD
  5
CA54
330
1
100
AcDbSymbolTableRecord
100
AcDbBlockTableRecord
  2
*D11
340
0
  0
BLOCK_RECORD
  5
CA99
330
1
100
AcDbSymbolTableRecord
100
AcDbBlockTableRecord
  2
*D12
340
0
  0
BLOCK_RECORD
  5
CAF0
330
1
100
AcDbSymbolTableRecord
100
AcDbBlockTableRecord
  2
*D13
340
0
  0
BLOCK_RECORD
  5
CFC0
330
1
100
AcDbSymbolTableRecord
100
AcDbBlockTableRecord
  2
*D14
340
0
  0
BLOCK_RECORD
  5
D0A5
330
1
100
AcDbSymbolTableRecord
100
AcDbBlockTableRecord
  2
*D15
340
0
  0
ENDTAB
  0
ENDSEC
  0
SECTION
  2
BLOCKS
  0
BLOCK
  5
20
330
1F
100
AcDbEntity
  8
0
100
AcDbBlockBegin
  2
*Model_Space
 70
     0
 10
0.0
 20
0.0
 30
0.0
  3
*Model_Space
  1

  0
ENDBLK
  5
21
330
1F
100
AcDbEntity
  8
0
100
AcDbBlockEnd
  0
BLOCK
  5
5A
330
58
100
AcDbEntity
 67
     1
  8
0
100
AcDbBlockBegin
  2
*Paper_Space
 70
     0
 10
0.0
 20
0.0
 30
0.0
  3
*Paper_Space
  1

  0
ENDBLK
  5
5B
330
58
100
AcDbEntity
 67
     1
  8
0
100
AcDbBlockEnd
  0
BLOCK
  5
5F
330
5D
100
AcDbEntity
 67
     1
  8
0
100
AcDbBlockBegin
  2
*Paper_Space0
 70
     0
 10
0.0
 20
0.0
 30
0.0
  3
*Paper_Space0
  1

  0
ENDBLK
  5
60
330
5D
100
AcDbEntity
 67
     1
  8
0
100
AcDbBlockEnd
  0
BLOCK
  5
AE1
330
AD6
100
AcDbEntity
  8
0
100
AcDbBlockBegin
  2
*D1
 70
     1
 10
0.0
 20
0.0
 30
0.0
  3
*D1
  1

  0
LINE
  5
CA16
330
AD6
100
AcDbEntity
  8
AM_5
100
AcDbLine
 10
73.98746392920384
 20
534.4999999999999
 30
0.0
 11
73.98746392920384
 21
582.0588513173843
 31
0.0
  0
LINE
  5
CA17
330
AD6
100
AcDbEntity
  8
AM_5
100
AcDbLine
 10
375.9874639292038
 20
534.4999999999999
 30
0.0
 11
375.9874639292038
 21
582.0588513173843
 31
0.0
  0
LINE
  5
CA18
330
AD6
100
AcDbEntity
  8
AM_5
100
AcDbLine
 10
81.48746392920385
 20
579.0588513173843
 30
0.0
 11
368.4874639292038
 21
579.0588513173843
 31
0.0
  0
SOLID
  5
CA19
330
AD6
100
AcDbEntity
  8
AM_5
100
AcDbTrace
 10
81.48746392920385
 20
580.3088513173843
 30
0.0
 11
81.48746392920385
 21
577.8088513173843
 31
0.0
 12
73.98746392920384
 22
579.0588513173843
 32
0.0
 13
73.98746392920384
 23
579.0588513173843
 33
0.0
  0
SOLID
  5
CA1A
330
AD6
100
AcDbEntity
  8
AM_5
100
AcDbTrace
 10
368.4874639292038
 20
580.3088513173843
 30
0.0
 11
368.4874639292038
 21
577.8088513173843
 31
0.0
 12
375.9874639292038
 22
579.0588513173843
 32
0.0
 13
375.9874639292038
 23
579.0588513173843
 33
0.0
  0
MTEXT
  5
CA1B
330
AD6
100
AcDbEntity
  8
AM_5
 62
     2
100
AcDbMText
 10
260.6882344528604
 20
585.8095895063606
 30
0.0
 40
7.5
 41
0.0
 71
     5
 72
     1
  1
\A1;302
  7
ISOCP
 73
     1
 44
1.0
1001
ACAD
1000
MTEXTBEGIN
1070
    73
1070
     1
1070
    44
1040
1.0
1070
    74
1070
     0
1000
MTEXTEND
  0
POINT
  5
CA1C
330
AD6
100
AcDbEntity
  8
Defpoints
 62
     0
100
AcDbPoint
 10
73.98746392920384
 20
534.4999999999999
 30
0.0
  0
POINT
  5
CA1D
330
AD6
100
AcDbEntity
  8
Defpoints
 62
     0
100
AcDbPoint
 10
375.9874639292038
 20
534.4999999999999
 30
0.0
  0
POINT
  5
CA1E
330
AD6
100
AcDbEntity
  8
Defpoints
 62
     0
100
AcDbPoint
 10
375.9874639292038
 20
579.0588513173843
 30
0.0
  0
ENDBLK
  5
AE2
330
AD6
100
AcDbEntity
  8
0
100
AcDbBlockEnd
  0
BLOCK
  5
D64
330
D59
100
AcDbEntity
  8
0
100
AcDbBlockBegin
  2
*D2
 70
     1
 10
0.0
 20
0.0
 30
0.0
  3
*D2
  1

  0
LINE
  5
CAD7
330
D59
100
AcDbEntity
  8
AM_5
100
AcDbLine
 10
95.98746392920384
 20
244.4999999999999
 30
0.0
 11
16.93221818612076
 21
244.4999999999999
 31
0.0
  0
LINE
  5
CAD8
330
D59
100
AcDbEntity
  8
AM_5
100
AcDbLine
 10
73.98746392920384
 20
534.5000000000002
 30
0.0
 11
16.93221818612082
 21
534.5000000000002
 31
0.0
  0
LINE
  5
CAD9
330
D59
100
AcDbEntity
  8
AM_5
100
AcDbLine
 10
19.93221818612077
 20
251.9999999999999
 30
0.0
 11
19.93221818612083
 21
527.0000000000002
 31
0.0
  0
SOLID
  5
CADA
330
D59
100
AcDbEntity
  8
AM_5
100
AcDbTrace
 10
18.68221818612077
 20
251.9999999999999
 30
0.0
 11
21.18221818612077
 21
251.9999999999999
 31
0.0
 12
19.93221818612076
 22
244.4999999999999
 32
0.0
 13
19.93221818612076
 23
244.4999999999999
 33
0.0
  0
SOLID
  5
CADB
330
D59
100
AcDbEntity
  8
AM_5
100
AcDbTrace
 10
18.68221818612083
 20
527.0000000000002
 30
0.0
 11
21.18221818612083
 21
527.0000000000002
 31
0.0
 12
19.93221818612083
 22
534.5000000000002
 32
0.0
 13
19.93221818612083
 23
534.5000000000002
 33
0.0
  0
MTEXT
  5
CADC
330
D59
100
AcDbEntity
  8
AM_5
 62
     2
100
AcDbMText
 10
13.18147999714436
 20
413.2118990370391
 30
0.0
 40
7.5
 41
0.0
 71
     5
 72
     1
  1
\A1;290
  7
ISOCP
 11
0.0000000000000001
 21
1.0
 31
0.0
 73
     1
 44
1.0
1001
ACAD
1000
MTEXTBEGIN
1070
    73
1070
     1
1070
    44
1040
1.0
1070
    74
1070
     0
1000
MTEXTEND
  0
POINT
  5
CADD
330
D59
100
AcDbEntity
  8
Defpoints
 62
     0
100
AcDbPoint
 10
95.98746392920384
 20
244.4999999999999
 30
0.0
  0
POINT
  5
CADE
330
D59
100
AcDbEntity
  8
Defpoints
 62
     0
100
AcDbPoint
 10
73.98746392920384
 20
534.5000000000002
 30
0.0
  0
POINT
  5
CADF
330
D59
100
AcDbEntity
  8
Defpoints
 62
     0
100
AcDbPoint
 10
19.93221818612083
 20
534.5000000000002
 30
0.0
  0
ENDBLK
  5
D65
330
D59
100
AcDbEntity
  8
0
100
AcDbBlockEnd
  0
BLOCK
  5
1129
330
111E
100
AcDbEntity
  8
0
100
AcDbBlockBegin
  2
*D3
 70
     1
 10
0.0
 20
0.0
 30
0.0
  3
*D3
  1

  0
LINE
  5
CE17
330
111E
100
AcDbEntity
  8
AM_5
100
AcDbLine
 10
370.9874639292038
 20
288.3
 30
0.0
 11
370.9874639292038
 21
192.7031242256844
 31
0.0
  0
LINE
  5
CE18
330
111E
100
AcDbEntity
  8
AM_5
100
AcDbLine
 10
74.98746392920385
 20
282.1
 30
0.0
 11
74.98746392920385
 21
192.7031242256844
 31
0.0
  0
LINE
  5
CE19
330
111E
100
AcDbEntity
  8
AM_5
100
AcDbLine
 10
363.4874639292038
 20
195.7031242256844
 30
0.0
 11
82.48746392920386
 21
195.7031242256844
 31
0.0
  0
SOLID
  5
CE1A
330
111E
100
AcDbEntity
  8
AM_5
100
AcDbTrace
 10
363.4874639292038
 20
196.9531242256844
 30
0.0
 11
363.4874639292038
 21
194.4531242256844
 31
0.0
 12
370.9874639292038
 22
195.7031242256844
 32
0.0
 13
370.9874639292038
 23
195.7031242256844
 33
0.0
  0
SOLID
  5
CE1B
330
111E
100
AcDbEntity
  8
AM_5
100
AcDbTrace
 10
82.48746392920386
 20
196.9531242256844
 30
0.0
 11
82.48746392920386
 21
194.4531242256844
 31
0.0
 12
74.98746392920385
 22
195.7031242256844
 32
0.0
 13
74.98746392920385
 23
195.7031242256844
 33
0.0
  0
MTEXT
  5
CE1C
330
111E
100
AcDbEntity
  8
AM_5
 62
     2
100
AcDbMText
 10
219.600755914169
 20
202.4538624146608
 30
0.0
 40
7.5
 41
0.0
 71
     5
 72
     1
  1
\A1;296
  7
ISOCP
 73
     1
 44
1.0
1001
ACAD
1000
MTEXTBEGIN
1070
    73
1070
     1
1070
    44
1040
1.0
1070
    74
1070
     0
1000
MTEXTEND
  0
POINT
  5
CE1D
330
111E
100
AcDbEntity
  8
Defpoints
 62
     0
100
AcDbPoint
 10
370.9874639292038
 20
288.3
 30
0.0
  0
POINT
  5
CE1E
330
111E
100
AcDbEntity
  8
Defpoints
 62
     0
100
AcDbPoint
 10
74.98746392920385
 20
282.1
 30
0.0
  0
POINT
  5
CE1F
330
111E
100
AcDbEntity
  8
Defpoints
 62
     0
100
AcDbPoint
 10
74.98746392920385
 20
195.7031242256844
 30
0.0
  0
ENDBLK
  5
112A
330
111E
100
AcDbEntity
  8
0
100
AcDbBlockEnd
  0
BLOCK
  5
26A6
330
269B
100
AcDbEntity
  8
0
100
AcDbBlockBegin
  2
*D4
 70
     1
 10
0.0
 20
0.0
 30
0.0
  3
*D4
  1

  0
LINE
  5
D055
330
269B
100
AcDbEntity
  8
AM_5
100
AcDbLine
 10
493.0872268977183
 20
504.7801638839929
 30
0.0
 11
553.139257795367
 21
501.1072243289344
 31
0.0
  0
LINE
  5
D056
330
269B
100
AcDbEntity
  8
AM_5
100
AcDbLine
 10
486.3718875488832
 20
394.9853360575874
 30
0.0
 11
546.423918446532
 21
391.3123965025289
 31
0.0
  0
LINE
  5
D057
330
269B
100
AcDbEntity
  8
AM_5
100
AcDbLine
 10
549.6869893535899
 20
493.8043589593751
 30
0.0
 11
543.8873780977778
 21
398.9815531092975
 31
0.0
  0
SOLID
  5
D058
330
269B
100
AcDbEntity
  8
AM_5
100
AcDbTrace
 10
548.4393208555626
 20
493.8806696337937
 30
0.0
 11
550.9346578516173
 21
493.7280482849565
 31
0.0
 12
550.1448534001013
 22
501.290369947539
 32
0.0
 13
550.1448534001013
 23
501.290369947539
 33
0.0
  0
SOLID
  5
D059
330
269B
100
AcDbEntity
  8
AM_5
100
AcDbTrace
 10
542.6397095997505
 20
399.0578637837161
 30
0.0
 11
545.1350465958052
 21
398.9052424348789
 31
0.0
 12
543.4295140512664
 22
391.4955421211335
 32
0.0
 13
543.4295140512664
 23
391.4955421211335
 33
0.0
  0
MTEXT
  5
D05A
330
269B
100
AcDbEntity
  8
AM_5
 62
     2
100
AcDbMText
 10
539.5308459999434
 20
438.3206385486481
 30
0.0
 40
7.5
 41
0.0
 71
     5
 72
     1
  1
\A1;ø110
  7
ISOCP
 11
0.0610485395348638
 21
0.9981347984218665
 31
0.0
 73
     1
 44
1.0
1001
ACAD
1000
MTEXTBEGIN
1070
    73
1070
     1
1070
    44
1040
1.0
1070
    74
1070
     0
1000
MTEXTEND
  0
POINT
  5
D05B
330
269B
100
AcDbEntity
  8
Defpoints
 62
     0
100
AcDbPoint
 10
493.0872268977183
 20
504.7801638839929
 30
0.0
  0
POINT
  5
D05C
330
269B
100
AcDbEntity
  8
Defpoints
 62
     0
100
AcDbPoint
 10
486.3718875488832
 20
394.9853360575874
 30
0.0
  0
POINT
  5
D05D
330
269B
100
AcDbEntity
  8
Defpoints
 62
     0
100
AcDbPoint
 10
543.4295140512664
 20
391.4955421211335
 30
0.0
  0
ENDBLK
  5
26A7
330
269B
100
AcDbEntity
  8
0
100
AcDbBlockEnd
  0
BLOCK
  5
3F24
330
3F23
100
AcDbEntity
  8
0
100
AcDbBlockBegin
  2
_None
 70
     0
 10
0.0
 20
0.0
 30
0.0
  3
_None
  1

  0
ENDBLK
  5
3F25
330
3F23
100
AcDbEntity
  8
0
100
AcDbBlockEnd
  0
BLOCK
  5
7EA7
330
7E9D
100
AcDbEntity
  8
0
100
AcDbBlockBegin
  2
*D6
 70
     1
 10
0.0
 20
0.0
 30
0.0
  3
*D6
  1

  0
LINE
  5
C9EF
330
7E9D
100
AcDbEntity
  8
AM_5
100
AcDbLine
 10
358.7874639292006
 20
434.4999999999997
 30
0.0
 11
339.8874639292038
 21
434.4999999999997
 31
0.0
  0
LINE
  5
C9F0
330
7E9D
100
AcDbEntity
  8
AM_5
100
AcDbLine
 10
307.9874639292039
 20
274.5
 30
0.0
 11
345.8874639292038
 21
274.5
 31
0.0
  0
LINE
  5
C9F1
330
7E9D
100
AcDbEntity
  8
AM_5
100
AcDbLine
 10
342.8874639292038
 20
426.9999999999997
 30
0.0
 11
342.8874639292037
 21
282.0
 31
0.0
  0
SOLID
  5
C9F2
330
7E9D
100
AcDbEntity
  8
AM_5
100
AcDbTrace
 10
341.6374639292038
 20
426.9999999999997
 30
0.0
 11
344.1374639292038
 21
426.9999999999997
 31
0.0
 12
342.8874639292038
 22
434.4999999999997
 32
0.0
 13
342.8874639292038
 23
434.4999999999997
 33
0.0
  0
SOLID
  5
C9F3
330
7E9D
100
AcDbEntity
  8
AM_5
100
AcDbTrace
 10
341.6374639292038
 20
282.0
 30
0.0
 11
344.1374639292038
 21
282.0
 31
0.0
 12
342.8874639292037
 22
274.5
 32
0.0
 13
342.8874639292037
 23
274.5
 33
0.0
  0
MTEXT
  5
C9F4
330
7E9D
100
AcDbEntity
  8
AM_5
 62
     2
100
AcDbMText
 10
336.1374639292037
 20
354.4999999999999
 30
0.0
 40
7.5
 41
0.0
 71
     5
 72
     1
  1
\A1;160
  7
ISOCP
 11
0.0000000000000001
 21
1.0
 31
0.0
 73
     1
 44
1.0
1001
ACAD
1000
MTEXTBEGIN
1070
    73
1070
     1
1070
    44
1040
1.0
1070
    74
1070
     0
1000
MTEXTEND
  0
POINT
  5
C9F5
330
7E9D
100
AcDbEntity
  8
Defpoints
 62
     0
100
AcDbPoint
 10
358.7874639292006
 20
434.4999999999997
 30
0.0
  0
POINT
  5
C9F6
330
7E9D
100
AcDbEntity
  8
Defpoints
 62
     0
100
AcDbPoint
 10
307.9874639292039
 20
274.5
 30
0.0
  0
POINT
  5
C9F7
330
7E9D
100
AcDbEntity
  8
Defpoints
 62
     0
100
AcDbPoint
 10
342.8874639292037
 20
274.5
 30
0.0
  0
ENDBLK
  5
7EA8
330
7E9D
100
AcDbEntity
  8
0
100
AcDbBlockEnd
  0
BLOCK
  5
B050
330
B04E
100
AcDbEntity
  8
0
100
AcDbBlockBegin
  2
GENAXEH
 70
     0
 10
0.0
 20
0.0
 30
0.0
  3
GENAXEH
  1

  0
LINE
  5
B04F
330
B04E
100
AcDbEntity
  8
0
100
AcDbLine
 10
-1.0
 20
0.0
 30
0.0
 11
1.0
 21
0.0
 31
0.0
  0
ENDBLK
  5
B051
330
B04E
100
AcDbEntity
  8
0
100
AcDbBlockEnd
  0
BLOCK
  5
C8D5
330
C8CB
100
AcDbEntity
  8
0
100
AcDbBlockBegin
  2
*D9
 70
     1
 10
0.0
 20
0.0
 30
0.0
  3
*D9
  1

  0
LINE
  5
C9BF
330
C8CB
100
AcDbEntity
  8
AM_5
100
AcDbLine
 10
81.98746392920407
 20
533.4999999999999
 30
0.0
 11
81.98746392920407
 21
555.1164035384045
 31
0.0
  0
LINE
  5
C9C0
330
C8CB
100
AcDbEntity
  8
AM_5
100
AcDbLine
 10
368.9874639292037
 20
533.4999999999999
 30
0.0
 11
368.9874639292037
 21
555.1164035384045
 31
0.0
  0
LINE
  5
C9C1
330
C8CB
100
AcDbEntity
  8
AM_5
100
AcDbLine
 10
89.48746392920407
 20
552.1164035384044
 30
0.0
 11
216.2719008853964
 21
552.1164035384044
 31
0.0
  0
LINE
  5
C9C2
330
C8CB
100
AcDbEntity
  8
AM_5
100
AcDbLine
 10
361.4874639292037
 20
552.1164035384044
 30
0.0
 11
235.9623536413019
 21
552.1164035384044
 31
0.0
  0
MTEXT
  5
C9C3
330
C8CB
100
AcDbEntity
  8
AM_5
 62
     2
100
AcDbMText
 10
226.1171272633492
 20
552.1164035384044
 30
0.0
 40
7.5
 41
0.0
 71
     5
 72
     1
  1
\A1;287
  7
ISOCP
 73
     1
 44
1.0
1001
ACAD
1000
MTEXTBEGIN
1070
    73
1070
     1
1070
    44
1040
1.0
1070
    74
1070
     0
1000
MTEXTEND
  0
SOLID
  5
C9C4
330
C8CB
100
AcDbEntity
  8
AM_5
100
AcDbTrace
 10
89.48746392920407
 20
553.3664035384044
 30
0.0
 11
89.48746392920407
 21
550.8664035384044
 31
0.0
 12
81.98746392920407
 22
552.1164035384044
 32
0.0
 13
81.98746392920407
 23
552.1164035384044
 33
0.0
  0
SOLID
  5
C9C5
330
C8CB
100
AcDbEntity
  8
AM_5
100
AcDbTrace
 10
361.4874639292037
 20
553.3664035384044
 30
0.0
 11
361.4874639292037
 21
550.8664035384044
 31
0.0
 12
368.9874639292037
 22
552.1164035384044
 32
0.0
 13
368.9874639292037
 23
552.1164035384044
 33
0.0
  0
POINT
  5
C9C6
330
C8CB
100
AcDbEntity
  8
Defpoints
 62
     0
100
AcDbPoint
 10
81.98746392920407
 20
533.4999999999999
 30
0.0
  0
POINT
  5
C9C7
330
C8CB
100
AcDbEntity
  8
Defpoints
 62
     0
100
AcDbPoint
 10
368.9874639292037
 20
533.4999999999999
 30
0.0
  0
POINT
  5
C9C8
330
C8CB
100
AcDbEntity
  8
Defpoints
 62
     0
100
AcDbPoint
 10
368.9874639292037
 20
552.1164035384044
 30
0.0
  0
ENDBLK
  5
C8D6
330
C8CB
100
AcDbEntity
  8
0
100
AcDbBlockEnd
  0
BLOCK
  5
C997
330
C98D
100
AcDbEntity
  8
0
100
AcDbBlockBegin
  2
*D10
 70
     1
 10
0.0
 20
0.0
 30
0.0
  3
*D10
  1

  0
LINE
  5
CAC4
330
C98D
100
AcDbEntity
  8
AM_5
100
AcDbLine
 10
83.53398268184383
 20
136.7083340092942
 30
0.0
 11
19.53521372467188
 21
136.7083340092943
 31
0.0
  0
LINE
  5
CAC5
330
C98D
100
AcDbEntity
  8
AM_5
100
AcDbLine
 10
83.53398268184383
 20
-40.49166599070566
 30
0.0
 11
19.53521372467184
 21
-40.49166599070563
 31
0.0
  0
LINE
  5
CAC6
330
C98D
100
AcDbEntity
  8
AM_5
100
AcDbLine
 10
22.53521372467187
 20
129.2083340092943
 30
0.0
 11
22.53521372467184
 21
-32.99166599070563
 31
0.0
  0
SOLID
  5
CAC7
330
C98D
100
AcDbEntity
  8
AM_5
100
AcDbTrace
 10
21.28521372467187
 20
129.2083340092943
 30
0.0
 11
23.78521372467187
 21
129.2083340092943
 31
0.0
 12
22.53521372467188
 22
136.7083340092943
 32
0.0
 13
22.53521372467188
 23
136.7083340092943
 33
0.0
  0
SOLID
  5
CAC8
330
C98D
100
AcDbEntity
  8
AM_5
100
AcDbTrace
 10
21.28521372467184
 20
-32.99166599070563
 30
0.0
 11
23.78521372467184
 21
-32.99166599070563
 31
0.0
 12
22.53521372467183
 22
-40.49166599070563
 32
0.0
 13
22.53521372467183
 23
-40.49166599070563
 33
0.0
  0
MTEXT
  5
CAC9
330
C98D
100
AcDbEntity
  8
AM_5
 62
     2
100
AcDbMText
 10
15.78521372467185
 20
52.43123487858975
 30
0.0
 40
7.5
 41
0.0
 71
     5
 72
     1
  1
\A1;177
  7
ISOCP
 11
0.0000000000000001
 21
1.0
 31
0.0
 73
     1
 44
1.0
1001
ACAD
1000
MTEXTBEGIN
1070
    73
1070
     1
1070
    44
1040
1.0
1070
    74
1070
     0
1000
MTEXTEND
  0
POINT
  5
CACA
330
C98D
100
AcDbEntity
  8
Defpoints
 62
     0
100
AcDbPoint
 10
83.53398268184383
 20
136.7083340092942
 30
0.0
  0
POINT
  5
CACB
330
C98D
100
AcDbEntity
  8
Defpoints
 62
     0
100
AcDbPoint
 10
83.53398268184383
 20
-40.49166599070566
 30
0.0
  0
POINT
  5
CACC
330
C98D
100
AcDbEntity
  8
Defpoints
 62
     0
100
AcDbPoint
 10
22.53521372467183
 20
-40.49166599070563
 30
0.0
  0
ENDBLK
  5
C998
330
C98D
100
AcDbEntity
  8
0
100
AcDbBlockEnd
  0
BLOCK
  5
CA5E
330
CA54
100
AcDbEntity
  8
0
100
AcDbBlockBegin
  2
*D11
 70
     1
 10
0.0
 20
0.0
 30
0.0
  3
*D11
  1

  0
LINE
  5
CE37
330
CA54
100
AcDbEntity
  8
AM_5
100
AcDbLine
 10
74.98746392920385
 20
148.6083340092944
 30
0.0
 11
-6.420096771824286
 21
148.6083340092945
 31
0.0
  0
LINE
  5
CE38
330
CA54
100
AcDbEntity
  8
AM_5
100
AcDbLine
 10
74.98746392920385
 20
-52.3916659907054
 30
0.0
 11
-6.42009677182433
 21
-52.39166599070538
 31
0.0
  0
LINE
  5
CE39
330
CA54
100
AcDbEntity
  8
AM_5
100
AcDbLine
 10
-3.420096771824294
 20
141.1083340092945
 30
0.0
 11
-3.420096771824335
 21
-44.89166599070538
 31
0.0
  0
SOLID
  5
CE3A
330
CA54
100
AcDbEntity
  8
AM_5
100
AcDbTrace
 10
-4.670096771824295
 20
141.1083340092945
 30
0.0
 11
-2.170096771824294
 21
141.1083340092945
 31
0.0
 12
-3.420096771824292
 22
148.6083340092945
 32
0.0
 13
-3.420096771824292
 23
148.6083340092945
 33
0.0
  0
SOLID
  5
CE3B
330
CA54
100
AcDbEntity
  8
AM_5
100
AcDbTrace
 10
-4.670096771824336
 20
-44.89166599070538
 30
0.0
 11
-2.170096771824335
 21
-44.89166599070538
 31
0.0
 12
-3.420096771824337
 22
-52.39166599070538
 32
0.0
 13
-3.420096771824337
 23
-52.39166599070538
 33
0.0
  0
MTEXT
  5
CE3C
330
CA54
100
AcDbEntity
  8
AM_5
 62
     2
100
AcDbMText
 10
-10.1708349608007
 20
48.10833400929457
 30
0.0
 40
7.5
 41
0.0
 71
     5
 72
     1
  1
\A1;200
  7
ISOCP
 11
0.0000000000000001
 21
1.0
 31
0.0
 73
     1
 44
1.0
1001
ACAD
1000
MTEXTBEGIN
1070
    73
1070
     1
1070
    44
1040
1.0
1070
    74
1070
     0
1000
MTEXTEND
  0
POINT
  5
CE3D
330
CA54
100
AcDbEntity
  8
Defpoints
 62
     0
100
AcDbPoint
 10
74.98746392920385
 20
148.6083340092944
 30
0.0
  0
POINT
  5
CE3E
330
CA54
100
AcDbEntity
  8
Defpoints
 62
     0
100
AcDbPoint
 10
74.98746392920385
 20
-52.3916659907054
 30
0.0
  0
POINT
  5
CE3F
330
CA54
100
AcDbEntity
  8
Defpoints
 62
     0
100
AcDbPoint
 10
-3.420096771824337
 20
-52.39166599070538
 30
0.0
  0
ENDBLK
  5
CA5F
330
CA54
100
AcDbEntity
  8
0
100
AcDbBlockEnd
  0
BLOCK
  5
CAA5
330
CA99
100
AcDbEntity
  8
0
100
AcDbBlockBegin
  2
*D12
 70
     1
 10
0.0
 20
0.0
 30
0.0
  3
*D12
  1

  0
LINE
  5
CAA7
330
CA99
100
AcDbEntity
  8
AM_5
100
AcDbLine
 10
98.48746392920332
 20
100.0583340092943
 30
0.0
 11
45.48684375812445
 21
100.0583340092943
 31
0.0
  0
LINE
  5
CAA8
330
CA99
100
AcDbEntity
  8
AM_5
100
AcDbLine
 10
98.48746392920345
 20
89.65833400929431
 30
0.0
 11
45.48684375812445
 21
89.65833400929433
 31
0.0
  0
LINE
  5
CAA9
330
CA99
100
AcDbEntity
  8
AM_5
100
AcDbLine
 10
48.48684375812446
 20
107.5583340092943
 30
0.0
 11
48.48684375812446
 21
115.0583340092943
 31
0.0
  0
LINE
  5
CAAA
330
CA99
100
AcDbEntity
  8
AM_5
100
AcDbLine
 10
48.48684375812446
 20
82.15833400929433
 30
0.0
 11
48.48684375812445
 21
74.65833400929433
 31
0.0
  0
MTEXT
  5
CAAB
330
CA99
100
AcDbEntity
  8
AM_5
 62
     2
100
AcDbMText
 10
37.23684375812445
 20
94.85833400929434
 30
0.0
 40
7.5
 41
0.0
 71
     5
 72
     1
  1
\A1;10
  7
ISOCP
 11
0.0000000000000001
 21
1.0
 31
0.0
 73
     1
 44
1.0
1001
ACAD
1000
MTEXTBEGIN
1070
    73
1070
     1
1070
    44
1040
1.0
1070
    74
1070
     0
1000
MTEXTEND
  0
LINE
  5
CAAC
330
CA99
100
AcDbEntity
  8
AM_5
100
AcDbLine
 10
48.48684375812446
 20
100.0583340092943
 30
0.0
 11
48.48684375812446
 21
89.65833400929433
 31
0.0
  0
SOLID
  5
CAAD
330
CA99
100
AcDbEntity
  8
AM_5
100
AcDbTrace
 10
47.23684375812445
 20
107.5583340092943
 30
0.0
 11
49.73684375812446
 21
107.5583340092943
 31
0.0
 12
48.48684375812446
 22
100.0583340092943
 32
0.0
 13
48.48684375812446
 23
100.0583340092943
 33
0.0
  0
SOLID
  5
CAAE
330
CA99
100
AcDbEntity
  8
AM_5
100
AcDbTrace
 10
47.23684375812445
 20
82.15833400929433
 30
0.0
 11
49.73684375812446
 21
82.15833400929433
 31
0.0
 12
48.48684375812446
 22
89.65833400929433
 32
0.0
 13
48.48684375812446
 23
89.65833400929433
 33
0.0
  0
POINT
  5
CAAF
330
CA99
100
AcDbEntity
  8
Defpoints
 62
     0
100
AcDbPoint
 10
98.48746392920332
 20
100.0583340092943
 30
0.0
  0
POINT
  5
CAB0
330
CA99
100
AcDbEntity
  8
Defpoints
 62
     0
100
AcDbPoint
 10
98.48746392920345
 20
89.65833400929431
 30
0.0
  0
POINT
  5
CAB1
330
CA99
100
AcDbEntity
  8
Defpoints
 62
     0
100
AcDbPoint
 10
48.48684375812446
 20
89.65833400929433
 30
0.0
  0
ENDBLK
  5
CAA6
330
CA99
100
AcDbEntity
  8
0
100
AcDbBlockEnd
  0
BLOCK
  5
CAFC
330
CAF0
100
AcDbEntity
  8
0
100
AcDbBlockBegin
  2
*D13
 70
     1
 10
0.0
 20
0.0
 30
0.0
  3
*D13
  1

  0
LINE
  5
CAFE
330
CAF0
100
AcDbEntity
  8
AM_5
100
AcDbLine
 10
73.98746392920384
 20
534.4999999999999
 30
0.0
 11
46.15684735959804
 21
534.4999999999999
 31
0.0
  0
LINE
  5
CAFF
330
CAF0
100
AcDbEntity
  8
AM_5
100
AcDbLine
 10
79.98746392920384
 20
517.4999999999999
 30
0.0
 11
46.15684735959803
 21
517.4999999999999
 31
0.0
  0
LINE
  5
CB00
330
CAF0
100
AcDbEntity
  8
AM_5
100
AcDbLine
 10
49.15684735959803
 20
542.0
 30
0.0
 11
49.15684735959803
 21
549.5
 31
0.0
  0
LINE
  5
CB01
330
CAF0
100
AcDbEntity
  8
AM_5
100
AcDbLine
 10
49.15684735959803
 20
510.0
 30
0.0
 11
49.15684735959803
 21
502.5
 31
0.0
  0
LINE
  5
CB02
330
CAF0
100
AcDbEntity
  8
AM_5
100
AcDbLine
 10
49.15684735959803
 20
534.4999999999999
 30
0.0
 11
49.15684735959803
 21
517.4999999999999
 31
0.0
  0
SOLID
  5
CB03
330
CAF0
100
AcDbEntity
  8
AM_5
100
AcDbTrace
 10
47.90684735959803
 20
542.0
 30
0.0
 11
50.40684735959803
 21
542.0
 31
0.0
 12
49.15684735959803
 22
534.4999999999999
 32
0.0
 13
49.15684735959803
 23
534.4999999999999
 33
0.0
  0
SOLID
  5
CB04
330
CAF0
100
AcDbEntity
  8
AM_5
100
AcDbTrace
 10
47.90684735959803
 20
510.0
 30
0.0
 11
50.40684735959803
 21
510.0
 31
0.0
 12
49.15684735959803
 22
517.4999999999999
 32
0.0
 13
49.15684735959803
 23
517.4999999999999
 33
0.0
  0
MTEXT
  5
CB05
330
CAF0
100
AcDbEntity
  8
AM_5
 62
     2
100
AcDbMText
 10
42.40684735959795
 20
526.0
 30
0.0
 40
7.5
 41
0.0
 71
     5
 72
     1
  1
\A1;17
  7
ISOCP
 11
0.0000000000000001
 21
1.0
 31
0.0
 73
     1
 44
1.0
1001
ACAD
1000
MTEXTBEGIN
1070
    73
1070
     1
1070
    44
1040
1.0
1070
    74
1070
     0
1000
MTEXTEND
  0
POINT
  5
CB06
330
CAF0
100
AcDbEntity
  8
Defpoints
 62
     0
100
AcDbPoint
 10
73.98746392920384
 20
534.4999999999999
 30
0.0
  0
POINT
  5
CB07
330
CAF0
100
AcDbEntity
  8
Defpoints
 62
     0
100
AcDbPoint
 10
79.98746392920384
 20
517.4999999999999
 30
0.0
  0
POINT
  5
CB08
330
CAF0
100
AcDbEntity
  8
Defpoints
 62
     0
100
AcDbPoint
 10
49.15684735959803
 20
517.4999999999999
 30
0.0
  0
ENDBLK
  5
CAFD
330
CAF0
100
AcDbEntity
  8
0
100
AcDbBlockEnd
  0
BLOCK
  5
CFCA
330
CFC0
100
AcDbEntity
  8
0
100
AcDbBlockBegin
  2
*D14
 70
     1
 10
0.0
 20
0.0
 30
0.0
  3
*D14
  1

  0
LINE
  5
D067
330
CFC0
100
AcDbEntity
  8
AM_5
100
AcDbLine
 10
495.9924364223229
 20
449.5812995438515
 30
0.0
 11
495.9924364223229
 21
607.5414597641672
 31
0.0
  0
LINE
  5
D068
330
CFC0
100
AcDbEntity
  8
AM_5
100
AcDbLine
 10
74.02136507389866
 20
535.3800927436293
 30
0.0
 11
74.02136507389866
 21
607.5414597641672
 31
0.0
  0
LINE
  5
D069
330
CFC0
100
AcDbEntity
  8
AM_5
100
AcDbLine
 10
488.4924364223229
 20
604.5414597641673
 30
0.0
 11
81.52136507389867
 21
604.5414597641673
 31
0.0
  0
SOLID
  5
D06A
330
CFC0
100
AcDbEntity
  8
AM_5
100
AcDbTrace
 10
488.4924364223229
 20
605.7914597641672
 30
0.0
 11
488.4924364223229
 21
603.2914597641672
 31
0.0
 12
495.9924364223229
 22
604.5414597641673
 32
0.0
 13
495.9924364223229
 23
604.5414597641673
 33
0.0
  0
SOLID
  5
D06B
330
CFC0
100
AcDbEntity
  8
AM_5
100
AcDbTrace
 10
81.52136507389867
 20
605.7914597641672
 30
0.0
 11
81.52136507389867
 21
603.2914597641672
 31
0.0
 12
74.02136507389866
 22
604.5414597641673
 32
0.0
 13
74.02136507389866
 23
604.5414597641673
 33
0.0
  0
MTEXT
  5
D06C
330
CFC0
100
AcDbEntity
  8
AM_5
 62
     2
100
AcDbMText
 10
291.4025233333603
 20
611.2921979531436
 30
0.0
 40
7.5
 41
0.0
 71
     5
 72
     1
  1
\A1;422
  7
ISOCP
 73
     1
 44
1.0
1001
ACAD
1000
MTEXTBEGIN
1070
    73
1070
     1
1070
    44
1040
1.0
1070
    74
1070
     0
1000
MTEXTEND
  0
POINT
  5
D06D
330
CFC0
100
AcDbEntity
  8
Defpoints
 62
     0
100
AcDbPoint
 10
495.9924364223229
 20
449.5812995438515
 30
0.0
  0
POINT
  5
D06E
330
CFC0
100
AcDbEntity
  8
Defpoints
 62
     0
100
AcDbPoint
 10
74.02136507389866
 20
535.3800927436293
 30
0.0
  0
POINT
  5
D06F
330
CFC0
100
AcDbEntity
  8
Defpoints
 62
     0
100
AcDbPoint
 10
74.02136507389866
 20
604.5414597641673
 30
0.0
  0
ENDBLK
  5
CFCB
330
CFC0
100
AcDbEntity
  8
0
100
AcDbBlockEnd
  0
BLOCK
  5
D0AF
330
D0A5
100
AcDbEntity
  8
0
100
AcDbBlockBegin
  2
*D15
 70
     1
 10
0.0
 20
0.0
 30
0.0
  3
*D15
  1

  0
LINE
  5
D0B1
330
D0A5
100
AcDbEntity
  8
AM_5
100
AcDbLine
 10
375.9874639292038
 20
534.4999999999999
 30
0.0
 11
570.7072755043427
 21
534.4999999999999
 31
0.0
  0
LINE
  5
D0B2
330
D0A5
100
AcDbEntity
  8
AM_5
100
AcDbLine
 10
496.0213650738986
 20
449.5795301917237
 30
0.0
 11
570.7072755043427
 21
449.5795301917237
 31
0.0
  0
LINE
  5
D0B3
330
D0A5
100
AcDbEntity
  8
AM_5
100
AcDbLine
 10
567.7072755043427
 20
527.0
 30
0.0
 11
567.7072755043427
 21
457.0795301917236
 31
0.0
  0
SOLID
  5
D0B4
330
D0A5
100
AcDbEntity
  8
AM_5
100
AcDbTrace
 10
566.4572755043427
 20
527.0
 30
0.0
 11
568.9572755043427
 21
527.0
 31
0.0
 12
567.7072755043427
 22
534.4999999999999
 32
0.0
 13
567.7072755043427
 23
534.4999999999999
 33
0.0
  0
SOLID
  5
D0B5
330
D0A5
100
AcDbEntity
  8
AM_5
100
AcDbTrace
 10
566.4572755043427
 20
457.0795301917236
 30
0.0
 11
568.9572755043427
 21
457.0795301917236
 31
0.0
 12
567.7072755043427
 22
449.5795301917237
 32
0.0
 13
567.7072755043427
 23
449.5795301917237
 33
0.0
  0
MTEXT
  5
D0B6
330
D0A5
100
AcDbEntity
  8
AM_5
 62
     2
100
AcDbMText
 10
560.9572755043426
 20
492.0397650958618
 30
0.0
 40
7.5
 41
0.0
 71
     5
 72
     1
  1
\A1;85
  7
ISOCP
 11
0.0000000000000001
 21
1.0
 31
0.0
 73
     1
 44
1.0
1001
ACAD
1000
MTEXTBEGIN
1070
    73
1070
     1
1070
    44
1040
1.0
1070
    74
1070
     0
1000
MTEXTEND
  0
POINT
  5
D0B7
330
D0A5
100
AcDbEntity
  8
Defpoints
 62
     0
100
AcDbPoint
 10
375.9874639292038
 20
534.4999999999999
 30
0.0
  0
POINT
  5
D0B8
330
D0A5
100
AcDbEntity
  8
Defpoints
 62
     0
100
AcDbPoint
 10
496.0213650738986
 20
449.5795301917237
 30
0.0
  0
POINT
  5
D0B9
330
D0A5
100
AcDbEntity
  8
Defpoints
 62
     0
100
AcDbPoint
 10
567.7072755043427
 20
449.5795301917237
 30
0.0
  0
ENDBLK
  5
D0B0
330
D0A5
100
AcDbEntity
  8
0
100
AcDbBlockEnd
  0
ENDSEC
  0
SECTION
  2
ENTITIES
  0
LINE
  5
97
330
1F
100
AcDbEntity
  8
0
100
AcDbLine
 10
375.9874639292039
 20
521.5506590103557
 30
0.0
 11
375.9874639292038
 21
534.4999999999999
 31
0.0
  0
LINE
  5
98
330
1F
100
AcDbEntity
  8
0
100
AcDbLine
 10
73.98746392920384
 20
511.4
 30
0.0
 11
73.98746392920384
 21
534.4999999999999
 31
0.0
  0
LINE
  5
9B
330
1F
100
AcDbEntity
  8
0
100
AcDbLine
 10
369.9874639292038
 20
534.4999999999999
 30
0.0
 11
369.9874639292038
 21
517.4999999999999
 31
0.0
  0
LINE
  5
9D
330
1F
100
AcDbEntity
  8
0
100
AcDbLine
 10
319.9874639292039
 20
459.215728752538
 30
0.0
 11
319.9874639292038
 21
291.5
 31
0.0
  0
LINE
  5
9E
330
1F
100
AcDbEntity
  8
0
100
AcDbLine
 10
79.98746392920384
 20
534.4999999999999
 30
0.0
 11
79.98746392920384
 21
266.4999999999999
 31
0.0
  0
LINE
  5
A0
330
1F
100
AcDbEntity
  8
0
100
AcDbLine
 10
73.98746392920384
 20
534.4999999999999
 30
0.0
 11
79.98746392920384
 21
534.4999999999999
 31
0.0
  0
LINE
  5
A1
330
1F
100
AcDbEntity
  8
0
100
AcDbLine
 10
95.98746392920384
 20
244.4999999999999
 30
0.0
 11
334.9874639292037
 21
244.4999999999999
 31
0.0
  0
LINE
  5
A2
330
1F
100
AcDbEntity
  8
0
100
AcDbLine
 10
189.9874639292038
 20
279.4999999999999
 30
0.0
 11
212.5062762798112
 21
279.4999999999999
 31
0.0
  0
LINE
  5
A3
330
1F
100
AcDbEntity
  8
0
100
AcDbLine
 10
79.98746392920384
 20
503.5
 30
0.0
 11
194.9874639292038
 21
503.5
 31
0.0
  0
LINE
  5
A4
330
1F
100
AcDbEntity
  8
0
100
AcDbLine
 10
79.98746392920384
 20
517.4999999999999
 30
0.0
 11
369.9874639292038
 21
517.4999999999999
 31
0.0
  0
LINE
  5
A6
330
1F
100
AcDbEntity
  8
0
100
AcDbLine
 10
199.9874639292038
 20
250.4999999999999
 30
0.0
 11
329.9874639292037
 21
250.4999999999998
 31
0.0
  0
LINE
  5
AA
330
1F
100
AcDbEntity
  8
0
100
AcDbLine
 10
184.9874639292038
 20
274.4999999999999
 30
0.0
 11
184.9874639292038
 21
260.5
 31
0.0
  0
LINE
  5
AB
330
1F
100
AcDbEntity
  8
0
100
AcDbLine
 10
189.9874639292038
 20
269.4999999999999
 30
0.0
 11
189.9874639292038
 21
260.4999999999998
 31
0.0
  0
LINE
  5
AD
330
1F
100
AcDbEntity
  8
0
100
AcDbLine
 10
210.9874639292038
 20
279.4999999999999
 30
0.0
 11
210.9874639292038
 21
274.4999999999999
 31
0.0
  0
LINE
  5
AE
330
1F
100
AcDbEntity
  8
0
100
AcDbLine
 10
282.9874639292039
 20
279.5
 30
0.0
 11
282.9874639292039
 21
274.5
 31
0.0
  0
LINE
  5
B8
330
1F
100
AcDbEntity
  8
0
100
AcDbLine
 10
324.9874639292039
 20
464.34781386993
 30
0.0
 11
324.9874639292039
 21
291.5
 31
0.0
  0
LINE
  5
BA
330
1F
100
AcDbEntity
  8
0
100
AcDbLine
 10
74.98746392920385
 20
265.4999999999999
 30
0.0
 11
74.98746392920385
 21
506.5999999999998
 31
0.0
  0
ARC
  5
C2
330
1F
100
AcDbEntity
  8
0
100
AcDbCircle
 10
95.98746392920384
 20
266.4999999999999
 30
0.0
 40
16.0
100
AcDbArc
 50
180.0
 51
270.0
  0
LINE
  5
C6
330
1F
100
AcDbEntity
  8
0
100
AcDbLine
 10
194.9874639292038
 20
274.4999999999999
 30
0.0
 11
213.4972506217061
 21
274.5
 31
0.0
  0
ARC
  5
C7
330
1F
100
AcDbEntity
  8
0
100
AcDbCircle
 10
199.9874639292038
 20
260.4999999999999
 30
0.0
 40
10.0
100
AcDbArc
 50
180.0
 51
270.0
  0
ARC
  5
CA
330
1F
100
AcDbEntity
  8
0
100
AcDbCircle
 10
194.9874639292038
 20
269.4999999999999
 30
0.0
 40
5.0
100
AcDbArc
 50
90.0
 51
180.0
  0
ARC
  5
CC
330
1F
100
AcDbEntity
  8
0
100
AcDbCircle
 10
189.9874639292038
 20
274.4999999999999
 30
0.0
 40
5.0
100
AcDbArc
 50
90.0
 51
180.0
  0
LINE
  5
CD
330
1F
100
AcDbEntity
  8
0
100
AcDbLine
 10
95.98746392920386
 20
250.4999999999999
 30
0.0
 11
174.9874639292038
 21
250.5
 31
0.0
  0
ARC
  5
D1
330
1F
100
AcDbEntity
  8
0
100
AcDbCircle
 10
174.9874639292038
 20
260.5
 30
0.0
 40
10.0
100
AcDbArc
 50
270.0000000000001
 51
0.0000000000000509
  0
ARC
  5
D3
330
1F
100
AcDbEntity
  8
0
100
AcDbCircle
 10
95.98746392920384
 20
265.4999999999999
 30
0.0
 40
20.99999999999999
100
AcDbArc
 50
180.0
 51
270.0
  0
LINE
  5
D8
330
1F
100
AcDbEntity
  8
0
100
AcDbLine
 10
74.98746392920385
 20
506.5999999999998
 30
0.0
 11
73.98746392920384
 21
511.4
 31
0.0
  0
LINE
  5
D9
330
1F
100
AcDbEntity
  8
0
100
AcDbLine
 10
79.98746392920384
 20
534.4999999999999
 30
0.0
 11
369.9874639292038
 21
534.4999999999999
 31
0.0
  0
LINE
  5
DE
330
1F
100
AcDbEntity
  8
0
100
AcDbLine
 10
369.9874639292038
 20
534.4999999999999
 30
0.0
 11
375.9874639292038
 21
534.4999999999999
 31
0.0
  0
LINE
  5
E0
330
1F
100
AcDbEntity
  8
0
100
AcDbLine
 10
369.9874639292038
 20
517.4999999999999
 30
0.0
 11
325.845328305473
 21
473.3578643762689
 31
0.0
  0
ARC
  5
E1
330
1F
100
AcDbEntity
  8
0
100
AcDbCircle
 10
339.9874639292039
 20
459.215728752538
 30
0.0
 40
20.0
100
AcDbArc
 50
135.0
 51
180.0
  0
LINE
  5
E4
330
1F
100
AcDbEntity
  8
0
100
AcDbLine
 10
371.1138102993244
 20
507.312637871136
 30
0.0
 11
335.1884740559807
 21
471.3873016277918
 31
0.0
  0
LINE
  5
E5
330
1F
100
AcDbEntity
  8
7A
  6
CENTER
100
AcDbLine
 10
336.6026876183532
 20
506.7426406871198
 30
0.0
 11
357.4642116902876
 21
485.8811166151854
 31
0.0
  0
LINE
  5
E6
330
1F
100
AcDbEntity
  8
0
100
AcDbLine
 10
332.5721789655905
 20
474.003596718182
 30
0.0
 11
335.1884740559807
 21
471.3873016277918
 31
0.0
  0
LINE
  5
E8
330
1F
100
AcDbEntity
  8
0
100
AcDbLine
 10
332.5721789655905
 20
474.003596718182
 30
0.0
 11
326.4519300232711
 21
467.8833477758626
 31
0.0
  0
ARC
  5
EA
330
1F
100
AcDbEntity
  8
0
100
AcDbCircle
 10
329.9874639292038
 20
464.34781386993
 30
0.0
 40
5.0
100
AcDbArc
 50
135.0
 51
180.0
  0
LINE
  5
EB
330
1F
100
AcDbEntity
  8
0
100
AcDbLine
 10
333.4207071030141
 20
480.9332431738103
 30
0.0
 11
339.0775613525066
 21
475.2763889243178
 31
0.0
  0
LINE
  5
EC
330
1F
100
AcDbEntity
  8
0
100
AcDbLine
 10
362.4120851316627
 20
509.9246212024588
 30
0.0
 11
368.0689393811551
 21
504.2677669529664
 31
0.0
  0
LINE
  5
ED
330
1F
100
AcDbEntity
  8
0
100
AcDbLine
 10
334.481367274794
 20
481.99390334559
 30
0.0
 11
340.1382215242864
 21
476.3370490960976
 31
0.0
  0
LINE
  5
F0
330
1F
100
AcDbEntity
  8
0
100
AcDbLine
 10
361.3514249598829
 20
508.8639610306791
 30
0.0
 11
367.0082792093753
 21
503.2071067811866
 31
0.0
  0
LINE
  5
F1
330
1F
100
AcDbEntity
  8
0
100
AcDbLine
 10
336.9562410089468
 20
477.3977092678776
 30
0.0
 11
333.0671537124209
 21
473.5086219713516
 31
0.0
  0
LINE
  5
149
330
1F
100
AcDbEntity
  8
0
100
AcDbLine
 10
80.98746392920384
 20
534.4999999999999
 30
0.0
 11
80.98746392920384
 21
517.4999999999999
 31
0.0
  0
ARC
  5
152
330
1F
100
AcDbEntity
  8
0
100
AcDbCircle
 10
307.9874639292039
 20
291.5
 30
0.0
 40
12.0
100
AcDbArc
 50
270.0000000000001
 51
0.0
  0
ARC
  5
960
330
1F
100
AcDbEntity
  8
0
100
AcDbCircle
 10
307.9874639292039
 20
291.5
 30
0.0
 40
16.99999999999997
100
AcDbArc
 50
270.0000000000001
 51
0.0
  0
LINE
  5
962
330
1F
100
AcDbEntity
  8
0
100
AcDbLine
 10
319.2874639292038
 20
274.4999999999999
 30
0.0
 11
339.5499999999998
 21
274.5
 31
0.0
  0
LINE
  5
965
330
1F
100
AcDbEntity
  8
0
100
AcDbLine
 10
372.4874639292041
 20
431.7999999999999
 30
0.0
 11
372.4874639292042
 21
417.4480594867389
 31
0.0
  0
ARC
  5
9FB
330
1F
100
AcDbEntity
  8
0
100
AcDbCircle
 10
368.5549639292041
 20
430.2870370370367
 30
0.0
 40
4.213503670023144
100
AcDbArc
 50
21.04338683879153
 51
158.9566131612084
  0
LINE
  5
A00
330
1F
100
AcDbEntity
  8
0
100
AcDbLine
 10
365.9874639292041
 20
404.4999999999998
 30
0.0
 11
364.6224639292041
 21
431.7999999999999
 31
0.0
  0
DIMENSION
  5
AD5
330
1F
100
AcDbEntity
  8
AM_5
100
AcDbDimension
  2
*D1
 10
375.9874639292038
 20
579.0588513173843
 30
0.0
 11
260.6882344528604
 21
579.0588513173843
 31
0.0
 70
   160
 71
     5
 42
302.0
  3
LEADER$0
100
AcDbAlignedDimension
 13
73.98746392920384
 23
534.4999999999999
 33
0.0
 14
375.9874639292038
 24
534.4999999999999
 34
0.0
100
AcDbRotatedDimension
1001
ACAD
1000
DSTYLE
1002
{
1070
   279
1070
     0
1002
}
  0
DIMENSION
  5
D58
330
1F
100
AcDbEntity
  8
AM_5
100
AcDbDimension
  2
*D2
 10
19.93221818612083
 20
534.5000000000002
 30
0.0
 11
19.93221818612073
 21
413.2118990370391
 31
0.0
 70
   160
 71
     5
 42
290.0000000000003
  3
LEADER$0
100
AcDbAlignedDimension
 13
95.98746392920384
 23
244.4999999999999
 33
0.0
 14
73.98746392920384
 24
534.5000000000002
 34
0.0
 50
90.0
100
AcDbRotatedDimension
1001
ACAD
1000
DSTYLE
1002
{
1070
   279
1070
     0
1002
}
  0
LINE
  5
1018
330
1F
100
AcDbEntity
  8
0
100
AcDbLine
 10
79.98746392920385
 20
-42.39166599070568
 30
0.0
 11
79.98746392920385
 21
138.6083340092943
 31
0.0
  0
LINE
  5
101A
330
1F
100
AcDbEntity
  8
0
100
AcDbLine
 10
358.9874639292038
 20
138.6083340092945
 30
0.0
 11
358.9874639292038
 21
143.6083340092945
 31
0.0
  0
LINE
  5
101F
330
1F
100
AcDbEntity
  8
0
100
AcDbLine
 10
358.9874639292039
 20
143.6083340092945
 30
0.0
 11
74.98746392920384
 21
143.6083340092944
 31
0.0
  0
LINE
  5
1020
330
1F
100
AcDbEntity
  8
0
100
AcDbLine
 10
375.9874639292038
 20
148.6083340092944
 30
0.0
 11
74.98746392920385
 21
148.6083340092944
 31
0.0
  0
LINE
  5
1021
330
1F
100
AcDbEntity
  8
0
100
AcDbLine
 10
375.9874639292038
 20
0.0273489027858887
 30
0.0
 11
375.9874639292038
 21
48.10833400929459
 31
0.0
  0
LINE
  5
1048
330
1F
100
AcDbEntity
  8
0
100
AcDbLine
 10
375.5125360707958
 20
-52.3916659907054
 30
0.0
 11
74.98746392920385
 21
-52.3916659907054
 31
0.0
  0
LINE
  5
104F
330
1F
100
AcDbEntity
  8
7A
  6
CENTER
100
AcDbLine
 10
504.480087949737
 20
48.10833400929448
 30
0.0
 11
67.54999999999981
 21
48.10833400929448
 31
0.0
  0
LINE
  5
1060
330
1F
100
AcDbEntity
  8
0
100
AcDbLine
 10
375.4601742791844
 20
-47.39166599070574
 30
0.0
 11
74.98746392920385
 21
-47.39166599070592
 31
0.0
  0
LINE
  5
10CF
330
1F
100
AcDbEntity
  8
0
100
AcDbLine
 10
358.9874639292038
 20
-42.39166599070552
 30
0.0
 11
370.9874639292038
 21
-30.39166599070552
 31
0.0
  0
LINE
  5
10D1
330
1F
100
AcDbEntity
  8
0
100
AcDbLine
 10
358.9874639292038
 20
138.6083340092945
 30
0.0
 11
370.9874639292038
 21
126.6083340092946
 31
0.0
  0
DIMENSION
  5
111D
330
1F
100
AcDbEntity
  8
AM_5
100
AcDbDimension
  2
*D3
 10
74.98746392920385
 20
195.7031242256844
 30
0.0
 11
219.600755914169
 21
195.7031242256844
 31
0.0
 70
   160
 71
     5
 42
295.9999999999999
  3
LEADER$0
100
AcDbAlignedDimension
 13
370.9874639292038
 23
288.3
 33
0.0
 14
74.98746392920385
 24
282.1
 34
0.0
 50
180.0
100
AcDbRotatedDimension
1001
ACAD
1000
DSTYLE
1002
{
1070
   279
1070
     0
1002
}
  0
LINE
  5
11E0
330
1F
100
AcDbEntity
  8
0
100
AcDbLine
 10
429.1499999999998
 20
103.1083340092946
 30
0.0
 11
375.9874639292038
 21
103.1083340092946
 31
0.0
  0
LINE
  5
11F1
330
1F
100
AcDbEntity
  8
0
100
AcDbLine
 10
375.5125360707956
 20
-52.3916659907054
 30
0.0
 11
375.9874639292038
 21
0.0273489027859171
 31
0.0
  0
LINE
  5
11FF
330
1F
100
AcDbEntity
  8
0
100
AcDbLine
 10
496.3691301718927
 20
99.6250589762991
 30
0.0
 11
499.2566129761113
 21
48.10833400929448
 31
0.0
  0
LINE
  5
1201
330
1F
100
AcDbEntity
  8
0
100
AcDbLine
 10
489.8199105116654
 20
102.1083340092946
 30
0.0
 11
429.0152207436153
 21
102.1083340092946
 31
0.0
  0
LINE
  5
120C
330
1F
100
AcDbEntity
  8
0
100
AcDbLine
 10
489.8199105116653
 20
102.1083340092946
 30
0.0
 11
496.3691301718927
 21
99.6250589762991
 31
0.0
  0
LINE
  5
1212
330
1F
100
AcDbEntity
  8
0
100
AcDbLine
 10
489.8408592489207
 20
102.1083340092946
 30
0.0
 11
491.2564923463996
 21
48.04748708669729
 31
0.0
  0
LINE
  5
258F
330
1F
100
AcDbEntity
  8
7A
  6
CENTER
100
AcDbLine
 10
533.5374350682873
 20
447.2849490531177
 30
0.0
 11
440.7907916376379
 21
452.9575767754993
 31
0.0
  0
LINE
  5
2597
330
1F
100
AcDbEntity
  8
0
100
AcDbLine
 10
463.2809569185987
 20
401.488584986489
 30
0.0
 11
384.7887825994805
 21
406.2893720291555
 31
0.0
  0
LINE
  5
25A4
330
1F
100
AcDbEntity
  8
0
100
AcDbLine
 10
486.3718875488836
 20
394.9853360575874
 30
0.0
 11
427.7510323573658
 21
398.5707411565629
 31
0.0
  0
LINE
  5
25AC
330
1F
100
AcDbEntity
  8
0
100
AcDbLine
 10
493.0872268977181
 20
504.780163883993
 30
0.0
 11
434.4663717061997
 21
508.3655689829681
 31
0.0
  0
LINE
  5
25B1
330
1F
100
AcDbEntity
  8
0
100
AcDbLine
 10
469.3858108720887
 20
501.3020648286754
 30
0.0
 11
371.1138102993244
 21
507.312637871136
 31
0.0
  0
ARC
  5
25B7
330
1F
100
AcDbEntity
  8
0
100
AcDbCircle
 10
329.9874639292038
 20
464.34781386993
 30
0.0
 40
4.0
100
AcDbArc
 50
135.0
 51
180.0
  0
LINE
  5
25B8
330
1F
100
AcDbEntity
  8
0
100
AcDbLine
 10
333.2792857467771
 20
473.2964899369956
 30
0.0
 11
327.1590368044576
 21
467.1762409946762
 31
0.0
  0
DIMENSION
  5
269A
330
1F
100
AcDbEntity
  8
AM_5
100
AcDbDimension
  2
*D4
 10
543.4295140512664
 20
391.4955421211335
 30
0.0
 11
546.2682558892908
 21
437.9085609067877
 31
0.0
 70
   161
  1
ø110
 71
     5
 42
110.0000000000002
  3
LEADER$0
100
AcDbAlignedDimension
 13
493.0872268977181
 23
504.7801638839928
 33
0.0
 14
486.3718875488831
 24
394.9853360575872
 34
0.0
1001
ACAD
1000
DSTYLE
1002
{
1070
   279
1070
     0
1002
}
  0
LINE
  5
2737
330
1F
100
AcDbEntity
  8
0
100
AcDbLine
 10
493.0872268977181
 20
504.780163883993
 30
0.0
 11
499.2425760580447
 21
502.7206128650466
 31
0.0
  0
LINE
  5
2738
330
1F
100
AcDbEntity
  8
0
100
AcDbLine
 10
486.3718875488836
 20
394.9853360575876
 30
0.0
 11
492.732351800363
 21
396.2793871349534
 31
0.0
  0
DIMENSION
  5
2E41
330
1F
100
AcDbEntity
  8
AM_5
100
AcDbDimension
  2
*D6
 10
342.8874639292037
 20
274.5
 30
0.0
 11
336.1374639292037
 21
354.4999999999999
 31
0.0
 70
    32
 71
     5
 42
159.9999999999998
  3
LEADER$0
100
AcDbAlignedDimension
 13
358.7874639292006
 23
434.4999999999997
 33
0.0
 14
307.9874639292039
 24
274.5
 34
0.0
 50
270.0
100
AcDbRotatedDimension
  0
LINE
  5
3FCD
330
1F
100
AcDbEntity
  8
0
100
AcDbLine
 10
357.1874639292039
 20
534.4999999999999
 30
0.0
 11
357.1874639292039
 21
517.4999999999999
 31
0.0
  0
TEXT
  5
4CB5
330
1F
100
AcDbEntity
  8
0
100
AcDbText
 10
1399.426688377598
 20
141.4279301161173
 30
0.0
 40
2.5
  1

 41
0.85
  7
ISOCP
100
AcDbText
  0
LINE
  5
644A
330
1F
100
AcDbEntity
  8
0
100
AcDbLine
 10
370.9874639292037
 20
280.4999999999998
 30
0.0
 11
370.9874639292041
 21
389.6098054196923
 31
0.0
  0
LINE
  5
644B
330
1F
100
AcDbEntity
  8
0
100
AcDbLine
 10
365.9874639292038
 20
286.4999999999997
 30
0.0
 11
365.9874639292041
 21
404.4999999999998
 31
0.0
  0
ARC
  5
6451
330
1F
100
AcDbEntity
  8
0
100
AcDbCircle
 10
329.9874639292038
 20
286.4999999999998
 30
0.0
 40
36.0
100
AcDbArc
 50
269.9999999999999
 51
359.9999999999999
  0
ARC
  5
645F
330
1F
100
AcDbEntity
  8
0
100
AcDbCircle
 10
334.9874639292037
 20
280.4999999999999
 30
0.0
 40
36.0
100
AcDbArc
 50
270.0
 51
359.9999999999999
  0
ARC
  5
647F
330
1F
100
AcDbEntity
  8
0
100
AcDbCircle
 10
384.521365073899
 20
418.3281522303682
 30
0.0
 40
12.0
100
AcDbArc
 50
180.0000000000002
 51
266.4999999999997
  0
LINE
  5
6687
330
1F
100
AcDbEntity
  8
0
100
AcDbLine
 10
432.6174226858621
 20
509.5621279111924
 30
0.0
 11
385.4108796785502
 21
512.4494037697663
 31
0.0
  0
ARC
  5
668F
330
1F
100
AcDbEntity
  8
0
100
AcDbCircle
 10
386.0213650738987
 20
522.430751753985
 30
0.0
 40
10.0
100
AcDbArc
 50
180.0000000000006
 51
266.4999999999999
  0
LINE
  5
66CF
330
1F
100
AcDbEntity
  8
0
100
AcDbLine
 10
425.7799862579581
 20
397.7710304879435
 30
0.0
 11
381.6318504692475
 21
400.4712461475403
 31
0.0
  0
ARC
  5
66D0
330
1F
100
AcDbEntity
  8
0
100
AcDbCircle
 10
380.9874639292041
 20
389.6098054196923
 30
0.0
 40
10.0
100
AcDbArc
 50
86.49999999999995
 51
179.9999999999998
  0
LINE
  5
66EB
330
1F
100
AcDbEntity
  8
0
100
AcDbLine
 10
427.7510323573658
 20
398.5707411565627
 30
0.0
 11
425.7799862579581
 21
397.7710304879435
 31
0.0
  0
LINE
  5
68AE
330
1F
100
AcDbEntity
  8
0
100
AcDbLine
 10
490.103635121185
 20
402.4414740609748
 30
0.0
 11
495.8924289329295
 21
497.0874162639375
 31
0.0
  0
LINE
  5
68C6
330
1F
100
AcDbEntity
  8
0
100
AcDbLine
 10
492.732351800363
 20
396.2793871349534
 30
0.0
 11
499.2425760580447
 21
502.7206128650466
 31
0.0
  0
LINE
  5
6914
330
1F
100
AcDbEntity
  8
0
100
AcDbLine
 10
463.2809569185987
 20
401.488584986489
 30
0.0
 11
490.103635121185
 21
402.4414740609748
 31
0.0
  0
LINE
  5
691F
330
1F
100
AcDbEntity
  8
0
100
AcDbLine
 10
469.3858108720887
 20
501.3020648286754
 30
0.0
 11
495.8924289329297
 21
497.0874162639372
 31
0.0
  0
LINE
  5
6BE8
330
1F
100
AcDbEntity
  8
0
100
AcDbLine
 10
495.8924289329295
 20
497.0874162639372
 30
0.0
 11
499.2425760580447
 21
502.7206128650466
 31
0.0
  0
LINE
  5
6BE9
330
1F
100
AcDbEntity
  8
0
100
AcDbLine
 10
490.103635121185
 20
402.4414740609748
 30
0.0
 11
492.732351800363
 21
396.2793871349534
 31
0.0
  0
HATCH
  5
6E4A
330
1F
100
AcDbEntity
  8
8
100
AcDbHatch
 10
0.0
 20
0.0
 30
0.0
210
0.0
220
0.0
230
1.0
  2
ANSI31
 70
     0
 71
     0
 91
       12
 92
        7
 72
     1
 73
     1
 93
        8
 10
79.98746392920384
 20
534.5000000000002
 42
0.0
 10
73.98746392920384
 20
534.4999999999999
 42
0.0
 10
73.98746392920384
 20
511.4000000000003
 42
0.0
 10
74.98746392920385
 20
506.5999999999998
 42
0.0
 10
74.98746392920385
 20
265.4999999999999
 42
0.0119098287208415
 10
75.01128696580082
 20
264.5
 42
0.0
 10
80.11295606281628
 20
264.5
 42
-0.0313422145926795
 10
79.98746392920384
 20
266.4999999999999
 42
0.0
 97
        0
 92
        7
 72
     1
 73
     1
 93
       14
 10
189.9874639292038
 20
260.4999999999998
 42
0.0
 10
189.9874639292038
 20
269.4999999999999
 42
-0.4142135623730951
 10
194.9874639292038
 20
274.4999999999999
 42
0.0
 10
210.9874639292038
 20
274.4999999999999
 42
0.0
 10
210.9874639292039
 20
279.5
 42
0.0
 10
189.9874639292038
 20
279.4999999999999
 42
0.4142135623730951
 10
184.9874639292038
 20
274.4999999999999
 42
0.0
 10
184.9874639292038
 20
260.5
 42
-0.4142135623730948
 10
174.9874639292038
 20
250.5
 42
0.0
 10
95.98746392920386
 20
250.4999999999999
 42
-0.3779644730092295
 10
80.11295606281628
 20
264.5
 42
0.0
 10
75.01128696580082
 20
264.5
 42
0.400328826448794
 10
95.98746392920386
 20
244.4999999999999
 42
0.0
 10
173.9874639292038
 20
244.4999999999999
 42
0.4142135623730929
 97
        0
 92
        7
 72
     1
 73
     1
 93
        5
 10
246.9874639292039
 20
250.4999999999998
 42
0.0
 10
199.9874639292038
 20
250.4999999999999
 42
-0.4142135623730951
 10
189.9874639292038
 20
260.4999999999999
 42
-0.4142135623730951
 10
173.9874639292038
 20
244.4999999999999
 42
0.0
 10
246.9874639292038
 20
244.4999999999999
 42
0.0
 97
        0
 92
        7
 72
     1
 73
     1
 93
        6
 10
346.3874639292039
 20
254.452535201673
 42
-0.1188032998254142
 10
329.9874639292037
 20
250.4999999999998
 42
0.0
 10
246.9874639292039
 20
250.4999999999999
 42
0.0
 10
246.9874639292038
 20
244.4999999999997
 42
0.0
 10
334.9874639292037
 20
244.4999999999999
 42
0.0807279938028543
 10
346.3874639292038
 20
246.3526721396827
 42
0.0
 97
        0
 92
        7
 72
     1
 73
     1
 93
       15
 10
370.9874639292037
 20
280.4999999999998
 42
0.0
 10
370.9874639292041
 20
389.6098054196923
 42
-0.4322206989172967
 10
381.5979493245527
 20
399.591153403911
 42
0.0
 10
412.6890331899266
 20
397.689541251386
 42
0.0
 10
413.0553244271359
 20
403.6783500419174
 42
0.0
 10
384.7548814547857
 20
405.4092792855262
 42
-0.3964328273651675
 10
373.4874639292041
 20
417.3868968665885
 42
0.0
 10
373.4874639292041
 20
431.7999999999999
 42
0.3915784232050715
 10
368.4874639292041
 20
436.5035823138351
 42
0.0
 10
368.4874639292041
 20
434.4999999999997
 42
0.3059153351131175
 10
364.6224639292041
 20
431.7999999999999
 42
0.0
 10
365.9874639292041
 20
404.4999999999999
 42
0.0
 10
365.9874639292038
 20
286.4999999999997
 42
-0.2815549603913046
 10
346.3874639292038
 20
254.452535201673
 42
0.0
 10
346.3874639292038
 20
246.3526721396827
 42
0.322695086987119
 97
        0
 92
        7
 72
     0
 73
     1
 93
        6
 10
490.0697339764901
 20
401.5613813173455
 10
463.2470557739037
 20
400.6084922428597
 10
428.0273464034642
 20
402.7626219488946
 10
427.717131212671
 20
397.6906484129334
 10
486.3379864041879
 20
394.1052433139579
 10
492.6984506556681
 20
395.399294391324
 97
        0
 92
        7
 72
     0
 73
     1
 93
        4
 10
426.1123763504723
 20
402.8797465348453
 10
413.0553244271358
 20
403.6783500419175
 10
412.6890331899267
 20
397.6895412513862
 10
425.7460851132633
 20
396.8909377443143
 97
        0
 92
        7
 72
     1
 73
     1
 93
       10
 10
419.5264696178307
 20
509.4806386746354
 42
0.0
 10
385.3769785338553
 20
511.569311026137
 42
-0.3964328273651656
 10
375.9874639292039
 20
521.5506590103557
 42
0.0
 10
375.9874639292038
 20
534.4999999999999
 42
0.0
 10
369.9874639292039
 20
534.5000000000002
 42
0.0
 10
369.9874639292039
 20
517.4999999999999
 42
0.0
 10
362.4120851316628
 20
509.9246212024588
 42
0.0
 10
368.0689393811549
 20
504.2677669529664
 42
0.0
 10
370.282489812046
 20
506.4813173838574
 42
0.0
 10
419.1601783806215
 20
503.4918298841041
 42
0.0
 97
        0
 92
        7
 72
     0
 73
     1
 93
        4
 10
432.5835215411673
 20
508.6820351675632
 10
419.5264696178307
 20
509.4806386746356
 10
419.1601783806215
 20
503.4918298841039
 10
432.2172303039581
 20
502.6932263770317
 97
        0
 92
        7
 72
     0
 73
     1
 93
        9
 10
493.0533257530238
 20
503.9000711403637
 10
436.2122529210755
 20
507.3766200869297
 10
436.2040247098307
 20
507.3661143971185
 10
436.1978555256858
 20
507.3775006693551
 10
434.4324705615051
 20
507.4854762393385
 10
434.1322003569498
 20
502.5761017910808
 10
469.3519097273972
 20
500.421972085046
 10
495.8585277882346
 20
496.2073235203079
 10
499.2086749133499
 20
501.8405201214172
 97
        0
 92
       24
 93
        4
 72
     1
 10
76.31068723390722
 20
325.2749999999999
 11
78.66424062450049
 21
325.2749999999999
 72
     1
 10
78.66424062450048
 20
325.2749999999999
 11
78.66424062450048
 21
321.5249999999999
 72
     1
 10
78.66424062450048
 20
321.5249999999999
 11
76.3106872339072
 21
321.5249999999999
 72
     1
 10
76.31068723390722
 20
321.5249999999999
 11
76.31068723390722
 21
325.2749999999999
 97
        0
 92
       24
 93
        4
 72
     1
 10
367.3106872339072
 20
318.6749999999999
 11
369.6642406245005
 21
318.6749999999999
 72
     1
 10
369.6642406245005
 20
318.6749999999999
 11
369.6642406245005
 21
314.9249999999998
 72
     1
 10
369.6642406245005
 20
314.9249999999998
 11
367.3106872339072
 21
314.9249999999998
 72
     1
 10
367.3106872339072
 20
314.9249999999998
 11
367.3106872339072
 21
318.6749999999999
 97
        0
 75
     0
 76
     1
 52
0.0
 41
25.0
 77
     0
 78
     1
 53
45.0
 43
67.44999999999982
 44
-616.2
 45
-2.20970869120796
 46
2.209708691207961
 79
     0
 47
0.2525341738683364
 98
       10
 10
77.45300351644456
 20
485.945053938296
 10
98.39386557484566
 20
246.8206296394576
 10
221.3289742416737
 20
246.9157983065368
 10
318.5836301358786
 20
246.4777265090224
 10
351.7882536453615
 20
255.3672134229844
 10
473.6471630253258
 20
398.3946800324634
 10
418.7885140524305
 20
400.748110054505
 10
383.6008090252126
 20
508.4972419067735
 10
427.581924511896
 20
505.206120434233
 10
455.124340094386
 20
503.4213672632288
  0
HATCH
  5
6E8F
330
1F
100
AcDbEntity
  8
8
100
AcDbHatch
 10
0.0
 20
0.0
 30
0.0
210
0.0
220
0.0
230
1.0
  2
ANSI31
 70
     0
 71
     0
 91
        2
 92
        7
 72
     1
 73
     1
 93
       14
 10
324.9874639292039
 20
464.34781386993
 42
-0.1989123673796567
 10
326.4519300232711
 20
467.8833477758626
 42
0.0
 10
332.5721789655905
 20
474.003596718182
 42
0.0
 10
333.0671537124209
 20
473.5086219713516
 42
0.0
 10
336.9562410089467
 20
477.3977092678774
 42
0.0
 10
333.4207071030143
 20
480.93324317381
 42
0.0
 10
325.845328305473
 20
473.3578643762689
 42
0.1989123673796579
 10
319.9874639292039
 20
459.215728752538
 42
0.0
 10
319.9874639292038
 20
291.5
 42
-0.4142135623730948
 10
307.9874639292039
 20
279.5
 42
0.0
 10
282.9874639292039
 20
279.5
 42
0.0
 10
282.9874639292039
 20
274.4999999999999
 42
0.0
 10
307.9874639292039
 20
274.4999999999999
 42
0.4142135623730968
 10
324.9874639292039
 20
291.5
 42
0.0
 97
        0
 92
       24
 93
        4
 72
     1
 10
321.3106872339072
 20
316.0749999999998
 11
323.6642406245004
 21
316.0749999999998
 72
     1
 10
323.6642406245004
 20
316.0749999999998
 11
323.6642406245004
 21
312.3249999999998
 72
     1
 10
323.6642406245004
 20
312.3249999999998
 11
321.3106872339072
 21
312.3249999999998
 72
     1
 10
321.3106872339072
 20
312.3249999999998
 11
321.3106872339072
 21
316.0749999999998
 97
        0
 75
     0
 76
     1
 52
0.0
 41
25.0
 77
     0
 78
     1
 53
45.0
 43
67.44999999999982
 44
-616.2
 45
-2.20970869120796
 46
2.209708691207961
 79
     0
 47
0.4286580101916107
 98
        1
 10
322.9138577475191
 20
418.8348532222262
  0
LINE
  5
82FB
330
1F
100
AcDbEntity
  8
Schnitt
  6
CENTER
100
AcDbLine
 10
485.6980199413689
 20
450.2109330287471
 30
0.0
 11
520.7127341608712
 21
448.0693413632616
 31
0.0
  0
LINE
  5
8B0C
330
1F
100
AcDbEntity
  8
3A
100
AcDbLine
 10
432.5158721376925
 20
510.5702076958528
 30
0.0
 11
432.6174226858621
 21
509.5621279111924
 31
0.0
  0
LINE
  5
8B2C
330
1F
100
AcDbEntity
  8
0
100
AcDbLine
 10
434.4663717061999
 20
508.3655689829679
 30
0.0
 11
432.5158721376925
 21
510.5702076958528
 31
0.0
  0
LINE
  5
8D3A
330
1F
100
AcDbEntity
  8
7A
  6
CENTER
100
AcDbLine
 10
396.7136841203592
 20
454.7712819334458
 30
0.0
 11
368.4439042727232
 21
456.5003357400046
 31
0.0
  0
LINE
  5
8D47
330
1F
100
AcDbEntity
  8
7A
  6
CENTER
100
AcDbLine
 10
435.2785301471253
 20
453.2947211312139
 30
0.0
 11
403.4371444212765
 21
455.2422237114289
 31
0.0
  0
LINE
  5
8DC0
330
1F
100
AcDbEntity
  8
0
100
AcDbLine
 10
367.0777179237437
 20
449.8435907458688
 30
0.0
 11
367.0777179237437
 21
434.7286729344505
 31
0.0
  0
ARC
  5
8DC1
330
1F
100
AcDbEntity
  8
0
100
AcDbCircle
 10
363.1452179237437
 20
448.3306277829056
 30
0.0
 40
4.213503670023144
100
AcDbArc
 50
21.04338683879153
 51
83.70053280088264
  0
LINE
  5
962E
330
1F
100
AcDbEntity
  8
0
100
AcDbLine
 10
358.9874639292038
 20
138.6083340092943
 30
0.0
 11
79.98746392920385
 21
138.6083340092943
 31
0.0
  0
LINE
  5
9679
330
1F
100
AcDbEntity
  8
0
100
AcDbLine
 10
74.98746392920385
 20
-52.3916659907054
 30
0.0
 11
74.98746392920385
 21
148.6083340092944
 31
0.0
  0
LINE
  5
9696
330
1F
100
AcDbEntity
  8
0
100
AcDbLine
 10
358.9874639292038
 20
-42.39166599070552
 30
0.0
 11
79.98746392920385
 21
-42.39166599070568
 31
0.0
  0
LINE
  5
9819
330
1F
100
AcDbEntity
  8
0
100
AcDbLine
 10
370.9874639292038
 20
-30.39166599070552
 30
0.0
 11
370.9874639292038
 21
126.6083340092946
 31
0.0
  0
LINE
  5
9920
330
1F
100
AcDbEntity
  8
0
100
AcDbLine
 10
375.9874639292038
 20
48.10833400929459
 30
0.0
 11
375.9874639292038
 21
148.6083340092944
 31
0.0
  0
LINE
  5
C716
330
1F
100
AcDbEntity
  8
0
100
AcDbLine
 10
429.1499999999998
 20
-6.891665990705632
 30
0.0
 11
375.9874639292038
 21
-6.891665990705632
 31
0.0
  0
LINE
  5
C717
330
1F
100
AcDbEntity
  8
0
100
AcDbLine
 10
496.3691301718927
 20
-3.408390957710139
 30
0.0
 11
499.2566129761113
 21
48.10833400929448
 31
0.0
  0
LINE
  5
C718
330
1F
100
AcDbEntity
  8
0
100
AcDbLine
 10
489.8199105116654
 20
-5.891665990705632
 30
0.0
 11
429.0152207436153
 21
-5.891665990705632
 31
0.0
  0
LINE
  5
C719
330
1F
100
AcDbEntity
  8
0
100
AcDbLine
 10
489.8199105116653
 20
-5.891665990705632
 30
0.0
 11
496.3691301718927
 21
-3.408390957710139
 31
0.0
  0
LINE
  5
C71B
330
1F
100
AcDbEntity
  8
0
100
AcDbLine
 10
489.8408592489207
 20
-5.891665990705632
 30
0.0
 11
491.2564923463996
 21
48.16918093189167
 31
0.0
  0
LINE
  5
C7B1
330
1F
100
AcDbEntity
  8
0
100
AcDbLine
 10
368.9874639292039
 20
124.7083340092943
 30
0.0
 11
368.9874639292038
 21
-28.49166599070566
 31
0.0
  0
LINE
  5
C7B2
330
1F
100
AcDbEntity
  8
0
100
AcDbLine
 10
356.9874639292037
 20
-40.49166599070566
 30
0.0
 11
83.53398268184383
 21
-40.49166599070566
 31
0.0
  0
LINE
  5
C7B3
330
1F
100
AcDbEntity
  8
0
100
AcDbLine
 10
197.5874639292038
 20
119.9583340092942
 30
0.0
 11
197.5874639292037
 21
114.5583340092943
 31
0.0
  0
LINE
  5
C7B4
330
1F
100
AcDbEntity
  8
0
100
AcDbLine
 10
245.9874639292037
 20
87.15833400929431
 30
0.0
 11
245.9874639292038
 21
80.15833400929421
 31
0.0
  0
LINE
  5
C7B5
330
1F
100
AcDbEntity
  8
0
100
AcDbLine
 10
327.9874639292039
 20
87.15833400929421
 30
0.0
 11
327.9874639292038
 21
80.15833400929432
 31
0.0
  0
LINE
  5
C7B6
330
1F
100
AcDbEntity
  8
0
100
AcDbLine
 10
95.98746392920345
 20
119.9583340092944
 30
0.0
 11
95.98746392920345
 21
114.5583340092943
 31
0.0
  0
LINE
  5
C7B7
330
1F
100
AcDbEntity
  8
0
100
AcDbLine
 10
356.9874639292039
 20
136.7083340092944
 30
0.0
 11
83.53398268184406
 21
136.7083340092944
 31
0.0
  0
LINE
  5
C7B8
330
1F
100
AcDbEntity
  8
0
100
AcDbLine
 10
356.9874639292038
 20
136.7083340092942
 30
0.0
 11
368.9874639292038
 21
124.7083340092943
 31
0.0
  0
LINE
  5
C7BA
330
1F
100
AcDbEntity
  8
0
100
AcDbLine
 10
353.015797469823
 20
122.4583340092943
 30
0.0
 11
98.48746392920345
 21
122.4583340092944
 31
0.0
  0
ARC
  5
C7BB
330
1F
100
AcDbEntity
  8
0
100
AcDbCircle
 10
353.015797469823
 20
119.9583340092942
 30
0.0
 40
2.5
100
AcDbArc
 50
0.0
 51
90.0
  0
LINE
  5
C7BC
330
1F
100
AcDbEntity
  8
0
100
AcDbLine
 10
343.9874639292039
 20
112.0583340092943
 30
0.0
 11
195.0874639292037
 21
112.0583340092943
 31
0.0
  0
ARC
  5
C7BD
330
1F
100
AcDbEntity
  8
0
100
AcDbCircle
 10
98.48746392920345
 20
119.9583340092944
 30
0.0
 40
2.5
100
AcDbArc
 50
90.0
 51
180.0
  0
LINE
  5
C7BE
330
1F
100
AcDbEntity
  8
0
100
AcDbLine
 10
325.4874639292039
 20
89.65833400929421
 30
0.0
 11
248.4874639292037
 21
89.65833400929431
 31
0.0
  0
LINE
  5
C7BF
330
1F
100
AcDbEntity
  8
0
100
AcDbLine
 10
95.98746392920332
 20
97.5583340092943
 30
0.0
 11
95.98746392920345
 21
92.15833400929431
 31
0.0
  0
ARC
  5
C7C0
330
1F
100
AcDbEntity
  8
0
100
AcDbCircle
 10
98.48746392920345
 20
114.5583340092943
 30
0.0
 40
2.5
100
AcDbArc
 50
180.0
 51
270.0
  0
ARC
  5
C7C1
330
1F
100
AcDbEntity
  8
0
100
AcDbCircle
 10
98.48746392920332
 20
97.5583340092943
 30
0.0
 40
2.5
100
AcDbArc
 50
90.0
 51
180.0
  0
ARC
  5
C7C2
330
1F
100
AcDbEntity
  8
0
100
AcDbCircle
 10
195.0874639292038
 20
119.9583340092942
 30
0.0
 40
2.5
100
AcDbArc
 50
0.0
 51
90.0
  0
LINE
  5
C7C3
330
1F
100
AcDbEntity
  8
0
100
AcDbLine
 10
195.0874639292037
 20
112.0583340092944
 30
0.0
 11
98.48746392920345
 21
112.0583340092943
 31
0.0
  0
ARC
  5
C7C4
330
1F
100
AcDbEntity
  8
0
100
AcDbCircle
 10
195.0874639292037
 20
114.5583340092944
 30
0.0
 40
2.5
100
AcDbArc
 50
270.0
 51
0.0
  0
LINE
  5
C7C5
330
1F
100
AcDbEntity
  8
0
100
AcDbLine
 10
346.4874639292039
 20
109.5583340092943
 30
0.0
 11
346.4874639292039
 21
102.5583340092943
 31
0.0
  0
ARC
  5
C7C6
330
1F
100
AcDbEntity
  8
0
100
AcDbCircle
 10
343.9874639292039
 20
109.5583340092943
 30
0.0
 40
2.5
100
AcDbArc
 50
0.0
 51
90.0
  0
ARC
  5
C7C7
330
1F
100
AcDbEntity
  8
0
100
AcDbCircle
 10
343.9874639292039
 20
102.5583340092943
 30
0.0
 40
2.5
100
AcDbArc
 50
270.0
 51
0.0
  0
ARC
  5
C7C8
330
1F
100
AcDbEntity
  8
0
100
AcDbCircle
 10
325.4874639292039
 20
87.15833400929421
 30
0.0
 40
2.5
100
AcDbArc
 50
0.0
 51
90.0
  0
LINE
  5
C7C9
330
1F
100
AcDbEntity
  8
0
100
AcDbLine
 10
325.4874639292038
 20
77.65833400929432
 30
0.0
 11
248.4874639292038
 21
77.6583340092942
 31
0.0
  0
LINE
  5
C7CA
330
1F
100
AcDbEntity
  8
0
100
AcDbLine
 10
325.4874639292039
 20
67.25833400929423
 30
0.0
 11
222.4874639292038
 21
67.25833400929423
 31
0.0
  0
LINE
  5
C7CB
330
1F
100
AcDbEntity
  8
0
100
AcDbLine
 10
325.4874639292038
 20
55.25833400929423
 30
0.0
 11
222.4874639292038
 21
55.25833400929423
 31
0.0
  0
LINE
  5
C7CC
330
1F
100
AcDbEntity
  8
0
100
AcDbLine
 10
327.9874639292039
 20
64.75833400929423
 30
0.0
 11
327.9874639292038
 21
57.75833400929423
 31
0.0
  0
ARC
  5
C7CD
330
1F
100
AcDbEntity
  8
0
100
AcDbCircle
 10
325.4874639292038
 20
80.15833400929432
 30
0.0
 40
2.5
100
AcDbArc
 50
270.0
 51
0.0
  0
ARC
  5
C7CE
330
1F
100
AcDbEntity
  8
0
100
AcDbCircle
 10
325.4874639292039
 20
64.75833400929423
 30
0.0
 40
2.5
100
AcDbArc
 50
0.0
 51
90.0
  0
ARC
  5
C7CF
330
1F
100
AcDbEntity
  8
0
100
AcDbCircle
 10
325.4874639292038
 20
57.75833400929423
 30
0.0
 40
2.5
100
AcDbArc
 50
270.0
 51
0.0
  0
ARC
  5
C7D0
330
1F
100
AcDbEntity
  8
0
100
AcDbCircle
 10
248.4874639292037
 20
87.15833400929431
 30
0.0
 40
2.5
100
AcDbArc
 50
90.0
 51
180.0
  0
ARC
  5
C7D1
330
1F
100
AcDbEntity
  8
0
100
AcDbCircle
 10
248.4874639292038
 20
80.15833400929421
 30
0.0
 40
2.5
100
AcDbArc
 50
180.0
 51
270.0
  0
LINE
  5
C7D2
330
1F
100
AcDbEntity
  8
0
100
AcDbLine
 10
219.9874639292038
 20
64.75833400929423
 30
0.0
 11
219.9874639292038
 21
57.75833400929423
 31
0.0
  0
LINE
  5
C7D3
330
1F
100
AcDbEntity
  8
0
100
AcDbLine
 10
195.0874639292038
 20
67.25833400929423
 30
0.0
 11
98.48746392920345
 21
67.25833400929435
 31
0.0
  0
LINE
  5
C7D4
330
1F
100
AcDbEntity
  8
0
100
AcDbLine
 10
195.0874639292038
 20
55.25833400929423
 30
0.0
 11
98.48746392920345
 21
55.25833400929434
 31
0.0
  0
LINE
  5
C7D5
330
1F
100
AcDbEntity
  8
0
100
AcDbLine
 10
195.0874639292038
 20
77.65833400929432
 30
0.0
 11
98.48746392920345
 21
77.65833400929432
 31
0.0
  0
LINE
  5
C7D6
330
1F
100
AcDbEntity
  8
0
100
AcDbLine
 10
195.087463929204
 20
89.65833400929421
 30
0.0
 11
98.48746392920345
 21
89.65833400929431
 31
0.0
  0
ARC
  5
C7D7
330
1F
100
AcDbEntity
  8
0
100
AcDbCircle
 10
222.4874639292038
 20
64.75833400929423
 30
0.0
 40
2.5
100
AcDbArc
 50
90.0
 51
180.0
  0
ARC
  5
C7D8
330
1F
100
AcDbEntity
  8
0
100
AcDbCircle
 10
222.4874639292038
 20
57.75833400929423
 30
0.0
 40
2.5
100
AcDbArc
 50
180.0
 51
270.0
  0
ARC
  5
C7D9
330
1F
100
AcDbEntity
  8
0
100
AcDbCircle
 10
195.0874639292038
 20
97.5583340092943
 30
0.0
 40
2.5
100
AcDbArc
 50
0.0
 51
90.0
  0
LINE
  5
C7DA
330
1F
100
AcDbEntity
  8
0
100
AcDbLine
 10
98.48746392920332
 20
100.0583340092943
 30
0.0
 11
98.48746392920332
 21
100.0583340092943
 31
0.0
  0
LINE
  5
C7DB
330
1F
100
AcDbEntity
  8
0
100
AcDbLine
 10
98.48746392920332
 20
100.0583340092943
 30
0.0
 11
343.9874639292039
 21
100.0583340092943
 31
0.0
  0
ARC
  5
C7DC
330
1F
100
AcDbEntity
  8
0
100
AcDbCircle
 10
195.087463929204
 20
92.15833400929421
 30
0.0
 40
2.5
100
AcDbArc
 50
270.0
 51
0.0
  0
LINE
  5
C7DD
330
1F
100
AcDbEntity
  8
0
100
AcDbLine
 10
197.5874639292038
 20
69.75833400929423
 30
0.0
 11
197.5874639292038
 21
75.15833400929432
 31
0.0
  0
ARC
  5
C7DE
330
1F
100
AcDbEntity
  8
0
100
AcDbCircle
 10
195.0874639292038
 20
69.75833400929423
 30
0.0
 40
2.5
100
AcDbArc
 50
270.0
 51
0.0
  0
ARC
  5
C7DF
330
1F
100
AcDbEntity
  8
0
100
AcDbCircle
 10
195.0874639292038
 20
75.15833400929432
 30
0.0
 40
2.5
100
AcDbArc
 50
0.0
 51
90.0
  0
ARC
  5
C7E0
330
1F
100
AcDbEntity
  8
0
100
AcDbCircle
 10
195.0874639292038
 20
52.75833400929423
 30
0.0
 40
2.5
100
AcDbArc
 50
0.0
 51
90.0
  0
LINE
  5
C7E1
330
1F
100
AcDbEntity
  8
0
100
AcDbLine
 10
95.98746392920345
 20
75.15833400929432
 30
0.0
 11
95.98746392920345
 21
69.75833400929435
 31
0.0
  0
ARC
  5
C7E2
330
1F
100
AcDbEntity
  8
0
100
AcDbCircle
 10
98.48746392920345
 20
92.15833400929431
 30
0.0
 40
2.5
100
AcDbArc
 50
180.0
 51
270.0
  0
ARC
  5
C7E3
330
1F
100
AcDbEntity
  8
0
100
AcDbCircle
 10
98.48746392920345
 20
75.15833400929432
 30
0.0
 40
2.5
100
AcDbArc
 50
90.0
 51
180.0
  0
LINE
  5
C7E4
330
1F
100
AcDbEntity
  8
0
100
AcDbLine
 10
95.98746392920345
 20
52.75833400929434
 30
0.0
 11
95.98746392920345
 21
48.10833400929436
 31
0.0
  0
ARC
  5
C7E5
330
1F
100
AcDbEntity
  8
0
100
AcDbCircle
 10
98.48746392920345
 20
69.75833400929435
 30
0.0
 40
2.5
100
AcDbArc
 50
180.0
 51
270.0
  0
ARC
  5
C7E6
330
1F
100
AcDbEntity
  8
0
100
AcDbCircle
 10
98.48746392920345
 20
52.75833400929434
 30
0.0
 40
2.5
100
AcDbArc
 50
90.0
 51
180.0
  0
LINE
  5
C7E7
330
1F
100
AcDbEntity
  8
0
100
AcDbLine
 10
338.9798990849607
 20
94.05833400929429
 30
0.0
 11
346.4874639292039
 21
94.05833400929429
 31
0.0
  0
LINE
  5
C7E8
330
1F
100
AcDbEntity
  8
0
100
AcDbLine
 10
338.9798990849607
 20
2.158334009294435
 30
0.0
 11
346.4874639292039
 21
2.158334009294435
 31
0.0
  0
ARC
  5
C7E9
330
1F
100
AcDbEntity
  8
0
100
AcDbCircle
 10
98.48746392920345
 20
43.45833400929428
 30
0.0
 40
2.5
100
AcDbArc
 50
180.0
 51
270.0
  0
ARC
  5
C7EA
330
1F
100
AcDbEntity
  8
0
100
AcDbCircle
 10
98.48746392920345
 20
26.45833400929428
 30
0.0
 40
2.5
100
AcDbArc
 50
90.0
 51
180.0
  0
LINE
  5
C7EB
330
1F
100
AcDbEntity
  8
0
100
AcDbLine
 10
95.98746392920345
 20
43.45833400929428
 30
0.0
 11
95.98746392920345
 21
48.10833400929425
 31
0.0
  0
ARC
  5
C7EC
330
1F
100
AcDbEntity
  8
0
100
AcDbCircle
 10
98.48746392920345
 20
21.0583340092943
 30
0.0
 40
2.5
100
AcDbArc
 50
180.0
 51
270.0
  0
ARC
  5
C7ED
330
1F
100
AcDbEntity
  8
0
100
AcDbCircle
 10
98.48746392920345
 20
4.058334009294412
 30
0.0
 40
2.5
100
AcDbArc
 50
90.0
 51
180.0
  0
LINE
  5
C7EE
330
1F
100
AcDbEntity
  8
0
100
AcDbLine
 10
95.98746392920345
 20
21.0583340092943
 30
0.0
 11
95.98746392920345
 21
26.45833400929428
 31
0.0
  0
ARC
  5
C7EF
330
1F
100
AcDbEntity
  8
0
100
AcDbCircle
 10
195.0874639292038
 20
43.45833400929438
 30
0.0
 40
2.5
100
AcDbArc
 50
270.0
 51
0.0
  0
ARC
  5
C7F0
330
1F
100
AcDbEntity
  8
0
100
AcDbCircle
 10
195.0874639292038
 20
21.0583340092943
 30
0.0
 40
2.5
100
AcDbArc
 50
270.0
 51
0.0
  0
ARC
  5
C7F1
330
1F
100
AcDbEntity
  8
0
100
AcDbCircle
 10
195.0874639292038
 20
26.45833400929439
 30
0.0
 40
2.5
100
AcDbArc
 50
0.0
 51
90.0
  0
LINE
  5
C7F2
330
1F
100
AcDbEntity
  8
0
100
AcDbLine
 10
197.5874639292038
 20
26.45833400929439
 30
0.0
 11
197.5874639292038
 21
21.0583340092943
 31
0.0
  0
ARC
  5
C7F3
330
1F
100
AcDbEntity
  8
0
100
AcDbCircle
 10
195.087463929204
 20
4.058334009294412
 30
0.0
 40
2.5
100
AcDbArc
 50
0.0
 51
90.0
  0
LINE
  5
C7F4
330
1F
100
AcDbEntity
  8
0
100
AcDbLine
 10
98.48746392920332
 20
-3.841665990705678
 30
0.0
 11
343.9874639292039
 21
-3.841665990705564
 31
0.0
  0
LINE
  5
C7F5
330
1F
100
AcDbEntity
  8
0
100
AcDbLine
 10
98.48746392920332
 20
-3.841665990705678
 30
0.0
 11
98.48746392920332
 21
-3.841665990705678
 31
0.0
  0
ARC
  5
C7F6
330
1F
100
AcDbEntity
  8
0
100
AcDbCircle
 10
195.0874639292038
 20
-1.341665990705564
 30
0.0
 40
2.5
100
AcDbArc
 50
270.0
 51
0.0
  0
ARC
  5
C7F7
330
1F
100
AcDbEntity
  8
0
100
AcDbCircle
 10
222.4874639292038
 20
38.45833400929439
 30
0.0
 40
2.5
100
AcDbArc
 50
90.0
 51
180.0
  0
ARC
  5
C7F8
330
1F
100
AcDbEntity
  8
0
100
AcDbCircle
 10
222.4874639292038
 20
31.45833400929439
 30
0.0
 40
2.5
100
AcDbArc
 50
180.0
 51
270.0
  0
LINE
  5
C7F9
330
1F
100
AcDbEntity
  8
0
100
AcDbLine
 10
195.087463929204
 20
6.558334009294412
 30
0.0
 11
98.48746392920345
 21
6.558334009294412
 31
0.0
  0
LINE
  5
C7FA
330
1F
100
AcDbEntity
  8
0
100
AcDbLine
 10
195.0874639292038
 20
18.5583340092943
 30
0.0
 11
98.48746392920345
 21
18.5583340092943
 31
0.0
  0
LINE
  5
C7FB
330
1F
100
AcDbEntity
  8
0
100
AcDbLine
 10
195.0874639292038
 20
40.95833400929438
 30
0.0
 11
98.48746392920345
 21
40.95833400929428
 31
0.0
  0
LINE
  5
C7FC
330
1F
100
AcDbEntity
  8
0
100
AcDbLine
 10
195.0874639292038
 20
28.95833400929439
 30
0.0
 11
98.48746392920345
 21
28.95833400929428
 31
0.0
  0
LINE
  5
C7FD
330
1F
100
AcDbEntity
  8
0
100
AcDbLine
 10
219.9874639292038
 20
31.45833400929439
 30
0.0
 11
219.9874639292038
 21
38.45833400929439
 31
0.0
  0
ARC
  5
C7FE
330
1F
100
AcDbEntity
  8
0
100
AcDbCircle
 10
248.4874639292038
 20
16.05833400929441
 30
0.0
 40
2.5
100
AcDbArc
 50
90.0
 51
180.0
  0
ARC
  5
C7FF
330
1F
100
AcDbEntity
  8
0
100
AcDbCircle
 10
248.4874639292037
 20
9.058334009294412
 30
0.0
 40
2.5
100
AcDbArc
 50
180.0
 51
270.0
  0
ARC
  5
C800
330
1F
100
AcDbEntity
  8
0
100
AcDbCircle
 10
325.4874639292038
 20
38.45833400929439
 30
0.0
 40
2.5
100
AcDbArc
 50
0.0
 51
90.0
  0
ARC
  5
C801
330
1F
100
AcDbEntity
  8
0
100
AcDbCircle
 10
325.4874639292039
 20
31.45833400929451
 30
0.0
 40
2.5
100
AcDbArc
 50
270.0
 51
0.0
  0
ARC
  5
C802
330
1F
100
AcDbEntity
  8
0
100
AcDbCircle
 10
325.4874639292038
 20
16.05833400929441
 30
0.0
 40
2.5
100
AcDbArc
 50
0.0
 51
90.0
  0
LINE
  5
C803
330
1F
100
AcDbEntity
  8
0
100
AcDbLine
 10
327.9874639292039
 20
31.45833400929451
 30
0.0
 11
327.9874639292038
 21
38.4583340092945
 31
0.0
  0
LINE
  5
C804
330
1F
100
AcDbEntity
  8
0
100
AcDbLine
 10
325.4874639292038
 20
40.95833400929438
 30
0.0
 11
222.4874639292038
 21
40.95833400929438
 31
0.0
  0
LINE
  5
C805
330
1F
100
AcDbEntity
  8
0
100
AcDbLine
 10
325.4874639292039
 20
28.95833400929451
 30
0.0
 11
222.4874639292038
 21
28.95833400929439
 31
0.0
  0
LINE
  5
C806
330
1F
100
AcDbEntity
  8
0
100
AcDbLine
 10
325.4874639292038
 20
18.55833400929441
 30
0.0
 11
248.4874639292038
 21
18.55833400929441
 31
0.0
  0
ARC
  5
C807
330
1F
100
AcDbEntity
  8
0
100
AcDbCircle
 10
325.4874639292039
 20
9.058334009294412
 30
0.0
 40
2.5
100
AcDbArc
 50
270.0
 51
0.0
  0
ARC
  5
C808
330
1F
100
AcDbEntity
  8
0
100
AcDbCircle
 10
343.9874639292039
 20
-6.341665990705564
 30
0.0
 40
2.5
100
AcDbArc
 50
0.0
 51
90.0
  0
ARC
  5
C809
330
1F
100
AcDbEntity
  8
0
100
AcDbCircle
 10
343.9874639292039
 20
-13.34166599070556
 30
0.0
 40
2.5
100
AcDbArc
 50
270.0
 51
0.0
  0
LINE
  5
C80A
330
1F
100
AcDbEntity
  8
0
100
AcDbLine
 10
346.4874639292039
 20
-13.34166599070556
 30
0.0
 11
346.4874639292039
 21
-6.341665990705564
 31
0.0
  0
ARC
  5
C80B
330
1F
100
AcDbEntity
  8
0
100
AcDbCircle
 10
195.0874639292037
 20
-18.34166599070568
 30
0.0
 40
2.5
100
AcDbArc
 50
0.0
 51
90.0
  0
LINE
  5
C80C
330
1F
100
AcDbEntity
  8
0
100
AcDbLine
 10
195.0874639292037
 20
-15.84166599070568
 30
0.0
 11
98.48746392920345
 21
-15.84166599070568
 31
0.0
  0
ARC
  5
C80D
330
1F
100
AcDbEntity
  8
0
100
AcDbCircle
 10
195.0874639292038
 20
-23.74166599070566
 30
0.0
 40
2.5
100
AcDbArc
 50
270.0
 51
0.0
  0
ARC
  5
C80E
330
1F
100
AcDbEntity
  8
0
100
AcDbCircle
 10
98.48746392920332
 20
-1.341665990705678
 30
0.0
 40
2.5
100
AcDbArc
 50
180.0
 51
270.0
  0
ARC
  5
C80F
330
1F
100
AcDbEntity
  8
0
100
AcDbCircle
 10
98.48746392920345
 20
-18.34166599070568
 30
0.0
 40
2.5
100
AcDbArc
 50
90.0
 51
180.0
  0
LINE
  5
C810
330
1F
100
AcDbEntity
  8
0
100
AcDbLine
 10
95.98746392920332
 20
-1.341665990705678
 30
0.0
 11
95.98746392920345
 21
4.058334009294412
 31
0.0
  0
LINE
  5
C811
330
1F
100
AcDbEntity
  8
0
100
AcDbLine
 10
325.4874639292039
 20
6.558334009294412
 30
0.0
 11
248.4874639292037
 21
6.558334009294412
 31
0.0
  0
ARC
  5
C812
330
1F
100
AcDbEntity
  8
0
100
AcDbCircle
 10
98.48746392920345
 20
-23.74166599070566
 30
0.0
 40
2.5
100
AcDbArc
 50
180.0
 51
270.0
  0
LINE
  5
C813
330
1F
100
AcDbEntity
  8
0
100
AcDbLine
 10
343.9874639292039
 20
-15.84166599070556
 30
0.0
 11
195.0874639292037
 21
-15.84166599070568
 31
0.0
  0
ARC
  5
C814
330
1F
100
AcDbEntity
  8
0
100
AcDbCircle
 10
353.015797469823
 20
-23.74166599070554
 30
0.0
 40
2.5
100
AcDbArc
 50
270.0
 51
0.0
  0
LINE
  5
C815
330
1F
100
AcDbEntity
  8
0
100
AcDbLine
 10
353.015797469823
 20
-26.24166599070554
 30
0.0
 11
98.48746392920345
 21
-26.24166599070566
 31
0.0
  0
LINE
  5
C817
330
1F
100
AcDbEntity
  8
0
100
AcDbLine
 10
95.98746392920345
 20
-23.74166599070566
 30
0.0
 11
95.98746392920345
 21
-18.34166599070568
 31
0.0
  0
LINE
  5
C818
330
1F
100
AcDbEntity
  8
0
100
AcDbLine
 10
327.9874639292039
 20
9.058334009294412
 30
0.0
 11
327.9874639292038
 21
16.05833400929441
 31
0.0
  0
LINE
  5
C819
330
1F
100
AcDbEntity
  8
0
100
AcDbLine
 10
245.9874639292037
 20
9.058334009294412
 30
0.0
 11
245.9874639292038
 21
16.05833400929441
 31
0.0
  0
LINE
  5
C81A
330
1F
100
AcDbEntity
  8
0
100
AcDbLine
 10
197.5874639292038
 20
-23.74166599070566
 30
0.0
 11
197.5874639292037
 21
-18.34166599070568
 31
0.0
  0
LINE
  5
C81B
330
1F
100
AcDbEntity
  8
0
100
AcDbLine
 10
355.515797469823
 20
-23.74166599070554
 30
0.0
 11
355.515797469823
 21
119.9583340092942
 31
0.0
  0
LINE
  5
C81C
330
1F
100
AcDbEntity
  8
0
100
AcDbLine
 10
346.4874639292039
 20
2.158334009294435
 30
0.0
 11
346.4874639292039
 21
94.05833400929429
 31
0.0
  0
LINE
  5
C81D
330
1F
100
AcDbEntity
  8
0
100
AcDbLine
 10
338.9798990849607
 20
2.158334009294435
 30
0.0
 11
338.9798990849607
 21
94.05833400929429
 31
0.0
  0
LINE
  5
C81E
330
1F
100
AcDbEntity
  8
0
100
AcDbLine
 10
197.5874639292038
 20
-1.341665990705564
 30
0.0
 11
197.5874639292038
 21
97.5583340092943
 31
0.0
  0
TEXT
  5
C81F
330
1F
100
AcDbEntity
  8
6
100
AcDbText
 10
212.5374639292039
 20
15.00833400929434
 30
0.0
 40
8.0
  1
HEIZÖLSPERRE
 50
90.0
  7
ISOCP
100
AcDbText
  0
LINE
  5
C820
330
1F
100
AcDbEntity
  8
0
100
AcDbLine
 10
81.98746392920389
 20
48.10833400929436
 30
0.0
 11
83.53398268184383
 21
136.7083340092942
 31
0.0
  0
LINE
  5
C821
330
1F
100
AcDbEntity
  8
0
100
AcDbLine
 10
81.98746392920389
 20
48.10833400929448
 30
0.0
 11
83.53398268184383
 21
-40.49166599070566
 31
0.0
  0
LINE
  5
C824
330
1F
100
AcDbEntity
  8
0
100
AcDbLine
 10
368.9874639292038
 20
-28.49166599070566
 30
0.0
 11
356.9874639292037
 21
-40.49166599070566
 31
0.0
  0
LINE
  5
C897
330
1F
100
AcDbEntity
  8
0
100
AcDbLine
 10
95.98746392920407
 20
533.4999999999999
 30
0.0
 11
95.98746392920361
 21
523.4999999999998
 31
0.0
  0
LINE
  5
C898
330
1F
100
AcDbEntity
  8
0
100
AcDbLine
 10
195.9874639292039
 20
533.4999999999999
 30
0.0
 11
195.987463929204
 21
532.0000000000001
 31
0.0
  0
LINE
  5
C899
330
1F
100
AcDbEntity
  8
0
100
AcDbLine
 10
219.987463929204
 20
533.4999999999999
 30
0.0
 11
219.9874639292038
 21
532.0
 31
0.0
  0
LINE
  5
C89A
330
1F
100
AcDbEntity
  8
0
100
AcDbLine
 10
245.9874639292039
 20
533.4999999999999
 30
0.0
 11
245.9874639292039
 21
532.0
 31
0.0
  0
LINE
  5
C89B
330
1F
100
AcDbEntity
  8
0
100
AcDbLine
 10
327.987463929204
 20
533.4999999999999
 30
0.0
 11
327.987463929204
 21
532.0
 31
0.0
  0
LINE
  5
C89C
330
1F
100
AcDbEntity
  8
0
100
AcDbLine
 10
346.487463929204
 20
533.4999999999999
 30
0.0
 11
346.4874639292038
 21
532.0
 31
0.0
  0
LINE
  5
C89D
330
1F
100
AcDbEntity
  8
0
100
AcDbLine
 10
354.987463929204
 20
533.4999999999999
 30
0.0
 11
354.9874639292038
 21
532.0
 31
0.0
  0
LINE
  5
C89E
330
1F
100
AcDbEntity
  8
0
100
AcDbLine
 10
82.72319357606376
 20
526.4999999999999
 30
0.0
 11
82.82299669742725
 21
526.5000000000001
 31
0.0
  0
LINE
  5
C89F
330
1F
100
AcDbEntity
  8
0
100
AcDbLine
 10
81.98746392920407
 20
533.4999999999999
 30
0.0
 11
82.72319357606397
 21
526.4999999999999
 31
0.0
  0
LINE
  5
C8A0
330
1F
100
AcDbEntity
  8
0
100
AcDbLine
 10
83.8175185927953
 20
525.6045284632677
 30
0.0
 11
84.66933885911613
 21
517.4999999999999
 31
0.0
  0
LINE
  5
C8A1
330
1F
100
AcDbEntity
  8
0
100
AcDbLine
 10
208.087463929204
 20
526.4999999999999
 30
0.0
 11
356.5157974698231
 21
526.4999999999998
 31
0.0
  0
ARC
  5
C8A2
330
1F
100
AcDbEntity
  8
0
100
AcDbCircle
 10
82.82299669742725
 20
525.5000000000001
 30
0.0
 40
1.0
100
AcDbArc
 50
5.99999999999848
 51
90.0
  0
LINE
  5
C8A3
330
1F
100
AcDbEntity
  8
0
100
AcDbLine
 10
90.70913038858464
 20
519.5
 30
0.0
 11
90.70913038858464
 21
519.5
 31
0.0
  0
ARC
  5
C8A4
330
1F
100
AcDbEntity
  8
0
100
AcDbCircle
 10
94.70913038858464
 20
519.5
 30
0.0
 40
4.0
100
AcDbArc
 50
90.0
 51
180.0
  0
LINE
  5
C8A5
330
1F
100
AcDbEntity
  8
0
100
AcDbLine
 10
84.66933885911613
 20
517.4999999999999
 30
0.0
 11
112.7198491163328
 21
517.4999999999999
 31
0.0
  0
LINE
  5
C8A6
330
1F
100
AcDbEntity
  8
0
100
AcDbLine
 10
84.45913038858476
 20
519.5
 30
0.0
 11
90.70913038858464
 21
519.5
 31
0.0
  0
LINE
  5
C8A8
330
1F
100
AcDbEntity
  8
0
100
AcDbLine
 10
235.4874639292039
 20
519.0
 30
0.0
 11
235.4874639292041
 21
518.5000000000001
 31
0.0
  0
LINE
  5
C8A9
330
1F
100
AcDbEntity
  8
0
100
AcDbLine
 10
215.487463929204
 20
519.0
 30
0.0
 11
215.4874639292041
 21
518.5
 31
0.0
  0
LINE
  5
C8AA
330
1F
100
AcDbEntity
  8
0
100
AcDbLine
 10
205.587463929204
 20
524.0
 30
0.0
 11
205.587463929204
 21
519.5
 31
0.0
  0
LINE
  5
C8AB
330
1F
100
AcDbEntity
  8
0
100
AcDbLine
 10
197.5874639292038
 20
523.5
 30
0.0
 11
197.5874639292038
 21
519.5
 31
0.0
  0
LINE
  5
C8AC
330
1F
100
AcDbEntity
  8
0
100
AcDbLine
 10
197.5874639292038
 20
523.5
 30
0.0
 11
195.987463929204
 21
532.0
 31
0.0
  0
LINE
  5
C8AD
330
1F
100
AcDbEntity
  8
0
100
AcDbLine
 10
235.987463929204
 20
519.5
 30
0.0
 11
338.0157974698229
 21
519.5000000000002
 31
0.0
  0
ARC
  5
C8AE
330
1F
100
AcDbEntity
  8
0
100
AcDbCircle
 10
208.087463929204
 20
524.0
 30
0.0
 40
2.5
100
AcDbArc
 50
90.0
 51
180.0
  0
LINE
  5
C8AF
330
1F
100
AcDbEntity
  8
0
100
AcDbLine
 10
366.515797469823
 20
517.4999999999999
 30
0.0
 11
366.515797469823
 21
519.5
 31
0.0
  0
ARC
  5
C8B0
330
1F
100
AcDbEntity
  8
0
100
AcDbCircle
 10
368.1519311609807
 20
525.5000000000001
 30
0.0
 40
1.0
100
AcDbArc
 50
90.0
 51
174.0000000000015
  0
LINE
  5
C8B1
330
1F
100
AcDbEntity
  8
0
100
AcDbLine
 10
367.1574092656124
 20
525.6045284632677
 30
0.0
 11
366.515797469823
 21
519.5
 31
0.0
  0
LINE
  5
C8B2
102
{ACAD_REACTORS
330
C8C6
102
}
330
1F
100
AcDbEntity
  8
0
100
AcDbLine
 10
368.9874639292037
 20
533.4999999999999
 30
0.0
 11
368.2512149786926
 21
526.4950591557997
 31
0.0
  0
LINE
  5
C8B3
330
1F
100
AcDbEntity
  8
0
100
AcDbLine
 10
368.2517342823439
 20
526.4999999999999
 30
0.0
 11
368.1519311609807
 21
526.5000000000001
 31
0.0
  0
LINE
  5
C8B4
330
1F
100
AcDbEntity
  8
0
100
AcDbLine
 10
360.515797469823
 20
517.4999999999999
 30
0.0
 11
360.515797469823
 21
522.4999999999998
 31
0.0
  0
ARC
  5
C8B5
330
1F
100
AcDbEntity
  8
0
100
AcDbCircle
 10
356.5157974698231
 20
522.4999999999998
 30
0.0
 40
4.0
100
AcDbArc
 50
0.0
 51
90.0
  0
LINE
  5
C8B6
330
1F
100
AcDbEntity
  8
0
100
AcDbLine
 10
360.5157974698229
 20
519.5
 30
0.0
 11
366.515797469823
 21
519.5
 31
0.0
  0
ARC
  5
C8B7
330
1F
100
AcDbEntity
  8
0
100
AcDbCircle
 10
214.987463929204
 20
519.0
 30
0.0
 40
0.5
100
AcDbArc
 50
359.9999999999968
 51
90.0
  0
ARC
  5
C8B8
330
1F
100
AcDbEntity
  8
0
100
AcDbCircle
 10
235.987463929204
 20
519.0
 30
0.0
 40
0.5
100
AcDbArc
 50
90.0
 51
180.0
  0
ARC
  5
C8B9
330
1F
100
AcDbEntity
  8
0
100
AcDbCircle
 10
115.169338859116
 20
517.0
 30
0.0
 40
2.5
100
AcDbArc
 50
90.0
 51
168.4630409671852
  0
LINE
  5
C8BA
330
1F
100
AcDbEntity
  8
0
100
AcDbLine
 10
235.4874639292041
 20
518.5000000000001
 30
0.0
 11
215.4874639292041
 21
518.5
 31
0.0
  0
LINE
  5
C8BB
330
1F
100
AcDbEntity
  8
0
100
AcDbLine
 10
339.5157974698229
 20
517.4999999999999
 30
0.0
 11
366.5157974698229
 21
517.4999999999999
 31
0.0
  0
LINE
  5
C8BC
330
1F
100
AcDbEntity
  8
0
100
AcDbLine
 10
95.98746392920395
 20
532.0
 30
0.0
 11
354.987463929204
 21
532.0
 31
0.0
  0
LINE
  5
C8BD
102
{ACAD_REACTORS
330
C8C6
102
}
330
1F
100
AcDbEntity
  8
0
100
AcDbLine
 10
368.9874639292039
 20
533.4999999999999
 30
0.0
 11
81.98746392920407
 21
533.4999999999999
 31
0.0
  0
LINE
  5
C8BE
330
1F
100
AcDbEntity
  8
0
100
AcDbLine
 10
115.169338859116
 20
519.5
 30
0.0
 11
214.987463929204
 21
519.5
 31
0.0
  0
LINE
  5
C8BF
330
1F
100
AcDbEntity
  8
0
100
AcDbLine
 10
94.70913038858464
 20
523.5
 30
0.0
 11
205.587463929204
 21
523.5
 31
0.0
  0
LINE
  5
C8C0
330
1F
100
AcDbEntity
  8
0
100
AcDbLine
 10
339.5157974698229
 20
518.0000000000002
 30
0.0
 11
339.5157974698229
 21
517.4999999999999
 31
0.0
  0
ARC
  5
C8C1
330
1F
100
AcDbEntity
  8
0
100
AcDbCircle
 10
338.0157974698229
 20
518.0000000000002
 30
0.0
 40
1.5
100
AcDbArc
 50
0.0
 51
90.0
  0
HATCH
  5
C8C2
330
1F
100
AcDbEntity
  8
AM_8
100
AcDbHatch
 10
0.0
 20
0.0
 30
0.0
210
0.0
220
0.0
230
1.0
  2
_U
 70
     0
 71
     0
 91
        2
 92
        7
 72
     1
 73
     1
 93
        9
 10
95.98746392920395
 20
532.0
 42
0.0
 10
82.14512028210265
 20
532.0
 42
0.0
 10
82.72319357606397
 20
526.4999999999999
 42
0.0
 10
82.82299669742725
 20
526.5000000000001
 42
-0.3838640350354312
 10
83.8175185927953
 20
525.6045284632676
 42
0.0
 10
84.45913038858453
 20
519.5
 42
0.0
 10
90.70913038858464
 20
519.5
 42
-0.4142135623730866
 10
94.70913038858464
 20
523.5
 42
0.0
 10
95.98746392920361
 20
523.5
 42
0.0
 97
        0
 92
        7
 72
     0
 73
     1
 93
        4
 10
95.98746392920407
 20
533.4999999999999
 10
81.98746392920407
 20
533.4999999999999
 10
82.14512028210265
 20
532.0
 10
95.98746392920407
 20
532.0
 97
        0
 75
     0
 76
     0
 52
135.0
 41
5.700000000000001
 77
     0
 78
     1
 53
135.0
 43
0.0
 44
0.0
 45
-4.030508652763321
 46
-4.03050865276332
 79
     0
 47
0.1257987156228761
 98
        2
 10
87.79489996488974
 20
527.55
 10
90.44489996488961
 20
532.3
1001
ACAD
1010
0.0
1020
0.0
1030
0.0
  0
HATCH
  5
C8C3
330
1F
100
AcDbEntity
  8
AM_8
100
AcDbHatch
 10
0.0
 20
0.0
 30
0.0
210
0.0
220
0.0
230
1.0
  2
_U
 70
     0
 71
     0
 91
        2
 92
        7
 72
     1
 73
     1
 93
       10
 10
368.8298075763051
 20
532.0
 42
0.0
 10
225.4874639292038
 20
532.0
 42
0.0
 10
225.4874639292038
 20
526.4999999999999
 42
0.0
 10
356.5157974698231
 20
526.4999999999998
 42
-0.4142135623730964
 10
360.515797469823
 20
522.4999999999998
 42
0.0
 10
360.515797469823
 20
519.5
 42
0.0
 10
366.515797469823
 20
519.5
 42
0.0
 10
367.1574092656124
 20
525.6045284632677
 42
-0.3838640350354165
 10
368.1519311609807
 20
526.5000000000001
 42
0.0
 10
368.2517342823438
 20
526.4999999999999
 42
0.0
 97
        0
 92
        7
 72
     1
 73
     1
 93
        7
 10
225.487463929204
 20
532.0
 42
0.0
 10
195.987463929204
 20
532.0
 42
0.0
 10
197.587463929204
 20
523.5
 42
0.0
 10
205.587463929204
 20
523.5
 42
0.0
 10
205.587463929204
 20
524.0
 42
-0.4142135623730951
 10
208.087463929204
 20
526.4999999999999
 42
0.0
 10
225.4874639292038
 20
526.4999999999999
 42
0.0
 97
        0
 75
     0
 76
     0
 52
135.0
 41
5.700000000000001
 77
     0
 78
     1
 53
135.0
 43
0.0
 44
0.0
 45
-4.030508652763321
 46
-4.03050865276332
 79
     0
 47
0.6724485882054875
 98
        2
 10
282.3948999648897
 20
528.9
 10
215.1448999648896
 20
528.9
1001
ACAD
1010
0.0
1020
0.0
1030
0.0
  0
DIMENSION
  5
C8C4
102
{ACAD_XDICTIONARY
360
C8C5
102
}
102
{ACAD_REACTORS
330
C8C6
102
}
330
1F
100
AcDbEntity
  8
AM_5
100
AcDbDimension
  2
*D9
 10
368.9874639292037
 20
552.1164035384044
 30
0.0
 11
226.1171272633492
 21
552.1164035384044
 31
0.0
 70
   160
 71
     5
 42
286.9999999999997
  3
LEADER$0
100
AcDbAlignedDimension
 13
81.98746392920407
 23
533.4999999999999
 33
0.0
 14
368.9874639292037
 24
533.4999999999999
 34
0.0
100
AcDbRotatedDimension
  0
LINE
  5
C8C7
330
1F
100
AcDbEntity
  8
0
100
AcDbLine
 10
368.882359693938
 20
532.5
 30
0.0
 11
354.987463929204
 21
532.5
 31
0.0
  0
LINE
  5
C948
330
1F
100
AcDbEntity
  8
0
100
AcDbLine
 10
206.4874639292037
 20
349.5005407070599
 30
0.0
 11
286.4874639292036
 21
349.5005407070597
 31
0.0
  0
LINE
  5
C949
330
1F
100
AcDbEntity
  8
0
100
AcDbLine
 10
206.4874639292037
 20
351.5005407070599
 30
0.0
 11
221.9925665013708
 21
351.5005407070599
 31
0.0
  0
LINE
  5
C94A
330
1F
100
AcDbEntity
  8
0
100
AcDbLine
 10
206.4874639292038
 20
353.5005407070601
 30
0.0
 11
221.6681166372214
 21
353.5005407070601
 31
0.0
  0
LINE
  5
C94B
330
1F
100
AcDbEntity
  8
0
100
AcDbLine
 10
206.4874639292037
 20
349.5005407070599
 30
0.0
 11
206.4874639292038
 21
353.5005407070601
 31
0.0
  0
LINE
  5
C94C
330
1F
100
AcDbEntity
  8
0
100
AcDbLine
 10
286.4874639292036
 20
349.5005407070597
 30
0.0
 11
286.4874639292036
 21
353.5005407070599
 31
0.0
  0
ARC
  5
C94D
330
1F
100
AcDbEntity
  8
0
100
AcDbCircle
 10
246.4874639292038
 20
278.5005407070603
 30
0.0
 40
79.0
100
AcDbArc
 50
90.90661662261421
 51
108.3106515464887
  0
ARC
  5
C94E
330
1F
100
AcDbEntity
  8
0
100
AcDbCircle
 10
246.4874639292038
 20
278.5005407070603
 30
0.0
 40
77.0
100
AcDbArc
 50
71.45100038660522
 51
108.5489996133948
  0
ARC
  5
C94F
330
1F
100
AcDbEntity
  8
0
100
AcDbCircle
 10
246.4874639292041
 20
278.5005407070603
 30
0.0
 40
79.0
100
AcDbArc
 50
71.6893484535113
 51
88.76438572814324
  0
LINE
  5
C950
330
1F
100
AcDbEntity
  8
0
100
AcDbLine
 10
271.3068112211868
 20
353.5005407070599
 30
0.0
 11
286.4874639292037
 21
353.5005407070599
 31
0.0
  0
LINE
  5
C951
330
1F
100
AcDbEntity
  8
0
100
AcDbLine
 10
270.9823613570372
 20
351.5005407070599
 30
0.0
 11
286.4874639292036
 21
351.5005407070597
 31
0.0
  0
LINE
  5
C952
330
1F
100
AcDbEntity
  8
0
100
AcDbLine
 10
245.2374639292038
 20
355.4903939346123
 30
0.0
 11
245.2374639292038
 21
358.0601249472364
 31
0.0
  0
LINE
  5
C953
330
1F
100
AcDbEntity
  8
0
100
AcDbLine
 10
247.7374639292039
 20
355.4903939346123
 30
0.0
 11
247.7374639292039
 21
356.2139131362067
 31
0.0
  0
LINE
  5
C954
330
1F
100
AcDbEntity
  8
0
100
AcDbLine
 10
236.2374639292038
 20
357.5005407070601
 30
0.0
 11
245.2374639292038
 21
357.5005407070599
 31
0.0
  0
LINE
  5
C955
330
1F
100
AcDbEntity
  8
0
100
AcDbLine
 10
236.2374639292038
 20
359.0005407070599
 30
0.0
 11
242.7421335031933
 21
359.0005407070599
 31
0.0
  0
LINE
  5
C956
330
1F
100
AcDbEntity
  8
0
100
AcDbLine
 10
236.2374639292038
 20
357.5005407070603
 30
0.0
 11
236.2374639292038
 21
359.0005407070601
 31
0.0
  0
LINE
  5
C957
330
1F
100
AcDbEntity
  8
0
100
AcDbLine
 10
256.737463929204
 20
357.5005407070603
 30
0.0
 11
256.737463929204
 21
359.0005407070601
 31
0.0
  0
CIRCLE
  5
C959
330
1F
100
AcDbEntity
  8
0
100
AcDbCircle
 10
246.4874639292038
 20
362.7505407070599
 30
0.0
 40
2.75
  0
LINE
  5
C95A
330
1F
100
AcDbEntity
  8
0
100
AcDbLine
 10
245.2374639292038
 20
362.7505407070601
 30
0.0
 11
245.2374639292038
 21
365.2000304498431
 31
0.0
  0
LINE
  5
C95B
330
1F
100
AcDbEntity
  8
0
100
AcDbLine
 10
247.7374639292039
 20
370.0005407070601
 30
0.0
 11
247.7374639292039
 21
468.9005407070601
 31
0.0
  0
ARC
  5
C95C
330
1F
100
AcDbEntity
  8
0
100
AcDbCircle
 10
249.7374639292039
 20
356.2139131362067
 30
0.0
 40
2.0
100
AcDbArc
 50
116.4364860297919
 51
180.0
  0
ARC
  5
C95D
330
1F
100
AcDbEntity
  8
0
100
AcDbCircle
 10
247.2374639292038
 20
358.0601249472364
 30
0.0
 40
2.0
100
AcDbArc
 50
99.08472028738975
 51
180.0
  0
LINE
  5
C95E
330
1F
100
AcDbEntity
  8
0
100
AcDbLine
 10
248.2062586869454
 20
357.5005407070601
 30
0.0
 11
256.737463929204
 21
357.5005407070601
 31
0.0
  0
ARC
  5
C95F
330
1F
100
AcDbEntity
  8
0
100
AcDbCircle
 10
246.4874639292038
 20
362.7505407070599
 30
0.0
 40
5.299999999999999
100
AcDbArc
 50
296.4364860297919
 51
256.3583229709796
  0
LINE
  5
C960
330
1F
100
AcDbEntity
  8
0
100
AcDbLine
 10
250.2327943552145
 20
359.0005407070601
 30
0.0
 11
256.737463929204
 21
359.0005407070599
 31
0.0
  0
HATCH
  5
C961
330
1F
100
AcDbEntity
  8
8
100
AcDbHatch
 10
0.0
 20
0.0
 30
0.0
210
0.0
220
0.0
230
1.0
  2
NET
 70
     0
 71
     0
 91
        1
 92
        7
 72
     1
 73
     1
 93
        6
 10
221.9925665013708
 20
351.5005407070599
 42
0.0
 10
206.4874639292037
 20
351.5005407070599
 42
0.0
 10
206.4874639292037
 20
349.5005407070599
 42
0.0
 10
286.4874639292036
 20
349.5005407070597
 42
0.0
 10
286.4874639292037
 20
351.5005407070597
 42
0.0
 10
270.9823613570372
 20
351.5005407070599
 42
0.1632993161855556
 97
        0
 75
     0
 76
     1
 52
45.0
 41
15.0
 77
     0
 78
     2
 53
45.0
 43
-161.5125360707964
 44
-1134.99945929294
 45
-1.325825214724776
 46
1.325825214724776
 79
     0
 53
135.0
 43
-161.5125360707964
 44
-1134.99945929294
 45
-1.325825214724776
 46
-1.325825214724776
 79
     0
 47
0.087914640218207
 98
        1
 10
240.9874639292037
 20
352.0005407070601
  0
HATCH
  5
C962
330
1F
100
AcDbEntity
  8
8
100
AcDbHatch
 10
0.0
 20
0.0
 30
0.0
210
0.0
220
0.0
230
1.0
  2
LINE
 70
     0
 71
     0
 91
        2
 92
        7
 72
     1
 73
     1
 93
        7
 10
248.191009325679
 20
357.4821710592008
 42
0.1734284151905657
 10
247.7374639292039
 20
356.2139131362067
 42
0.0
 10
247.7374639292039
 20
355.4903939346123
 42
-0.0770284656463208
 10
270.9823613570375
 20
351.5005407070599
 42
0.0
 10
286.4874639292037
 20
351.5005407070599
 42
0.0
 10
286.4874639292036
 20
353.5005407070601
 42
0.0
 10
271.3068112211868
 20
353.5005407070599
 42
0.0746420647379353
 97
        0
 92
        7
 72
     1
 73
     1
 93
        6
 10
245.2374639292038
 20
357.4906508475079
 42
0.0760857414002629
 10
221.6681166372214
 20
353.5005407070601
 42
0.0
 10
206.4874639292037
 20
353.5005407070599
 42
0.0
 10
206.4874639292037
 20
351.5005407070599
 42
0.0
 10
221.9925665013708
 20
351.5005407070599
 42
-0.0770284656463189
 10
245.2374639292038
 20
355.4903939346123
 42
0.0
 97
        0
 75
     0
 76
     1
 52
300.0
 41
15.0
 77
     0
 78
     1
 53
300.0
 43
-161.5125360707964
 44
-1134.99945929294
 45
1.623797632095822
 46
0.9375000000000001
 79
     0
 47
0.1285659780349824
 98
        2
 10
251.9874639292037
 20
356.0005407070601
 10
234.7374639292037
 20
355.7505407070601
  0
CIRCLE
  5
C964
330
1F
100
AcDbEntity
  8
0
100
AcDbCircle
 10
246.4874639292036
 20
412.2505407070596
 30
0.0
 40
40.0
  0
LINE
  5
C965
330
1F
100
AcDbEntity
  8
0
100
AcDbLine
 10
245.2374639292038
 20
370.0005407070601
 30
0.0
 11
247.7374639292037
 21
370.0005407070601
 31
0.0
  0
LINE
  5
C967
330
1F
100
AcDbEntity
  8
0
100
AcDbLine
 10
248.9874639292036
 20
452.172339263738
 30
0.0
 11
248.9874639292038
 21
468.9005407070601
 31
0.0
  0
LINE
  5
C968
330
1F
100
AcDbEntity
  8
0
100
AcDbLine
 10
247.7374639292039
 20
468.9005407070601
 30
0.0
 11
248.9874639292036
 21
468.9005407070601
 31
0.0
  0
LINE
  5
C96D
330
1F
100
AcDbEntity
  8
0
100
AcDbLine
 10
245.2374639292038
 20
367.9010261210768
 30
0.0
 11
245.2374639292038
 21
372.2700767277609
 31
0.0
  0
LINE
  5
C96E
330
1F
100
AcDbEntity
  8
0
100
AcDbLine
 10
246.4874639292038
 20
362.7505407070601
 30
0.0
 11
246.4874639292038
 21
365.5005407070599
 31
0.0
  0
LINE
  5
C973
330
1F
100
AcDbEntity
  8
0
100
AcDbLine
 10
246.4874639292038
 20
368.0505407070598
 30
0.0
 11
246.4874639292037
 21
452.2505407070596
 31
0.0
  0
LINE
  5
C974
330
1F
100
AcDbEntity
  8
0
100
AcDbLine
 10
246.4874639292038
 20
362.7505407070599
 30
0.0
 11
245.2374639292038
 21
362.7505407070601
 31
0.0
  0
LINE
  5
C975
330
1F
100
AcDbEntity
  8
0
100
AcDbLine
 10
251.7374639292039
 20
357.5005407070603
 30
0.0
 11
251.7374639292039
 21
359.0005407070601
 31
0.0
  0
LINE
  5
C976
330
1F
100
AcDbEntity
  8
0
100
AcDbLine
 10
241.2374639292039
 20
357.5005407070603
 30
0.0
 11
241.2374639292039
 21
359.0005407070601
 31
0.0
  0
HATCH
  5
C977
330
1F
100
AcDbEntity
  8
8
100
AcDbHatch
 10
0.0
 20
0.0
 30
0.0
210
0.0
220
0.0
230
1.0
  2
ANSI31
 70
     0
 71
     0
 91
        1
 92
        7
 72
     0
 73
     1
 93
        4
 10
241.2374639292039
 20
359.0005407070599
 10
236.2374639292037
 20
359.0005407070599
 10
236.2374639292036
 20
357.5005407070599
 10
241.2374639292039
 20
357.5005407070597
 97
        0
 75
     0
 76
     1
 52
0.0
 41
10.0
 77
     0
 78
     1
 53
45.0
 43
-161.5125360707964
 44
-1134.99945929294
 45
-0.8838834764831842
 46
0.8838834764831844
 79
     0
 47
0.0299279575169944
 98
        1
 10
239.6912778896675
 20
357.9588205971587
  0
HATCH
  5
C978
330
1F
100
AcDbEntity
  8
8
100
AcDbHatch
 10
0.0
 20
0.0
 30
0.0
210
0.0
220
0.0
230
1.0
  2
ANSI31
 70
     0
 71
     0
 91
        1
 92
        7
 72
     0
 73
     1
 93
        4
 10
256.7374639292041
 20
359.0005407070596
 10
251.7374639292039
 20
359.0005407070601
 10
251.7374639292039
 20
357.5005407070601
 10
256.7374639292038
 20
357.5005407070599
 97
        0
 75
     0
 76
     1
 52
0.0
 41
10.0
 77
     0
 78
     1
 53
45.0
 43
-161.5125360707964
 44
-1134.99945929294
 45
-0.8838834764831842
 46
0.8838834764831844
 79
     0
 47
0.0299279575169944
 98
        1
 10
254.42588448803
 20
358.1383876464716
  0
LINE
  5
C979
330
1F
100
AcDbEntity
  8
0
100
AcDbLine
 10
248.4874639292037
 20
354.5005407070601
 30
0.0
 11
244.4874639292037
 21
354.5005407070604
 31
0.0
  0
LINE
  5
C97A
330
1F
100
AcDbEntity
  8
0
100
AcDbLine
 10
248.4874639292038
 20
354.5005407070604
 30
0.0
 11
248.4874639292038
 21
355.4745622987635
 31
0.0
  0
LINE
  5
C97B
330
1F
100
AcDbEntity
  8
0
100
AcDbLine
 10
244.4874639292037
 20
354.5005407070604
 30
0.0
 11
244.4874639292036
 21
355.4745622987633
 31
0.0
  0
DIMENSION
  5
C98C
330
1F
100
AcDbEntity
  8
AM_5
100
AcDbDimension
  2
*D10
 10
22.53521372467183
 20
-40.49166599070563
 30
0.0
 11
22.53521372467185
 21
52.43123487858975
 31
0.0
 70
   160
 71
     5
 42
177.1999999999999
  3
LEADER$0
100
AcDbAlignedDimension
 13
83.53398268184383
 23
136.7083340092942
 33
0.0
 14
83.53398268184383
 24
-40.49166599070566
 34
0.0
 50
90.00000000000003
100
AcDbRotatedDimension
1001
ACAD
1000
DSTYLE
1002
{
1070
   279
1070
     0
1002
}
  0
DIMENSION
  5
CA53
330
1F
100
AcDbEntity
  8
AM_5
100
AcDbDimension
  2
*D11
 10
-3.420096771824337
 20
-52.39166599070538
 30
0.0
 11
-10.1708349608007
 21
48.10833400929457
 31
0.0
 70
    32
  1
200
 71
     5
 42
200.9999999999999
  3
LEADER$0
100
AcDbAlignedDimension
 13
74.98746392920385
 23
148.6083340092944
 33
0.0
 14
74.98746392920385
 24
-52.3916659907054
 34
0.0
 50
90.0
100
AcDbRotatedDimension
  0
DIMENSION
  5
CA98
330
1F
100
AcDbEntity
  8
AM_5
100
AcDbDimension
  2
*D12
 10
48.48684375812446
 20
89.65833400929433
 30
0.0
 11
37.23684375812445
 21
94.85833400929434
 31
0.0
 70
    32
 71
     5
 42
10.39999999999998
  3
LEADER$0
100
AcDbAlignedDimension
 13
98.48746392920332
 23
100.0583340092943
 33
0.0
 14
98.48746392920345
 24
89.65833400929431
 34
0.0
 50
90.00000000000003
100
AcDbRotatedDimension
  0
DIMENSION
  5
CAEF
330
1F
100
AcDbEntity
  8
AM_5
100
AcDbDimension
  2
*D13
 10
49.15684735959803
 20
517.4999999999999
 30
0.0
 11
42.40684735959795
 21
526.0
 31
0.0
 70
    32
 71
     5
 42
17.0
  3
LEADER$0
100
AcDbAlignedDimension
 13
73.98746392920384
 23
534.4999999999999
 33
0.0
 14
79.98746392920384
 24
517.4999999999999
 34
0.0
 50
90.00000000000003
100
AcDbRotatedDimension
  0
LINE
  5
CB81
330
1F
100
AcDbEntity
  8
0
100
AcDbLine
 10
179.9874639292038
 20
342.4999999999999
 30
0.0
 11
179.9874639292038
 21
375.4999999999999
 31
0.0
  0
LINE
  5
CB82
330
1F
100
AcDbEntity
  8
0
100
AcDbLine
 10
189.9874639292038
 20
337.4999999999999
 30
0.0
 11
89.98746392920384
 21
337.4999999999999
 31
0.0
  0
LINE
  5
CB83
330
1F
100
AcDbEntity
  8
0
100
AcDbLine
 10
194.9874639292038
 20
342.4999999999999
 30
0.0
 11
84.98746392920384
 21
342.4999999999999
 31
0.0
  0
ARC
  5
CB84
330
1F
100
AcDbEntity
  8
0
100
AcDbCircle
 10
189.9874639292038
 20
342.4999999999999
 30
0.0
 40
5.0
100
AcDbArc
 50
270.0
 51
0.0
  0
ARC
  5
CB85
330
1F
100
AcDbEntity
  8
0
100
AcDbCircle
 10
89.98746392920384
 20
342.4999999999999
 30
0.0
 40
5.0
100
AcDbArc
 50
180.0
 51
270.0
  0
LINE
  5
CB86
330
1F
100
AcDbEntity
  8
3A
100
AcDbLine
 10
185.9874639292038
 20
322.4999999999999
 30
0.0
 11
93.9874639292039
 21
322.4999999999999
 31
0.0
  0
LINE
  5
CB87
330
1F
100
AcDbEntity
  8
0
100
AcDbLine
 10
93.9874639292039
 20
322.4999999999999
 30
0.0
 11
89.98746392920379
 21
337.4999999999999
 31
0.0
  0
LINE
  5
CB88
330
1F
100
AcDbEntity
  8
0
100
AcDbLine
 10
185.9874639292037
 20
322.4999999999999
 30
0.0
 11
189.9874639292037
 21
337.4999999999999
 31
0.0
  0
LINE
  5
CB89
330
1F
100
AcDbEntity
  8
0
100
AcDbLine
 10
93.9874639292039
 20
322.4999999999999
 30
0.0
 11
98.71265277331673
 21
266.6568591150309
 31
0.0
  0
ARC
  5
CB8A
330
1F
100
AcDbEntity
  8
0
100
AcDbCircle
 10
108.6770450502242
 20
267.4999999999999
 30
0.0
 40
10.0
100
AcDbArc
 50
184.836583445732
 51
270.0
  0
LINE
  5
CB8B
330
1F
100
AcDbEntity
  8
0
100
AcDbLine
 10
108.6770450502242
 20
257.4999999999999
 30
0.0
 11
171.2978828081834
 21
257.4999999999999
 31
0.0
  0
LINE
  5
CB8C
330
1F
100
AcDbEntity
  8
0
100
AcDbLine
 10
185.9874639292037
 20
322.4999999999999
 30
0.0
 11
181.2622750850909
 21
266.6568591150309
 31
0.0
  0
ARC
  5
CB8D
330
1F
100
AcDbEntity
  8
0
100
AcDbCircle
 10
171.2978828081834
 20
267.4999999999999
 30
0.0
 40
10.0
100
AcDbArc
 50
270.0
 51
355.1634165542679
  0
LINE
  5
CB90
330
1F
100
AcDbEntity
  8
0
100
AcDbLine
 10
174.9874639292038
 20
380.4999999999999
 30
0.0
 11
104.9874639292038
 21
380.4999999999999
 31
0.0
  0
ARC
  5
CB91
330
1F
100
AcDbEntity
  8
0
100
AcDbCircle
 10
174.9874639292038
 20
375.4999999999999
 30
0.0
 40
5.0
100
AcDbArc
 50
0.0
 51
90.0
  0
ARC
  5
CB92
330
1F
100
AcDbEntity
  8
0
100
AcDbCircle
 10
104.9874639292038
 20
375.4999999999999
 30
0.0
 40
5.0
100
AcDbArc
 50
90.0
 51
180.0
  0
LINE
  5
CB93
330
1F
100
AcDbEntity
  8
0
100
AcDbLine
 10
194.9874639292037
 20
331.9999999999999
 30
0.0
 11
188.520797262537
 21
331.9999999999999
 31
0.0
  0
LINE
  5
CB94
330
1F
100
AcDbEntity
  8
0
100
AcDbLine
 10
194.9874639292037
 20
327.4999999999999
 30
0.0
 11
187.3207972625371
 21
327.4999999999999
 31
0.0
  0
LINE
  5
CB95
330
1F
100
AcDbEntity
  8
0
100
AcDbLine
 10
84.98746392920384
 20
327.4999999999999
 30
0.0
 11
84.98746392920384
 21
331.9999999999999
 31
0.0
  0
ARC
  5
CB96
330
1F
100
AcDbEntity
  8
0
100
AcDbCircle
 10
104.9874639292038
 20
375.4999999999999
 30
0.0
 40
9.5
100
AcDbArc
 50
90.0
 51
180.0
  0
ARC
  5
CB97
330
1F
100
AcDbEntity
  8
0
100
AcDbCircle
 10
174.9874639292038
 20
375.4999999999999
 30
0.0
 40
9.5
100
AcDbArc
 50
0.0
 51
90.0
  0
LINE
  5
CB98
330
1F
100
AcDbEntity
  8
0
100
AcDbLine
 10
174.9874639292038
 20
384.9999999999999
 30
0.0
 11
104.9874639292038
 21
384.9999999999999
 31
0.0
  0
LINE
  5
CB99
330
1F
100
AcDbEntity
  8
0
100
AcDbLine
 10
184.4874639292039
 20
342.4999999999999
 30
0.0
 11
184.4874639292038
 21
375.4999999999999
 31
0.0
  0
LINE
  5
CB9A
330
1F
100
AcDbEntity
  8
0
100
AcDbLine
 10
194.9874639292038
 20
327.4999999999999
 30
0.0
 11
194.9874639292038
 21
331.9999999999999
 31
0.0
  0
LINE
  5
CB9B
330
1F
100
AcDbEntity
  8
0
100
AcDbLine
 10
90.48746392920383
 20
331.9999999999999
 30
0.0
 11
84.98746392920384
 21
331.9999999999999
 31
0.0
  0
LINE
  5
CB9C
330
1F
100
AcDbEntity
  8
0
100
AcDbLine
 10
90.4874639292039
 20
327.4999999999999
 30
0.0
 11
84.98746392920384
 21
327.4999999999999
 31
0.0
  0
ARC
  5
CB9D
330
1F
100
AcDbEntity
  8
0
100
AcDbCircle
 10
90.48746392920383
 20
336.9999999999999
 30
0.0
 40
5.0
100
AcDbArc
 50
270.0
 51
280.8681920938818
  0
ARC
  5
CB9E
330
1F
100
AcDbEntity
  8
0
100
AcDbCircle
 10
90.48746392920383
 20
336.9999999999999
 30
0.0
 40
9.5
100
AcDbArc
 50
270.0
 51
282.7941741190546
  0
LINE
  5
CB9F
330
1F
100
AcDbEntity
  8
0
100
AcDbLine
 10
107.0911371321467
 20
251.737723114799
 30
0.0
 11
105.1081140011581
 21
258.1585476949773
 31
0.0
  0
ARC
  5
CBA0
330
1F
100
AcDbEntity
  8
0
100
AcDbCircle
 10
109.2374639292041
 20
253.4999999999999
 30
0.0
 40
3.0
100
AcDbArc
 50
241.6136301913403
 51
298.6777445643932
  0
LINE
  5
CBA1
330
1F
100
AcDbEntity
  8
0
100
AcDbLine
 10
111.385627564071
 20
251.7259112719117
 30
0.0
 11
113.2374639292041
 21
257.4999999999999
 31
0.0
  0
ARC
  5
CBA2
330
1F
100
AcDbEntity
  8
0
100
AcDbCircle
 10
108.5243415274468
 20
252.1803574574484
 30
0.0
 40
1.5
100
AcDbArc
 50
197.1629079632516
 51
241.6136301913403
  0
ARC
  5
CBA3
330
1F
100
AcDbEntity
  8
0
100
AcDbCircle
 10
171.4505863309608
 20
252.1803574574484
 30
0.0
 40
1.5
100
AcDbArc
 50
298.3863698086633
 51
342.8370920367484
  0
LINE
  5
CBA4
330
1F
100
AcDbEntity
  8
0
100
AcDbLine
 10
168.5893002943365
 20
251.725911271912
 30
0.0
 11
166.7374639292035
 21
257.4999999999999
 31
0.0
  0
ARC
  5
CBA5
330
1F
100
AcDbEntity
  8
0
100
AcDbCircle
 10
170.7374639292035
 20
253.4999999999999
 30
0.0
 40
3.0
100
AcDbArc
 50
241.3222554356032
 51
298.3863698086633
  0
LINE
  5
CBA6
330
1F
100
AcDbEntity
  8
0
100
AcDbLine
 10
172.8837907262609
 20
251.737723114799
 30
0.0
 11
174.8668138572496
 21
258.1585476949773
 31
0.0
  0
ARC
  5
CBA7
330
1F
100
AcDbEntity
  8
0
100
AcDbCircle
 10
109.9572880553877
 20
252.1840010534335
 30
0.0
 40
1.5
100
AcDbArc
 50
298.6777445643932
 51
342.2181794238808
  0
ARC
  5
CBA8
330
1F
100
AcDbEntity
  8
0
100
AcDbCircle
 10
170.0176398030198
 20
252.1840010534335
 30
0.0
 40
1.5
100
AcDbArc
 50
197.7818205761192
 51
241.3222554356032
  0
LINE
  5
CBA9
330
1F
100
AcDbEntity
  8
0
100
AcDbLine
 10
95.48746392920383
 20
342.4999999999999
 30
0.0
 11
95.48746392920383
 21
375.4999999999999
 31
0.0
  0
LINE
  5
CBAA
330
1F
100
AcDbEntity
  8
0
100
AcDbLine
 10
99.98746392920384
 20
342.4999999999999
 30
0.0
 11
99.98746392920384
 21
375.4999999999999
 31
0.0
  0
LINE
  5
CC12
330
1F
100
AcDbEntity
  8
0
100
AcDbLine
 10
345.7950757737788
 20
497.5502525316941
 30
0.0
 11
363.4727453034425
 21
515.2279220613578
 31
0.0
  0
LINE
  5
CC13
330
1F
100
AcDbEntity
  8
0
100
AcDbLine
 10
363.4727453034425
 20
515.2279220613578
 30
0.0
 11
365.5940656470021
 21
513.1066017177982
 31
0.0
  0
LINE
  5
CC14
330
1F
100
AcDbEntity
  8
0
100
AcDbLine
 10
359.9372113975098
 20
511.6923881554251
 30
0.0
 11
362.0585317410694
 21
509.5710678118655
 31
0.0
  0
LINE
  5
CC36
330
1F
100
AcDbEntity
  8
0
100
AcDbLine
 10
336.6026876183532
 20
506.7426406871198
 30
0.0
 11
343.3202020396257
 21
513.4601551083917
 31
0.0
  0
LINE
  5
CC37
330
1F
100
AcDbEntity
  8
0
100
AcDbLine
 10
343.3202020396257
 20
513.4601551083917
 30
0.0
 11
350.3912698514914
 21
506.389087296526
 31
0.0
  0
LINE
  5
CC38
330
1F
100
AcDbEntity
  8
0
100
AcDbLine
 10
343.6737554302192
 20
499.6715728752538
 30
0.0
 11
361.3514249598828
 21
517.3492424049174
 31
0.0
  0
LINE
  5
CC39
330
1F
100
AcDbEntity
  8
0
100
AcDbLine
 10
361.3514249598828
 20
517.3492424049174
 30
0.0
 11
363.4727453034425
 21
515.2279220613578
 31
0.0
  0
HATCH
  5
CC46
330
1F
100
AcDbEntity
  8
AM_8
100
AcDbHatch
 10
0.0
 20
0.0
 30
0.0
210
0.0
220
0.0
230
1.0
  2
_U
 70
     0
 71
     0
 91
        1
 92
        1
 93
        4
 72
     1
 10
362.0585317410694
 20
509.5710678118655
 11
365.5940656470021
 21
513.1066017177982
 72
     1
 10
365.5940656470021
 20
513.1066017177982
 11
363.4727453034425
 21
515.2279220613578
 72
     1
 10
363.4727453034425
 20
515.2279220613578
 11
359.9372113975098
 21
511.6923881554251
 72
     1
 10
359.9372113975098
 20
511.6923881554251
 11
362.0585317410694
 21
509.5710678118655
 97
        0
 75
     0
 76
     0
 52
45.0
 41
1.62
 77
     1
 78
     2
 53
45.0
 43
0.0
 44
0.0
 45
-1.145512985522207
 46
1.145512985522207
 79
     0
 53
135.0
 43
0.0
 44
0.0
 45
-1.145512985522207
 46
-1.145512985522207
 79
     0
 98
        1
 10
0.0
 20
0.0
1001
GENIUS_GENOBJ-N-HTC_13
1002
{
1000
OWNER
1000
GEN
1002
}
1001
GENIUS_GENODEF_13
1002
{
1000
HIER
1070
     0
1002
}
1002
{
1000
MANEDIT
1070
     0
1002
}
1002
{
1000
NOSEL
1070
     0
1002
}
1002
{
1000
BEHIND
1070
     0
1002
}
1002
{
1000
OTHER
1070
     0
1002
}
1002
{
1000
REACTOR
1002
}
1001
GENIUS_GENHATCH_13
1002
{
1000
DATA
1040
45.0
1042
0.09
1000
_U
1070
     1
1011
362.2338031201325
1021
512.1544826295576
1031
0.0
1002
}
1002
{
1000
UCS
1010
0.0
1020
0.0
1030
0.0
1010
1.0
1020
0.0
1030
0.0
1010
0.0
1020
1.0
1030
0.0
1002
}
  0
LINE
  5
CC4C
330
1F
100
AcDbEntity
  8
0
100
AcDbLine
 10
345.7950757737789
 20
497.5502525316942
 30
0.0
 11
328.1174062441153
 21
479.8725830020305
 31
0.0
  0
LINE
  5
CC4D
330
1F
100
AcDbEntity
  8
0
100
AcDbLine
 10
328.1174062441153
 20
479.8725830020305
 30
0.0
 11
330.2387265876749
 21
477.7512626584709
 31
0.0
  0
LINE
  5
CC4E
330
1F
100
AcDbEntity
  8
0
100
AcDbLine
 10
331.652940150048
 20
483.4081169079632
 30
0.0
 11
333.7742604936076
 21
481.2867965644036
 31
0.0
  0
LINE
  5
CC4F
330
1F
100
AcDbEntity
  8
0
100
AcDbLine
 10
336.6026876183533
 20
506.7426406871198
 30
0.0
 11
329.8851731970813
 21
500.0251262658473
 31
0.0
  0
LINE
  5
CC50
330
1F
100
AcDbEntity
  8
0
100
AcDbLine
 10
329.8851731970813
 20
500.0251262658473
 30
0.0
 11
336.956241008947
 21
492.9540584539816
 31
0.0
  0
LINE
  5
CC51
330
1F
100
AcDbEntity
  8
0
100
AcDbLine
 10
343.6737554302191
 20
499.6715728752538
 30
0.0
 11
325.9960859005556
 21
481.9939033455901
 31
0.0
  0
LINE
  5
CC52
330
1F
100
AcDbEntity
  8
0
100
AcDbLine
 10
325.9960859005556
 20
481.9939033455901
 30
0.0
 11
328.1174062441153
 21
479.8725830020305
 31
0.0
  0
HATCH
  5
CC53
330
1F
100
AcDbEntity
  8
AM_8
100
AcDbHatch
 10
0.0
 20
0.0
 30
0.0
210
0.0
220
0.0
230
1.0
  2
_U
 70
     0
 71
     0
 91
        1
 92
        1
 93
        4
 72
     1
 10
333.7742604936076
 20
481.2867965644036
 11
330.2387265876749
 21
477.7512626584709
 72
     1
 10
330.2387265876749
 20
477.7512626584709
 11
328.1174062441153
 21
479.8725830020305
 72
     1
 10
328.1174062441153
 20
479.8725830020305
 11
331.652940150048
 21
483.4081169079632
 72
     1
 10
331.652940150048
 20
483.4081169079632
 11
333.7742604936076
 21
481.2867965644036
 97
        0
 75
     0
 76
     0
 52
45.0
 41
1.62
 77
     1
 78
     2
 53
225.0000000000001
 43
843.3453283054721
 44
843.3453283054744
 45
-1.14551298552221
 46
1.145512985522203
 79
     0
 53
135.0000000000001
 43
843.3453283054721
 44
843.3453283054744
 45
1.145512985522203
 46
1.14551298552221
 79
     0
 98
        1
 10
843.3453283054721
 20
843.3453283054744
1001
GENIUS_GENOBJ-N-HTC_13
1002
{
1000
OWNER
1000
GEN
1002
}
1001
GENIUS_GENODEF_13
1002
{
1000
HIER
1070
     0
1002
}
1002
{
1000
MANEDIT
1070
     0
1002
}
1002
{
1000
NOSEL
1070
     0
1002
}
1002
{
1000
BEHIND
1070
     0
1002
}
1002
{
1000
OTHER
1070
     0
1002
}
1002
{
1000
REACTOR
1002
}
1001
GENIUS_GENHATCH_13
1002
{
1000
DATA
1040
45.0
1042
-0.09
1000
_U
1070
     1
1011
331.1908456759155
1021
481.1115251853404
1031
0.0
1002
}
1002
{
1000
UCS
1010
0.0
1020
0.0
1030
0.0
1010
1.0
1020
0.0
1030
0.0
1010
0.0
1020
1.0
1030
0.0
1002
}
  0
LINE
  5
CC6C
330
1F
100
AcDbEntity
  8
0
100
AcDbLine
 10
207.9874639292039
 20
299.4580253103304
 30
0.0
 11
207.9874639292039
 21
300.9999999999998
 31
0.0
  0
LINE
  5
CC6D
330
1F
100
AcDbEntity
  8
0
100
AcDbLine
 10
204.4874639292038
 20
291.9999999999996
 30
0.0
 11
204.4874639292038
 21
294.7300595466984
 31
0.0
  0
LINE
  5
CC6E
330
1F
100
AcDbEntity
  8
0
100
AcDbLine
 10
187.9874639292038
 20
280.9999999999996
 30
0.0
 11
192.5594516682558
 21
280.9999999999996
 31
0.0
  0
LINE
  5
CC6F
330
1F
100
AcDbEntity
  8
0
100
AcDbLine
 10
189.4874639292038
 20
291.9999999999998
 30
0.0
 11
204.4874639292037
 21
291.9999999999996
 31
0.0
  0
LINE
  5
CC70
330
1F
100
AcDbEntity
  8
0
100
AcDbLine
 10
207.9874639292039
 20
300.9999999999996
 30
0.0
 11
219.4874639292038
 21
300.9999999999996
 31
0.0
  0
LINE
  5
CC71
330
1F
100
AcDbEntity
  8
0
100
AcDbLine
 10
187.9874639292038
 20
280.9999999999998
 30
0.0
 11
189.4874639292039
 21
291.9999999999998
 31
0.0
  0
LINE
  5
CC72
330
1F
100
AcDbEntity
  8
0
100
AcDbLine
 10
217.6246681239423
 20
275.8522566289692
 30
0.0
 11
219.4874639292038
 21
300.9999999999998
 31
0.0
  0
ARC
  5
CC73
330
1F
100
AcDbEntity
  8
0
100
AcDbCircle
 10
206.4158581288068
 20
283.0
 30
0.0
 40
2.0
100
AcDbArc
 50
188.2132107017363
 51
270.0
  0
ARC
  5
CC74
330
1F
100
AcDbEntity
  8
0
100
AcDbCircle
 10
192.5594516682557
 20
283.0
 30
0.0
 40
2.0
100
AcDbArc
 50
270.0
 51
351.7867892982637
  0
ARC
  5
CC75
330
1F
100
AcDbEntity
  8
0
100
AcDbCircle
 10
199.4876548985312
 20
282.0000000000001
 30
0.0
 40
5.0
100
AcDbArc
 50
8.213210701736322
 51
171.7867892982637
  0
LINE
  5
CC76
330
1F
100
AcDbEntity
  8
0
100
AcDbLine
 10
212.4948385706339
 20
279.6307336141213
 30
0.0
 11
212.8277368810552
 21
275.8256885145043
 31
0.0
  0
LINE
  5
CC77
330
1F
100
AcDbEntity
  8
3A
100
AcDbLine
 10
214.7986065722212
 20
273.9999999999998
 30
0.0
 11
215.6301326150289
 21
273.9999999999998
 31
0.0
  0
ARC
  5
CC79
330
1F
100
AcDbEntity
  8
0
100
AcDbCircle
 10
215.6301326150289
 20
275.9999999999998
 30
0.0
 40
2.0
100
AcDbArc
 50
270.0
 51
355.763605200941
  0
ARC
  5
CC7A
330
1F
100
AcDbEntity
  8
0
100
AcDbCircle
 10
214.8201262772387
 20
275.9999999999996
 30
0.0
 40
2.0
100
AcDbArc
 50
184.9999999999998
 51
270.0
  0
LINE
  5
CC7B
330
1F
100
AcDbEntity
  8
0
100
AcDbLine
 10
214.8201262772387
 20
273.9999999999998
 30
0.0
 11
278.9950745330203
 21
274.0000000000001
 31
0.0
  0
ARC
  5
CC7C
330
1F
100
AcDbEntity
  8
0
100
AcDbCircle
 10
211.0005465234963
 20
279.4999999999998
 30
0.0
 40
1.5
100
AcDbArc
 50
4.999999999999796
 51
90.0
  0
ARC
  5
CC7D
330
1F
100
AcDbEntity
  8
0
100
AcDbCircle
 10
205.487463929204
 20
299.4587177613121
 30
0.0
 40
2.5
100
AcDbArc
 50
280.4267433883053
 51
0.0
  0
ARC
  5
CC7E
330
1F
100
AcDbEntity
  8
0
100
AcDbCircle
 10
206.9874639292037
 20
294.7300595466987
 30
0.0
 40
2.5
100
AcDbArc
 50
114.7728439218747
 51
180.0
  0
ARC
  5
CC7F
330
1F
100
AcDbEntity
  8
0
100
AcDbCircle
 10
286.987463929204
 20
294.7300595466987
 30
0.0
 40
2.5
100
AcDbArc
 50
0.0
 51
65.22715607812529
  0
ARC
  5
CC80
330
1F
100
AcDbEntity
  8
0
100
AcDbCircle
 10
288.4874639292038
 20
299.4587177613121
 30
0.0
 40
2.5
100
AcDbArc
 50
180.0
 51
259.5732566116947
  0
ARC
  5
CC81
330
1F
100
AcDbEntity
  8
0
100
AcDbCircle
 10
282.9743813349115
 20
279.4999999999998
 30
0.0
 40
1.5
100
AcDbArc
 50
90.0
 51
175.0000000000002
  0
ARC
  5
CC82
330
1F
100
AcDbEntity
  8
0
100
AcDbCircle
 10
279.1548015811689
 20
275.9999999999996
 30
0.0
 40
2.0
100
AcDbArc
 50
270.0
 51
355.0000000000002
  0
ARC
  5
CC83
330
1F
100
AcDbEntity
  8
0
100
AcDbCircle
 10
278.3447952433788
 20
275.9999999999998
 30
0.0
 40
2.0
100
AcDbArc
 50
184.2363947990589
 51
270.0
  0
LINE
  5
CC84
330
1F
100
AcDbEntity
  8
3A
100
AcDbLine
 10
279.1763212861866
 20
273.9999999999998
 30
0.0
 11
278.3447952433788
 21
273.9999999999998
 31
0.0
  0
LINE
  5
CC85
330
1F
100
AcDbEntity
  8
0
100
AcDbLine
 10
281.4800892877739
 20
279.6307336141213
 30
0.0
 11
281.1471909773525
 21
275.8256885145043
 31
0.0
  0
ARC
  5
CC86
330
1F
100
AcDbEntity
  8
0
100
AcDbCircle
 10
294.4872729598765
 20
282.0000000000001
 30
0.0
 40
5.0
100
AcDbArc
 50
8.213210701736322
 51
171.7867892982637
  0
ARC
  5
CC87
330
1F
100
AcDbEntity
  8
0
100
AcDbCircle
 10
301.415476190152
 20
283.0
 30
0.0
 40
2.0
100
AcDbArc
 50
188.2132107017363
 51
270.0
  0
ARC
  5
CC88
330
1F
100
AcDbEntity
  8
0
100
AcDbCircle
 10
287.559069729601
 20
283.0
 30
0.0
 40
2.0
100
AcDbArc
 50
270.0
 51
351.7867892982637
  0
LINE
  5
CC89
330
1F
100
AcDbEntity
  8
0
100
AcDbLine
 10
276.3502597344654
 20
275.8522566289692
 30
0.0
 11
274.4874639292039
 21
300.9999999999998
 31
0.0
  0
LINE
  5
CC8A
330
1F
100
AcDbEntity
  8
0
100
AcDbLine
 10
305.9874639292039
 20
280.9999999999998
 30
0.0
 11
304.4874639292038
 21
291.9999999999998
 31
0.0
  0
LINE
  5
CC8B
330
1F
100
AcDbEntity
  8
0
100
AcDbLine
 10
304.4874639292038
 20
291.9999999999998
 30
0.0
 11
289.4874639292039
 21
291.9999999999996
 31
0.0
  0
LINE
  5
CC8C
330
1F
100
AcDbEntity
  8
0
100
AcDbLine
 10
305.9874639292039
 20
280.9999999999996
 30
0.0
 11
301.415476190152
 21
280.9999999999996
 31
0.0
  0
LINE
  5
CC8D
330
1F
100
AcDbEntity
  8
0
100
AcDbLine
 10
289.4874639292039
 20
291.9999999999996
 30
0.0
 11
289.4874639292039
 21
294.7300595466984
 31
0.0
  0
LINE
  5
CC8E
330
1F
100
AcDbEntity
  8
0
100
AcDbLine
 10
285.9874639292038
 20
299.4580253103304
 30
0.0
 11
285.9874639292038
 21
300.9999999999998
 31
0.0
  0
LINE
  5
CC8F
330
1F
100
AcDbEntity
  8
0
100
AcDbLine
 10
219.4874639292038
 20
300.9999999999996
 30
0.0
 11
246.9874639292038
 21
300.9999999999997
 31
0.0
  0
LINE
  5
CC90
330
1F
100
AcDbEntity
  8
0
100
AcDbLine
 10
274.4874639292039
 20
300.9999999999996
 30
0.0
 11
285.9874639292038
 21
300.9999999999996
 31
0.0
  0
HATCH
  5
CC91
330
1F
100
AcDbEntity
  8
AM_8
100
AcDbHatch
 10
0.0
 20
0.0
 30
0.0
210
0.0
220
0.0
230
1.0
  2
_U
 70
     0
 71
     0
 91
        4
 92
        7
 72
     1
 73
     1
 93
        7
 10
218.0059824477224
 20
280.9999999999998
 42
0.0
 10
211.0005465234963
 20
280.9999999999998
 42
-0.3888787318529835
 10
212.4948385706339
 20
279.6307336141213
 42
0.0
 10
212.8277368810552
 20
275.8256885145043
 42
0.3888787318529823
 10
214.8201262772387
 20
273.9999999999998
 42
0.0
 10
215.630132615029
 20
273.9999999999998
 42
0.3927194441827083
 10
217.6246681239423
 20
275.8522566289692
 42
0.0
 97
        0
 92
       23
 72
     1
 73
     1
 93
        6
 10
218.4504268921668
 20
286.9999999999998
 42
0.0
 10
199.4876548985312
 20
286.9999999999998
 42
-0.3728246932726793
 10
204.4363714915852
 20
282.7142857142858
 42
0.3728246932727559
 10
206.4158581288068
 20
280.9999999999996
 42
0.0
 10
211.0005465234963
 20
280.9999999999998
 42
0.0
 10
218.0059824477224
 20
280.9999999999998
 42
0.0
 97
        0
 92
        7
 72
     1
 73
     1
 93
        7
 10
219.4874639292038
 20
300.9999999999996
 42
0.0
 10
207.9874639292039
 20
300.9999999999996
 42
0.0
 10
207.9874639292039
 20
299.4587177613121
 42
-0.3618629709063168
 10
205.9399094731172
 20
296.9999999999996
 42
0.2925490914080855
 10
204.4874639292038
 20
294.7300595466984
 42
0.0
 10
204.4874639292038
 20
291.9999999999998
 42
0.0
 10
218.8207972625372
 20
291.9999999999998
 42
0.0
 97
        0
 92
        7
 72
     1
 73
     1
 93
        8
 10
218.8207972625372
 20
291.9999999999998
 42
0.0
 10
204.4874639292038
 20
291.9999999999998
 42
0.0
 10
189.4874639292039
 20
291.9999999999998
 42
0.0
 10
187.9874639292038
 20
280.9999999999996
 42
0.0
 10
192.5594516682557
 20
280.9999999999996
 42
0.3728246932727109
 10
194.5389383054772
 20
282.7142857142854
 42
-0.3728246932727
 10
199.4876548985312
 20
286.9999999999998
 42
0.0
 10
218.4504268921668
 20
286.9999999999998
 42
0.0
 97
        0
 75
     0
 76
     0
 52
135.0
 41
5.700000000000001
 77
     0
 78
     1
 53
135.0
 43
0.0
 44
0.0
 45
-4.030508652763321
 46
-4.03050865276332
 79
     0
 47
0.2923005590883061
 98
        4
 10
214.7968899931636
 20
277.9999999999998
 10
213.7968899931636
 20
283.9999999999998
 10
213.2968899931636
 20
292.4999999999998
 10
209.7968899931636
 20
289.4999999999998
1001
ACAD
1010
0.0
1020
0.0
1030
0.0
  0
HATCH
  5
CC92
330
1F
100
AcDbEntity
  8
AM_8
100
AcDbHatch
 10
0.0
 20
0.0
 30
0.0
210
0.0
220
0.0
230
1.0
  2
_U
 70
     0
 71
     0
 91
        4
 92
        7
 72
     1
 73
     1
 93
        7
 10
281.4800892877739
 20
279.6307336141213
 42
-0.3888787318529911
 10
282.9743813349115
 20
280.9999999999998
 42
0.0
 10
275.9689454106854
 20
280.9999999999998
 42
0.0
 10
276.3502597344654
 20
275.8522566289692
 42
0.3927194441827144
 10
278.3447952433788
 20
273.9999999999998
 42
0.0
 10
279.1548015811689
 20
273.9999999999998
 42
0.3888787318529785
 10
281.1471909773525
 20
275.8256885145043
 42
0.0
 97
        0
 92
       23
 72
     1
 73
     1
 93
        6
 10
294.4872729598765
 20
287.0
 42
0.0
 10
275.5245009662409
 20
287.0
 42
0.0
 10
275.9689454106852
 20
280.9999999999998
 42
0.0
 10
282.9743813349115
 20
280.9999999999998
 42
0.0
 10
287.559069729601
 20
280.9999999999996
 42
0.3728246932727092
 10
289.5385563668225
 20
282.7142857142856
 42
-0.3728246932727141
 97
        0
 92
        7
 72
     1
 73
     1
 93
        8
 10
304.4874639292037
 20
291.9999999999998
 42
0.0
 10
289.4874639292039
 20
291.9999999999996
 42
0.0
 10
275.1541305958705
 20
291.9999999999996
 42
0.0
 10
275.5245009662408
 20
287.0
 42
0.0
 10
294.4872729598765
 20
287.0
 42
-0.372824693272694
 10
299.4359895529304
 20
282.7142857142858
 42
0.372824693272758
 10
301.4154761901519
 20
280.9999999999996
 42
0.0
 10
305.9874639292039
 20
280.9999999999996
 42
0.0
 97
        0
 92
        7
 72
     1
 73
     1
 93
        7
 10
285.9874639292038
 20
299.4587177613121
 42
0.0
 10
285.9874639292038
 20
300.9999999999996
 42
0.0
 10
274.4874639292039
 20
300.9999999999996
 42
0.0
 10
275.1541305958706
 20
291.9999999999998
 42
0.0
 10
289.4874639292039
 20
291.9999999999998
 42
0.0
 10
289.4874639292039
 20
294.7300595466984
 42
0.2925490914080855
 10
288.0350183852907
 20
296.9999999999996
 42
-0.3618629709063169
 97
        0
 75
     0
 76
     0
 52
135.0
 41
5.700000000000001
 77
     0
 78
     1
 53
135.0
 43
0.0
 44
0.0
 45
-4.030508652763321
 46
-4.03050865276332
 79
     0
 47
0.2923005590883061
 98
        4
 10
278.2968899931636
 20
277.9999999999998
 10
277.7968899931636
 20
283.9999999999998
 10
278.2968899931636
 20
290.4999999999999
 10
277.2968899931636
 20
297.4999999999998
1001
ACAD
1010
0.0
1020
0.0
1030
0.0
  0
LINE
  5
CC94
330
1F
100
AcDbEntity
  8
0
100
AcDbLine
 10
280.4776772367016
 20
274.4999999999999
 30
0.0
 11
307.9874639292039
 21
274.4999999999999
 31
0.0
  0
LINE
  5
CC95
330
1F
100
AcDbEntity
  8
0
100
AcDbLine
 10
246.9874639292039
 20
300.9999999999997
 30
0.0
 11
274.4874639292039
 21
300.9999999999996
 31
0.0
  0
LINE
  5
CC96
330
1F
100
AcDbEntity
  8
0
100
AcDbLine
 10
281.4686515785965
 20
279.5
 30
0.0
 11
307.9874639292039
 21
279.5
 31
0.0
  0
LINE
  5
CC97
330
1F
100
AcDbEntity
  8
0
100
AcDbLine
 10
206.4158581288068
 20
280.9999999999998
 30
0.0
 11
211.0005465234963
 21
280.9999999999998
 31
0.0
  0
LINE
  5
CC98
330
1F
100
AcDbEntity
  8
0
100
AcDbLine
 10
287.559069729601
 20
280.9999999999998
 30
0.0
 11
282.9743813349115
 21
280.9999999999998
 31
0.0
  0
LINE
  5
CC99
330
1F
100
AcDbEntity
  8
0
100
AcDbLine
 10
194.5389383054773
 20
282.7142857142856
 30
0.0
 11
194.5389383054773
 21
279.4999999999999
 31
0.0
  0
LINE
  5
CC9A
330
1F
100
AcDbEntity
  8
0
100
AcDbLine
 10
204.4363714915852
 20
282.7142857142856
 30
0.0
 11
204.4363714915852
 21
279.4999999999999
 31
0.0
  0
HATCH
  5
CCA3
330
1F
100
AcDbEntity
  8
AM_8
100
AcDbHatch
 10
0.0
 20
0.0
 30
0.0
210
0.0
220
0.0
230
1.0
  2
_U
 70
     0
 71
     0
 91
        1
 92
        1
 93
        4
 72
     2
 10
199.4876548985312
 20
282.0000000000001
 40
4.999999999999985
 50
8.213210701736331
 51
171.7867892982637
 73
     1
 72
     1
 10
194.5389383054773
 20
282.7142857142856
 11
194.5389383054773
 21
279.4999999999999
 72
     1
 10
194.5389383054773
 20
279.4999999999999
 11
204.4363714915852
 21
279.4999999999999
 72
     1
 10
204.4363714915852
 20
279.4999999999999
 11
204.4363714915852
 21
282.7142857142856
 97
        0
 75
     0
 76
     0
 52
45.0
 41
2.7
 77
     1
 78
     2
 53
45.0
 43
0.0
 44
0.0
 45
-1.909188309203678
 46
1.909188309203678
 79
     0
 53
135.0
 43
0.0
 44
0.0
 45
-1.909188309203678
 46
-1.909188309203678
 79
     0
 98
        1
 10
0.0
 20
0.0
1001
GENIUS_GENODEF_13
1002
{
1000
HIER
1070
     0
1002
}
1002
{
1000
MANEDIT
1070
     0
1002
}
1002
{
1000
NOSEL
1070
     0
1002
}
1002
{
1000
BEHIND
1070
     0
1002
}
1002
{
1000
OTHER
1070
     0
1002
}
1002
{
1000
REACTOR
1002
}
1001
GENIUS_GENOBJ-N-HTC_13
1002
{
1000
OWNER
1000
GEN
1002
}
1001
GENIUS_GENHATCH_13
1002
{
1000
DATA
1040
45.0
1042
0.09
1000
_U
1070
     1
1011
199.3986464655882
1021
282.1781059423738
1031
0.0
1002
}
1002
{
1000
UCS
1010
0.0
1020
0.0
1030
0.0
1010
1.0
1020
0.0
1030
0.0
1010
0.0
1020
1.0
1030
0.0
1002
}
  0
LINE
  5
CCA4
330
1F
100
AcDbEntity
  8
0
100
AcDbLine
 10
289.5385563668225
 20
282.7142857142856
 30
0.0
 11
289.5385563668225
 21
279.5
 31
0.0
  0
LINE
  5
CCA5
330
1F
100
AcDbEntity
  8
0
100
AcDbLine
 10
299.4359895529304
 20
282.7142857142858
 30
0.0
 11
299.4359895529305
 21
279.5
 31
0.0
  0
HATCH
  5
CCAE
330
1F
100
AcDbEntity
  8
AM_8
100
AcDbHatch
 10
0.0
 20
0.0
 30
0.0
210
0.0
220
0.0
230
1.0
  2
_U
 70
     0
 71
     0
 91
        1
 92
        1
 93
        4
 72
     2
 10
294.4872729598765
 20
282.0000000000001
 40
5.000000000000047
 50
8.213210701738862
 51
171.7867892982637
 73
     1
 72
     1
 10
289.5385563668225
 20
282.7142857142856
 11
289.5385563668225
 21
279.5
 72
     1
 10
289.5385563668225
 20
279.5
 11
299.4359895529305
 21
279.5
 72
     1
 10
299.4359895529305
 20
279.5
 11
299.4359895529304
 21
282.7142857142858
 97
        0
 75
     0
 76
     0
 52
45.0
 41
2.7
 77
     1
 78
     2
 53
45.0
 43
0.0
 44
0.0
 45
-1.909188309203678
 46
1.909188309203678
 79
     0
 53
135.0
 43
0.0
 44
0.0
 45
-1.909188309203678
 46
-1.909188309203678
 79
     0
 98
        1
 10
0.0
 20
0.0
1001
GENIUS_GENODEF_13
1002
{
1000
HIER
1070
     0
1002
}
1002
{
1000
MANEDIT
1070
     0
1002
}
1002
{
1000
NOSEL
1070
     0
1002
}
1002
{
1000
BEHIND
1070
     0
1002
}
1002
{
1000
OTHER
1070
     0
1002
}
1002
{
1000
REACTOR
1002
}
1001
GENIUS_GENOBJ-N-HTC_13
1002
{
1000
OWNER
1000
GEN
1002
}
1001
GENIUS_GENHATCH_13
1002
{
1000
DATA
1040
45.0
1042
0.09
1000
_U
1070
     1
1011
295.9756139221172
1021
282.386038872246
1031
0.0
1002
}
1002
{
1000
UCS
1010
0.0
1020
0.0
1030
0.0
1010
1.0
1020
0.0
1030
0.0
1010
0.0
1020
1.0
1030
0.0
1002
}
  0
LINE
  5
CCDD
330
1F
100
AcDbEntity
  8
0
100
AcDbLine
 10
202.4874639292038
 20
291.9999999999997
 30
0.0
 11
202.4874639292038
 21
298.9999999999997
 31
0.0
  0
LINE
  5
CCDE
330
1F
100
AcDbEntity
  8
0
100
AcDbLine
 10
202.4874639292038
 20
298.9999999999997
 30
0.0
 11
198.4874639292038
 21
298.9999999999997
 31
0.0
  0
LINE
  5
CCEA
330
1F
100
AcDbEntity
  8
0
100
AcDbLine
 10
202.4874639292038
 20
511.9999999999997
 30
0.0
 11
194.9874639292038
 21
511.9999999999997
 31
0.0
  0
LINE
  5
CCEB
330
1F
100
AcDbEntity
  8
0
100
AcDbLine
 10
194.9874639292038
 20
511.9999999999997
 30
0.0
 11
194.9874639292038
 21
291.9999999999998
 31
0.0
  0
LINE
  5
CCF7
330
1F
100
AcDbEntity
  8
0
100
AcDbLine
 10
202.4874639292038
 20
511.9999999999997
 30
0.0
 11
202.4874639292038
 21
504.9999999999998
 31
0.0
  0
LINE
  5
CCF8
330
1F
100
AcDbEntity
  8
0
100
AcDbLine
 10
202.4874639292038
 20
504.9999999999998
 30
0.0
 11
198.4874639292038
 21
504.9999999999998
 31
0.0
  0
LINE
  5
CCF9
330
1F
100
AcDbEntity
  8
0
100
AcDbLine
 10
198.4874639292038
 20
504.9999999999998
 30
0.0
 11
198.4874639292038
 21
298.9999999999997
 31
0.0
  0
LINE
  5
CD11
330
1F
100
AcDbEntity
  8
0
100
AcDbLine
 10
305.4874639292038
 20
504.9999999999998
 30
0.0
 11
291.4874639292039
 21
504.9999999999998
 31
0.0
  0
LINE
  5
CD12
330
1F
100
AcDbEntity
  8
0
100
AcDbLine
 10
291.4874639292039
 20
504.9999999999998
 30
0.0
 11
291.4874639292039
 21
511.9999999999997
 31
0.0
  0
LINE
  5
CD13
330
1F
100
AcDbEntity
  8
0
100
AcDbLine
 10
291.4874639292039
 20
511.9999999999997
 30
0.0
 11
308.9874639292038
 21
511.9999999999997
 31
0.0
  0
LINE
  5
CD14
330
1F
100
AcDbEntity
  8
0
100
AcDbLine
 10
202.4874639292038
 20
511.9999999999997
 30
0.0
 11
291.4874639292039
 21
511.9999999999997
 31
0.0
  0
LINE
  5
CD15
330
1F
100
AcDbEntity
  8
0
100
AcDbLine
 10
202.4874639292038
 20
504.9999999999998
 30
0.0
 11
291.4874639292039
 21
504.9999999999998
 31
0.0
  0
LINE
  5
CD4B
330
1F
100
AcDbEntity
  8
0
100
AcDbLine
 10
305.4874639292038
 20
389.9999999999998
 30
0.0
 11
291.4874639292039
 21
387.9999999999998
 31
0.0
  0
LINE
  5
CD4C
330
1F
100
AcDbEntity
  8
0
100
AcDbLine
 10
291.4874639292039
 20
387.9999999999998
 30
0.0
 11
291.4874639292039
 21
383.9999999999998
 31
0.0
  0
LINE
  5
CD4D
330
1F
100
AcDbEntity
  8
0
100
AcDbLine
 10
291.4874639292039
 20
383.9999999999998
 30
0.0
 11
305.4874639292038
 21
381.9999999999998
 31
0.0
  0
LINE
  5
CD4E
330
1F
100
AcDbEntity
  8
0
100
AcDbLine
 10
305.4874639292038
 20
381.9999999999998
 30
0.0
 11
308.9874639292038
 21
381.9999999999998
 31
0.0
  0
LINE
  5
CD4F
330
1F
100
AcDbEntity
  8
0
100
AcDbLine
 10
308.9874639292038
 20
511.9999999999997
 30
0.0
 11
308.9874639292038
 21
381.9999999999998
 31
0.0
  0
LINE
  5
CD50
330
1F
100
AcDbEntity
  8
0
100
AcDbLine
 10
305.4874639292038
 20
504.9999999999998
 30
0.0
 11
305.4874639292038
 21
389.9999999999998
 31
0.0
  0
LINE
  5
CD51
330
1F
100
AcDbEntity
  8
0
100
AcDbLine
 10
308.9874639292038
 20
503.5
 30
0.0
 11
333.3600469312336
 21
503.5
 31
0.0
  0
LINE
  5
CD6C
330
1F
100
AcDbEntity
  8
0
100
AcDbLine
 10
301.9874639292039
 20
382.4999999999998
 30
0.0
 11
301.9874639292039
 21
298.9999999999997
 31
0.0
  0
LINE
  5
CD6D
330
1F
100
AcDbEntity
  8
0
100
AcDbLine
 10
291.4874639292039
 20
298.9999999999997
 30
0.0
 11
308.9874639292038
 21
298.9999999999997
 31
0.0
  0
LINE
  5
CD78
330
1F
100
AcDbEntity
  8
0
100
AcDbLine
 10
304.4874639292039
 20
291.9999999999996
 30
0.0
 11
308.9874639292038
 21
291.9999999999996
 31
0.0
  0
LINE
  5
CD79
330
1F
100
AcDbEntity
  8
0
100
AcDbLine
 10
308.9874639292038
 20
291.9999999999996
 30
0.0
 11
308.9874639292038
 21
298.9999999999997
 31
0.0
  0
LINE
  5
CD7A
330
1F
100
AcDbEntity
  8
0
100
AcDbLine
 10
291.4874639292039
 20
298.9999999999997
 30
0.0
 11
291.4874639292039
 21
291.9999999999997
 31
0.0
  0
HATCH
  5
CD85
330
1F
100
AcDbEntity
  8
8
100
AcDbHatch
 10
0.0
 20
0.0
 30
0.0
210
0.0
220
0.0
230
1.0
  2
ANSI31
 70
     0
 71
     0
 91
        1
 92
        1
 93
        5
 72
     1
 10
308.9874639292038
 20
291.9999999999996
 11
308.9874639292038
 21
298.9999999999997
 72
     1
 10
308.9874639292038
 20
298.9999999999997
 11
291.4874639292039
 21
298.9999999999997
 72
     1
 10
291.4874639292039
 20
298.9999999999997
 11
291.4874639292039
 21
291.9999999999997
 72
     1
 10
291.4874639292039
 20
291.9999999999997
 11
304.4874639292038
 21
291.9999999999998
 72
     1
 10
304.4874639292038
 20
291.9999999999998
 11
308.9874639292038
 21
291.9999999999996
 97
        0
 75
     0
 76
     1
 52
0.0
 41
25.0
 77
     0
 78
     1
 53
45.0
 43
0.0
 44
0.0
 45
-2.20970869120796
 46
2.209708691207961
 79
     0
 98
        1
 10
0.0
 20
0.0
1001
GENIUS_GENOBJ-N-HTC_13
1002
{
1000
OWNER
1000
GEN
1002
}
1001
GENIUS_GENODEF_13
1002
{
1000
HIER
1070
     0
1002
}
1002
{
1000
MANEDIT
1070
     0
1002
}
1002
{
1000
NOSEL
1070
     0
1002
}
1002
{
1000
BEHIND
1070
     0
1002
}
1002
{
1000
OTHER
1070
     0
1002
}
1002
{
1000
REACTOR
1002
}
1001
GENIUS_GENHATCH_13
1002
{
1000
DATA
1040
135.0
1042
0.19
1000
_U
1070
     0
1011
302.4848075717236
1021
293.8397102344115
1031
0.0
1002
}
1002
{
1000
UCS
1010
0.0
1020
0.0
1030
0.0
1010
1.0
1020
0.0
1030
0.0
1010
0.0
1020
1.0
1030
0.0
1002
}
1001
ACAD
1010
0.0
1020
0.0
1030
0.0
  0
HATCH
  5
CD98
330
1F
100
AcDbEntity
  8
8
100
AcDbHatch
 10
0.0
 20
0.0
 30
0.0
210
0.0
220
0.0
230
1.0
  2
ANSI31
 70
     0
 71
     0
 91
        1
 92
        1
 93
        8
 72
     1
 10
194.9874639292038
 20
291.9999999999998
 11
202.4874639292038
 21
291.9999999999997
 72
     1
 10
202.4874639292038
 20
291.9999999999997
 11
202.4874639292038
 21
298.9999999999997
 72
     1
 10
202.4874639292038
 20
298.9999999999997
 11
198.4874639292038
 21
298.9999999999997
 72
     1
 10
198.4874639292038
 20
298.9999999999997
 11
198.4874639292038
 21
504.9999999999998
 72
     1
 10
198.4874639292038
 20
504.9999999999998
 11
202.4874639292038
 21
504.9999999999998
 72
     1
 10
202.4874639292038
 20
504.9999999999998
 11
202.4874639292038
 21
511.9999999999997
 72
     1
 10
202.4874639292038
 20
511.9999999999997
 11
194.9874639292038
 21
511.9999999999997
 72
     1
 10
194.9874639292038
 20
511.9999999999997
 11
194.9874639292038
 21
291.9999999999998
 97
        0
 75
     0
 76
     1
 52
0.0
 41
25.0
 77
     0
 78
     1
 53
45.0
 43
0.0
 44
0.0
 45
-2.20970869120796
 46
2.209708691207961
 79
     0
 98
        1
 10
0.0
 20
0.0
1001
GENIUS_GENODEF_13
1002
{
1000
HIER
1070
     0
1002
}
1002
{
1000
MANEDIT
1070
     0
1002
}
1002
{
1000
NOSEL
1070
     0
1002
}
1002
{
1000
BEHIND
1070
     0
1002
}
1002
{
1000
OTHER
1070
     0
1002
}
1002
{
1000
REACTOR
1002
}
1001
GENIUS_GENOBJ-N-HTC_13
1002
{
1000
OWNER
1000
GEN
1002
}
1001
GENIUS_GENHATCH_13
1002
{
1000
DATA
1040
135.0
1042
0.19
1000
_U
1070
     0
1011
198.1992138316454
1021
509.4648316755583
1031
0.0
1002
}
1002
{
1000
UCS
1010
0.0
1020
0.0
1030
0.0
1010
1.0
1020
0.0
1030
0.0
1010
0.0
1020
1.0
1030
0.0
1002
}
1001
ACAD
1010
0.0
1020
0.0
1030
0.0
  0
HATCH
  5
CDA1
330
1F
100
AcDbEntity
  8
AM_8
100
AcDbHatch
 10
0.0
 20
0.0
 30
0.0
210
0.0
220
0.0
230
1.0
  2
_U
 70
     0
 71
     0
 91
        1
 92
        1
 93
        9
 72
     1
 10
291.4874639292039
 20
504.9999999999998
 11
305.4874639292038
 21
504.9999999999998
 72
     1
 10
305.4874639292038
 20
504.9999999999998
 11
305.4874639292038
 21
389.9999999999998
 72
     1
 10
305.4874639292038
 20
389.9999999999998
 11
291.4874639292039
 21
387.9999999999998
 72
     1
 10
291.4874639292039
 20
387.9999999999998
 11
291.4874639292039
 21
383.9999999999998
 72
     1
 10
291.4874639292039
 20
383.9999999999998
 11
305.4874639292038
 21
381.9999999999998
 72
     1
 10
305.4874639292038
 20
381.9999999999998
 11
308.9874639292038
 21
381.9999999999998
 72
     1
 10
308.9874639292038
 20
381.9999999999998
 11
308.9874639292038
 21
511.9999999999997
 72
     1
 10
308.9874639292038
 20
511.9999999999997
 11
291.4874639292039
 21
511.9999999999997
 72
     1
 10
291.4874639292039
 20
511.9999999999997
 11
291.4874639292039
 21
504.9999999999998
 97
        0
 75
     0
 76
     0
 52
135.0
 41
5.700000000000001
 77
     0
 78
     1
 53
135.0
 43
0.0
 44
0.0
 45
-4.030508652763321
 46
-4.03050865276332
 79
     0
 98
        1
 10
0.0
 20
0.0
1001
GENIUS_GENODEF_13
1002
{
1000
HIER
1070
     0
1002
}
1002
{
1000
MANEDIT
1070
     0
1002
}
1002
{
1000
NOSEL
1070
     0
1002
}
1002
{
1000
BEHIND
1070
     0
1002
}
1002
{
1000
OTHER
1070
     0
1002
}
1002
{
1000
REACTOR
1002
}
1001
GENIUS_GENOBJ-N-HTC_13
1002
{
1000
OWNER
1000
GEN
1002
}
1001
GENIUS_GENHATCH_13
1002
{
1000
DATA
1040
135.0
1042
0.19
1000
_U
1070
     0
1011
299.4292186415332
1021
509.2131131367587
1031
0.0
1002
}
1002
{
1000
UCS
1010
0.0
1020
0.0
1030
0.0
1010
1.0
1020
0.0
1030
0.0
1010
0.0
1020
1.0
1030
0.0
1002
}
  0
LINE
  5
CE02
330
1F
100
AcDbEntity
  8
0
100
AcDbLine
 10
214.5212121664025
 20
504.9999999999998
 30
0.0
 11
214.5212121664024
 21
436.2954725688306
 31
0.0
  0
LINE
  5
CE03
330
1F
100
AcDbEntity
  8
0
100
AcDbLine
 10
216.5212121664025
 20
504.9999999999998
 30
0.0
 11
216.5212121664024
 21
438.7462715950426
 31
0.0
  0
LINE
  5
CE04
330
1F
100
AcDbEntity
  8
0
100
AcDbLine
 10
279.4537156920052
 20
504.9999999999998
 30
0.0
 11
279.4537156920052
 21
434.9050379363425
 31
0.0
  0
LINE
  5
CE05
330
1F
100
AcDbEntity
  8
0
100
AcDbLine
 10
277.4537156920052
 20
504.9999999999998
 30
0.0
 11
277.4537156920052
 21
437.5703205592382
 31
0.0
  0
LINE
  5
CE06
330
1F
100
AcDbEntity
  8
0
100
AcDbLine
 10
216.5212121664025
 20
385.7548098190766
 30
0.0
 11
216.5212121664025
 21
353.5005407070602
 31
0.0
  0
LINE
  5
CE07
330
1F
100
AcDbEntity
  8
0
100
AcDbLine
 10
214.5212121664024
 20
388.2056088452886
 30
0.0
 11
214.5212121664024
 21
353.5005407070602
 31
0.0
  0
LINE
  5
CE08
330
1F
100
AcDbEntity
  8
0
100
AcDbLine
 10
279.4537156920052
 20
389.5960434777768
 30
0.0
 11
279.4537156920051
 21
353.5005407070598
 31
0.0
  0
LINE
  5
CE09
330
1F
100
AcDbEntity
  8
0
100
AcDbLine
 10
277.4537156920052
 20
386.930760854881
 30
0.0
 11
277.4537156920052
 21
353.5005407070599
 31
0.0
  0
LINE
  5
CE0A
330
1F
100
AcDbEntity
  8
0
100
AcDbLine
 10
216.5212121664025
 20
349.5005407070599
 30
0.0
 11
216.5212121664025
 21
300.9999999999996
 31
0.0
  0
LINE
  5
CE0B
330
1F
100
AcDbEntity
  8
0
100
AcDbLine
 10
214.5212121664024
 20
349.5005407070599
 30
0.0
 11
214.5212121664025
 21
300.9999999999996
 31
0.0
  0
LINE
  5
CE0C
330
1F
100
AcDbEntity
  8
0
100
AcDbLine
 10
277.4537156920052
 20
349.5005407070596
 30
0.0
 11
277.4537156920052
 21
300.9999999999996
 31
0.0
  0
LINE
  5
CE0D
330
1F
100
AcDbEntity
  8
0
100
AcDbLine
 10
279.4537156920051
 20
349.5005407070597
 30
0.0
 11
279.4537156920052
 21
300.9999999999996
 31
0.0
  0
LINE
  5
CE20
330
1F
100
AcDbEntity
  8
0
100
AcDbLine
 10
346.7408302040403
 20
487.2319070223666
 30
0.0
 11
362.3350875511842
 21
477.1244088506346
 31
0.0
  0
MTEXT
  5
CE21
330
1F
100
AcDbEntity
  8
0
100
AcDbMText
 10
363.5994859343191
 20
481.7570125659521
 30
0.0
 40
10.0
 41
52.26185028987856
 71
     1
 72
     5
  1
G 1 1/4
  7
iso
 73
     1
 44
1.0
1001
ACAD
1000
ACAD_MTEXT_DEFINED_HEIGHT_BEGIN
1070
    46
1040
0.0
1000
ACAD_MTEXT_DEFINED_HEIGHT_END
1000
MTEXTBEGIN
1070
    73
1070
     1
1070
    44
1040
1.0
1070
    74
1070
     0
1000
MTEXTEND
  0
LINE
  5
CE4A
330
1F
100
AcDbEntity
  8
0
100
AcDbLine
 10
79.98746392920384
 20
434.5005407070599
 30
0.0
 11
194.9874639292038
 21
434.5005407070599
 31
0.0
  0
LINE
  5
CE4B
330
1F
100
AcDbEntity
  8
0
100
AcDbLine
 10
198.4874639292038
 20
434.5005407070599
 30
0.0
 11
213.2468637541167
 21
434.5005407070599
 31
0.0
  0
LINE
  5
CE4C
330
1F
100
AcDbEntity
  8
0
100
AcDbLine
 10
279.7280641042905
 20
434.5005407070599
 30
0.0
 11
305.4874639292038
 21
434.5005407070599
 31
0.0
  0
LINE
  5
CE4D
330
1F
100
AcDbEntity
  8
0
100
AcDbLine
 10
308.9874639292038
 20
434.5005407070599
 30
0.0
 11
319.9874639292039
 21
434.5005407070599
 31
0.0
  0
LINE
  5
CE58
330
1F
100
AcDbEntity
  8
0
100
AcDbLine
 10
324.9874639292039
 20
434.5005407070599
 30
0.0
 11
364.6224639292041
 21
434.5005407070599
 31
0.0
  0
LINE
  5
CF55
330
1F
100
AcDbEntity
  8
0
100
AcDbLine
 10
92.11181958218592
 20
427.5005407070598
 30
0.0
 11
182.8631082762215
 21
427.5005407070598
 31
0.0
  0
LINE
  5
CF56
330
1F
100
AcDbEntity
  8
0
100
AcDbLine
 10
99.04002281246139
 20
423.5005407070598
 30
0.0
 11
175.9349050459459
 21
423.5005407070598
 31
0.0
  0
LINE
  5
CF57
330
1F
100
AcDbEntity
  8
0
100
AcDbLine
 10
105.9682260427368
 20
419.5005407070598
 30
0.0
 11
169.0067018156704
 21
419.5005407070598
 31
0.0
  0
LINE
  5
CF58
330
1F
100
AcDbEntity
  8
0
100
AcDbLine
 10
331.9874639292038
 20
427.5005407070598
 30
0.0
 11
357.6224639292041
 21
427.5005407070598
 31
0.0
  0
LINE
  5
CF59
330
1F
100
AcDbEntity
  8
0
100
AcDbLine
 10
335.9874639292038
 20
423.5005407070598
 30
0.0
 11
353.6224639292041
 21
423.5005407070598
 31
0.0
  0
LINE
  5
CF5A
330
1F
100
AcDbEntity
  8
0
100
AcDbLine
 10
339.9874639292038
 20
419.5005407070598
 30
0.0
 11
349.6224639292041
 21
419.5005407070598
 31
0.0
  0
DIMENSION
  5
CFBF
330
1F
100
AcDbEntity
  8
AM_5
100
AcDbDimension
  2
*D14
 10
74.02136507389866
 20
604.5414597641673
 30
0.0
 11
291.4025233333603
 21
604.5414597641673
 31
0.0
 70
   160
 71
     5
 42
421.9710713484242
  3
LEADER$0
100
AcDbAlignedDimension
 13
495.9924364223229
 23
449.5812995438515
 33
0.0
 14
74.02136507389866
 24
535.3800927436293
 34
0.0
 50
0.0000000000000127
100
AcDbRotatedDimension
1001
ACAD
1000
DSTYLE
1002
{
1070
   279
1070
     0
1002
}
  0
DIMENSION
  5
D0A4
330
1F
100
AcDbEntity
  8
AM_5
100
AcDbDimension
  2
*D15
 10
567.7072755043427
 20
449.5795301917237
 30
0.0
 11
560.9572755043426
 21
492.0397650958618
 31
0.0
 70
    32
 71
     5
 42
84.92046980827632
  3
LEADER$0
100
AcDbAlignedDimension
 13
375.9874639292038
 23
534.4999999999999
 33
0.0
 14
496.0213650738986
 24
449.5795301917237
 34
0.0
 50
90.00000000000003
100
AcDbRotatedDimension
  0
ENDSEC
  0
SECTION
  2
OBJECTS
  0
DICTIONARY
  5
C
330
0
100
AcDbDictionary
281
     1
  3
ACAD_COLOR
350
73
  3
ACAD_GROUP
350
D
  3
ACAD_IMAGE_DICT
350
89
  3
ACAD_IMAGE_VARS
350
8A
  3
ACAD_LAYOUT
350
1A
  3
ACAD_MATERIAL
350
72
  3
ACAD_MLINESTYLE
350
17
  3
ACAD_PLOTSETTINGS
350
19
  3
ACAD_PLOTSTYLENAME
350
E
  3
ACAD_TABLESTYLE
350
AFA6
  3
ACDBHEADERROUNDTRIPXREC
350
D16D
  3
AcDbVariableDictionary
350
66
  3
AcmDictionary
350
B006
  3
AMG
350
AFAC
  3
AMGSNAPSETTINGS
350
B05C
  0
DICTIONARY
  5
CC42
330
2
100
AcDbDictionary
280
     1
281
     1
  3
AMLAYER_GROUPCOLORS
360
CC43
  0
DICTIONARY
  5
662B
330
1F
100
AcDbDictionary
280
     1
281
     1
  3
ACAD_SORTENTS
360
662C
  0
DICTIONARY
  5
C8C5
330
C8C4
100
AcDbDictionary
280
     1
281
     1
  3
ACAD_DIMASSOC
360
C8C6
  0
DICTIONARY
  5
73
102
{ACAD_REACTORS
330
C
102
}
330
C
100
AcDbDictionary
281
     1
  0
DICTIONARY
  5
D
102
{ACAD_REACTORS
330
C
102
}
330
C
100
AcDbDictionary
281
     1
  3
G
350
7C94
  0
DICTIONARY
  5
89
102
{ACAD_REACTORS
330
C
102
}
330
C
100
AcDbDictionary
281
     1
  0
RASTERVARIABLES
  5
8A
102
{ACAD_REACTORS
330
C
102
}
330
C
100
AcDbRasterVariables
 90
        0
 70
     1
 71
     1
 72
     1
  0
DICTIONARY
  5
1A
102
{ACAD_REACTORS
330
C
102
}
330
C
100
AcDbDictionary
281
     1
  3
Layout1
350
59
  3
Layout2
350
5E
  3
Model
350
22
  0
DICTIONARY
  5
72
102
{ACAD_REACTORS
330
C
102
}
330
C
100
AcDbDictionary
281
     1
  0
DICTIONARY
  5
17
102
{ACAD_REACTORS
330
C
102
}
330
C
100
AcDbDictionary
281
     1
  3
Standard
350
18
  0
DICTIONARY
  5
19
102
{ACAD_REACTORS
330
C
102
}
330
C
100
AcDbDictionary
281
     1
  0
ACDBDICTIONARYWDFLT
  5
E
102
{ACAD_REACTORS
330
C
102
}
330
C
100
AcDbDictionary
281
     1
  3
Normal
350
F
100
AcDbDictionaryWithDefault
340
F
  0
DICTIONARY
  5
AFA6
102
{ACAD_REACTORS
330
C
102
}
330
C
100
AcDbDictionary
281
     1
  3
Standard
350
AFA7
  0
DICTIONARY
  5
D16D
102
{ACAD_REACTORS
330
C
102
}
330
C
100
AcDbDictionary
281
     1
  0
DICTIONARY
  5
66
102
{ACAD_REACTORS
330
C
102
}
330
C
100
AcDbDictionary
281
     1
  3
CTABLESTYLE
350
B05B
  3
DIMASSOC
350
67
  3
HIDETEXT
350
6B
  3
PROJECTNAME
350
E79
  0
DICTIONARY
  5
B006
102
{ACAD_REACTORS
330
C
102
}
330
C
100
AcDbDictionary
281
     1
  3
AcmStdDictionary
350
B011
  3
AMDTSECTSYM_ARROWCOLOR
350
B030
  0
DICTIONARY
  5
AFAC
102
{ACAD_REACTORS
330
C
102
}
330
C
100
AcDbDictionary
281
     1
  0
DICTIONARY
  5
B05C
102
{ACAD_REACTORS
330
C
102
}
330
C
100
AcDbDictionary
281
     1
  0
DICTIONARY
  5
CC43
102
{ACAD_REACTORS
330
CC42
102
}
330
CC42
100
AcDbDictionary
280
     1
281
     1
  0
SORTENTSTABLE
  5
662C
102
{ACAD_REACTORS
330
662B
102
}
330
662B
100
AcDbSortentsTable
330
1F
331
CE09
  5
CE0C
331
C8A3
  5
C8A6
331
C7FC
  5
C800
331
CBA5
  5
CBA8
331
CCA3
  5
CCA4
331
CE58
  5
CE58
331
C804
  5
C808
331
C94A
  5
C94D
331
CC6C
  5
CC6F
331
CC74
  5
CC78
331
CF58
  5
CF58
331
25B8
  5
273A
331
1201
  5
1227
331
CD
  5
D5
331
9E
  5
A0
331
C80C
  5
C810
331
C7CD
  5
C7D1
331
C8AB
  5
C8AE
331
C952
  5
C955
331
C8B3
  5
C8B6
331
C814
  5
C819
331
C7D5
  5
C7D9
331
C95A
  5
C95D
331
C716
  5
C71A
331
8B0C
  5
8D47
331
CC7C
  5
CC80
331
CD7A
  5
CD7A
331
CCEB
  5
CCF6
331
C8BB
  5
C8BE
331
C81C
  5
C820
331
C7DD
  5
C7E1
331
C962
  5
C965
331
CB86
  5
CB89
331
CC84
  5
CC88
331
CE21
  5
CE21
331
C824
  5
C899
331
C7E5
  5
C7E9
331
C8C3
  5
C947
331
CA98
  5
CB45
331
CC8C
  5
CC90
331
CB96
  5
CB99
331
CC94
  5
CD
331
A6
  5
AB
331
2738
  5
3FDF
331
AE
  5
B5
331
E5
  5
EB
331
8B2C
  5
8DC0
331
ED
  5
118
331
C7B6
  5
C7BB
331
645F
  5
66A3
331
68AE
  5
6BE8
331
C7ED
  5
C7F1
331
C7BE
  5
C7C2
331
68C6
  5
6BE9
331
25B1
  5
26E6
331
647F
  5
66D0
331
CD13
  5
CD14
331
CB9E
  5
CBA1
331
C89C
  5
C89F
331
C7F5
  5
C7F9
331
C97A
  5
CA53
331
CAEF
  5
CB46
331
C7C6
  5
C7CA
331
CC4D
  5
CC50
331
CE02
  5
CE02
331
CD4B
  5
CD4C
331
C8A4
  5
C8A7
331
C7FD
  5
C801
331
CBA6
  5
CBA9
331
CCA4
  5
CCA5
331
CE0A
  5
CE07
331
C805
  5
C809
331
C94B
  5
C94E
331
CC6D
  5
CC70
331
CC75
  5
CC7A
331
CF59
  5
CF59
331
C6
  5
CC
331
97
  5
98
331
6687
  5
66EB
331
1212
  5
25AC
331
668F
  5
675B
331
C80D
  5
C811
331
C7CE
  5
C7D2
331
C8AC
  5
C8AF
331
C953
  5
C956
331
965
  5
AD5
331
DE
  5
E5
331
66CF
  5
68C6
331
C8B4
  5
C8B7
331
C815
  5
C81A
331
C7D6
  5
C7DA
331
C95B
  5
C95E
331
C717
  5
C71B
331
CC7D
  5
CC81
331
C8BC
  5
C8BF
331
C81D
  5
C821
331
C7DE
  5
C7E2
331
CB87
  5
CB8A
331
CC36
  5
CC39
331
CC85
  5
CC89
331
C7E6
  5
C7EA
331
C8C4
  5
C948
331
CC8D
  5
CC92
331
CB97
  5
CB9A
331
CC46
  5
CC4E
331
CC95
  5
CC95
331
E6
  5
EC
331
2E41
  5
5C0A
331
C7B7
  5
C7BC
331
AD5
  5
101B
331
C7EE
  5
C7F2
331
C973
  5
C976
331
C7BF
  5
C7C3
331
CD14
  5
CD15
331
C89D
  5
C8A0
331
C7F6
  5
C7FA
331
C97B
  5
CA98
331
CB9F
  5
CBA2
331
C7C7
  5
C7CB
331
CC4E
  5
CC51
331
CE03
  5
CE05
331
CE4A
  5
CE4A
331
CD4C
  5
CD4D
331
C8A5
  5
C8A8
331
C7FE
  5
C802
331
CBA7
  5
CBAA
331
CCA5
  5
CCAD
331
CE0B
  5
CE04
331
C806
  5
C80A
331
C94C
  5
C94F
331
CC6E
  5
CC71
331
CD6C
  5
CD6C
331
CC76
  5
CC7B
331
CF5A
  5
CF5A
331
C7
  5
D1
331
98
  5
9B
331
269A
  5
2824
331
691F
  5
6E8F
331
C80E
  5
C812
331
66D0
  5
6914
331
C7CF
  5
C7D3
331
C8AD
  5
C8B0
331
C954
  5
C957
331
CCDD
  5
CCDE
331
CC7E
  5
CC82
331
C8B5
  5
C8B8
331
C718
  5
C775
331
C7D7
  5
C7DB
331
C95C
  5
C95F
331
CC37
  5
CC44
331
CC86
  5
CC8A
331
C8BD
  5
C8C0
331
C81E
  5
C822
331
C7DF
  5
C7E3
331
C964
  5
C967
331
CB88
  5
CB8B
331
CC8E
  5
CC93
331
C7E7
  5
C7EB
331
CB90
  5
CB93
331
CC96
  5
A4
331
A0
  5
A1
331
B8
  5
C6
331
6451
  5
668F
331
6E8F
  5
8B2C
331
C7B8
  5
C7BD
331
CB98
  5
CB9B
331
C7C0
  5
C7C4
331
C7EF
  5
C7F3
331
C974
  5
C977
331
CD15
  5
CD20
331
CC4F
  5
CC52
331
CE04
  5
CE08
331
CE4B
  5
CE4B
331
C89E
  5
C8A1
331
C7F7
  5
C7FB
331
CBA0
  5
CBA3
331
CD4D
  5
CD4E
331
CE0C
  5
CE0D
331
C7FF
  5
C803
331
C8A6
  5
C8A9
331
C98C
  5
CAEF
331
CBA8
  5
CBB9
331
CC6F
  5
CC73
331
CCAE
  5
CCBC
331
C807
  5
C80B
331
C94D
  5
C950
331
CD6D
  5
CD6D
331
CC77
  5
CC7C
331
120C
  5
2597
331
6BE8
  5
7112
331
962E
  5
9920
331
111D
  5
1201
331
D8
  5
E1
331
C7C8
  5
C7CC
331
C80F
  5
C813
331
644A
  5
6460
331
C7D0
  5
C7D4
331
C8AE
  5
C8B1
331
C955
  5
C958
331
CCDE
  5
CCE9
331
CC7F
  5
CC83
331
CB81
  5
CB84
331
C8B6
  5
C8B9
331
C817
  5
C81B
331
9696
  5
C45F
331
C719
  5
C7B2
331
C7D8
  5
C7DC
331
C95D
  5
C960
331
CA53
  5
CB44
331
CD85
  5
CD83
331
CC38
  5
CC4C
331
CC87
  5
CC8B
331
C8BE
  5
C8C1
331
C81F
  5
C826
331
C7E0
  5
C7E4
331
C965
  5
C968
331
CB89
  5
CB8C
331
CC8F
  5
CC94
331
C96D
  5
C974
331
CB91
  5
CB94
331
CC97
  5
CC72
331
A1
  5
A2
331
E0
  5
E6
331
E8
  5
ED
331
C7B1
  5
C7B5
331
25A4
  5
25B8
331
F0
  5
119
331
25AC
  5
269A
331
C7E8
  5
C7EC
331
CB99
  5
CB9C
331
C897
  5
C89A
331
C7C1
  5
C7C5
331
8D47
  5
962E
331
C7F0
  5
C7F4
331
C975
  5
C978
331
CE05
  5
CE0B
331
CC50
  5
CC53
331
CE4C
  5
CE4C
331
C89F
  5
C8A2
331
C7F8
  5
C7FC
331
CBA1
  5
CBA4
331
CD4E
  5
CD4F
331
CE0D
  5
CE0A
331
C800
  5
C804
331
CBA9
  5
CC12
331
CC70
  5
CC74
331
C94E
  5
C951
331
D1
  5
D9
331
C808
  5
C80C
331
6BE9
  5
82FB
331
960
  5
9FC
331
D9
  5
E4
331
C7C9
  5
C7CD
331
C8AF
  5
C8B2
331
C810
  5
C814
331
644B
  5
6480
331
C7D1
  5
C7D5
331
C956
  5
C959
331
CC80
  5
CC84
331
C8B7
  5
C8BA
331
C818
  5
C81C
331
C7D9
  5
C7DD
331
C95E
  5
C961
331
CB82
  5
CB85
331
CC39
  5
CC4D
331
CC88
  5
CC8C
331
C8BF
  5
C8C2
331
C820
  5
C897
331
C7E1
  5
C7E5
331
CB8A
  5
CB8D
331
CCF7
  5
CCF8
331
CC90
  5
CC96
331
C8C7
  5
C949
331
C96E
  5
C975
331
CB92
  5
CB95
331
A2
  5
A3
331
AA
  5
AE
331
E1
  5
E8
331
BA
  5
C7
331
A00
  5
DCA
331
101F
  5
104C
331
C7B2
  5
C7B6
331
F1
  5
11A
331
C7BA
  5
C7BE
331
104F
  5
10D5
331
C7E9
  5
C7ED
331
CC98
  5
CC91
331
CB9A
  5
CB9D
331
C898
  5
C89B
331
C7C2
  5
C7C6
331
C7F1
  5
C7F5
331
C976
  5
C979
331
CE06
  5
CE06
331
CC51
  5
CC6A
331
CE4D
  5
CE4D
331
C8A0
  5
C8A3
331
C7F9
  5
C7FD
331
CBA2
  5
CBA5
331
CD4F
  5
CD50
331
C801
  5
C805
331
CBAA
  5
CC13
331
CC71
  5
CC75
331
CF55
  5
CF55
331
C94F
  5
C952
331
C2
  5
C9
331
149
  5
965
331
8DC0
  5
9679
331
10CF
  5
11E2
331
CA
  5
D3
331
D58
  5
1020
331
9B
  5
9D
331
C809
  5
C80D
331
C7CA
  5
C7CE
331
C8A8
  5
C8AB
331
CC79
  5
CC7D
331
CC12
  5
CC36
331
C8B0
  5
C8B3
331
C811
  5
C815
331
6E4A
  5
8B0C
331
C7D2
  5
C7D6
331
C957
  5
C95A
331
CC81
  5
CC85
331
D0A4
  5
D0A4
331
C8B8
  5
C8BB
331
C819
  5
C81D
331
C71B
  5
C7B4
331
C7DA
  5
C7DE
331
C95F
  5
C962
331
CB83
  5
CB86
331
CC89
  5
CC8D
331
C821
  5
C898
331
C7E2
  5
C7E6
331
C8C0
  5
C8C3
331
C967
  5
C96A
331
CB8B
  5
CB8E
331
CC91
  5
CC97
331
CCF8
  5
CCF9
331
CB93
  5
CB96
331
A3
  5
A5
331
AB
  5
B0
331
1018
  5
1021
331
66EB
  5
691F
331
1020
  5
1050
331
EA
  5
F0
331
C7B3
  5
C7B7
331
9920
  5
C461
331
1048
  5
10D1
331
C7BB
  5
C7BF
331
1060
  5
1153
331
11FF
  5
1212
331
C7EA
  5
C7EE
331
CC99
  5
CC9A
331
CB9B
  5
CB9E
331
C899
  5
C89C
331
C7C3
  5
C7C7
331
C7F2
  5
C7F6
331
C977
  5
C97A
331
CE07
  5
CE03
331
CC52
  5
CC6C
331
C8A1
  5
C8A4
331
C7FA
  5
C7FE
331
CBA3
  5
CBA6
331
CD50
  5
CD51
331
C802
  5
C806
331
C948
  5
C94B
331
CC72
  5
CC76
331
CF56
  5
CF56
331
152
  5
9FB
331
3FCD
  5
644B
331
8DC1
  5
9696
331
D3
  5
DA
331
C80A
  5
C80E
331
C7CB
  5
C7CF
331
C8A9
  5
C8AC
331
C950
  5
C953
331
4CB5
  5
645F
331
962
  5
A01
331
9679
  5
B0D3
331
CC7A
  5
CC7E
331
CC13
  5
CC37
331
CD78
  5
CD78
331
C8B1
  5
C8B4
331
C812
  5
C817
331
258F
  5
25AE
331
C7D3
  5
C7D7
331
CC82
  5
CC86
331
C8B9
  5
C8BC
331
C81A
  5
C81E
331
C7DB
  5
C7DF
331
C960
  5
C963
331
CB84
  5
CB87
331
CC8A
  5
CC8E
331
CD98
  5
CD97
331
CB8C
  5
CB8F
331
C7E3
  5
C7E7
331
C8C1
  5
C8C4
331
C968
  5
C96C
331
CC92
  5
CC99
331
CCF9
  5
CCFA
331
CB94
  5
CB97
331
A4
  5
AA
331
11E0
  5
1204
331
1021
  5
1062
331
EB
  5
F1
331
2597
  5
25B6
331
9819
  5
C460
331
C7B4
  5
C7B8
331
8D3A
  5
8DC1
331
C7EB
  5
C7EF
331
C7BC
  5
C7C0
331
CD11
  5
CD12
331
CC9A
  5
CCA2
331
C89A
  5
C89D
331
C7F3
  5
C7F7
331
C978
  5
C97B
331
CB9C
  5
CB9F
331
25B7
  5
2738
331
C7C4
  5
C7C8
331
CC53
  5
CC6D
331
CE08
  5
CE09
331
C8A2
  5
C8A5
331
C7FB
  5
C7FF
331
CBA4
  5
CBA7
331
CD51
  5
A8
331
C803
  5
C807
331
C949
  5
C94C
331
CC73
  5
CC77
331
CF57
  5
CF57
331
CC
  5
D4
331
10D1
  5
11F5
331
6914
  5
6E4A
331
9D
  5
9E
331
82FB
  5
8D3A
331
C80B
  5
C80F
331
C7CC
  5
C7D0
331
C8AA
  5
C8AD
331
C951
  5
C954
331
CC7B
  5
CC7F
331
CC14
  5
CC38
331
CD79
  5
CD79
331
C8B2
  5
C8B5
331
C813
  5
C818
331
2737
  5
2E6D
331
C7D4
  5
C7D8
331
C959
  5
C95C
331
CCEA
  5
CCEB
331
CC83
  5
CC87
331
CE20
  5
CE20
331
CFBF
  5
CFBF
331
C8BA
  5
C8BD
331
C81B
  5
C81F
331
C7DC
  5
C7E0
331
C961
  5
C964
331
CB85
  5
CB88
331
CC8B
  5
CC8F
331
C7E4
  5
C7E8
331
C8C2
  5
C8C7
331
CB8D
  5
CB90
331
CDA1
  5
CDA0
331
CB95
  5
CB98
331
9FB
  5
B1F
331
E4
  5
EA
331
101A
  5
1022
331
AD
  5
B1
331
EC
  5
F8
331
11F1
  5
120D
331
C7B5
  5
C7BA
331
C7EC
  5
C7F0
331
C7BD
  5
C7C1
331
CD12
  5
CD13
331
C89B
  5
C89E
331
C7F4
  5
C7F8
331
C979
  5
C98C
331
CB9D
  5
CBA0
331
C7C5
  5
C7C9
331
CC4C
  5
CC4F
  0
DIMASSOC
  5
C8C6
102
{ACAD_REACTORS
330
C8C5
102
}
330
C8C5
100
AcDbDimAssoc
330
C8C4
 90
        3
 70
     0
 71
     0
  1
AcDbOsnapPointRef
 72
     1
331
C8BD
 73
     2
 91
        0
 40
1.0
 10
0.0
 20
0.0
 30
2.000000000000000E+50
 75
     0
  1
AcDbOsnapPointRef
 72
    13
331
C8B2
 73
     2
 91
        0
 40
0.0
 10
0.0
 20
0.0
 30
2.000000000000000E+50
 75
     0
  0
GROUP
  5
7C94
102
{ACAD_REACTORS
330
D
102
}
330
D
100
AcDbGroup
300

 70
     0
 71
     1
  0
LAYOUT
  5
59
102
{ACAD_XDICTIONARY
360
D170
102
}
102
{ACAD_REACTORS
330
1A
102
}
330
1A
100
AcDbPlotSettings
  1

  2
None
  4

  6

 40
0.0
 41
0.0
 42
0.0
 43
0.0
 44
0.0
 45
0.0
 46
0.0
 47
0.0
 48
0.0
 49
0.0
140
0.0
141
0.0
142
1.0
143
1.0
 70
   688
 72
     0
 73
     0
 74
     5
  7
monochrome.ctb
 75
    16
147
1.0
148
0.0
149
0.0
100
AcDbLayout
  1
Layout1
 70
     1
 71
     1
 10
0.0
 20
0.0
 11
12.0
 21
9.0
 12
0.0
 22
0.0
 32
0.0
 14
0.0
 24
0.0
 34
0.0
 15
0.0
 25
0.0
 35
0.0
146
0.0
 13
0.0
 23
0.0
 33
0.0
 16
1.0
 26
0.0
 36
0.0
 17
0.0
 27
1.0
 37
0.0
 76
     0
330
58
  0
LAYOUT
  5
5E
102
{ACAD_XDICTIONARY
360
D172
102
}
102
{ACAD_REACTORS
330
1A
102
}
330
1A
100
AcDbPlotSettings
  1

  2
None
  4

  6

 40
0.0
 41
0.0
 42
0.0
 43
0.0
 44
0.0
 45
0.0
 46
0.0
 47
0.0
 48
0.0
 49
0.0
140
0.0
141
0.0
142
1.0
143
1.0
 70
   688
 72
     0
 73
     0
 74
     5
  7
monochrome.ctb
 75
    16
147
1.0
148
0.0
149
0.0
100
AcDbLayout
  1
Layout2
 70
     1
 71
     2
 10
0.0
 20
0.0
 11
12.0
 21
9.0
 12
0.0
 22
0.0
 32
0.0
 14
0.0
 24
0.0
 34
0.0
 15
0.0
 25
0.0
 35
0.0
146
0.0
 13
0.0
 23
0.0
 33
0.0
 16
1.0
 26
0.0
 36
0.0
 17
0.0
 27
1.0
 37
0.0
 76
     0
330
5D
  0
LAYOUT
  5
22
102
{ACAD_XDICTIONARY
360
D16E
102
}
102
{ACAD_REACTORS
330
1A
102
}
330
1A
100
AcDbPlotSettings
  1

  2
none_device
  4
ANSI_A_(8.50_x_11.00_Inches)
  6

 40
6.349999904632568
 41
19.04999923706055
 42
6.350006103515625
 43
19.04998779296875
 44
215.8999938964844
 45
279.3999938964844
 46
0.0
 47
0.0
 48
0.0
 49
0.0
140
0.0
141
0.0
142
1.0
143
2.584895464708373
 70
 11952
 72
     0
 73
     1
 74
     0
  7
monochrome.ctb
 75
     0
147
0.3868628397755418
148
0.0
149
0.0
100
AcDbLayout
  1
Model
 70
     1
 71
     0
 10
0.0
 20
0.0
 11
12.0
 21
9.0
 12
0.0
 22
0.0
 32
0.0
 14
0.0
 24
0.0
 34
0.0
 15
0.0
 25
0.0
 35
0.0
146
0.0
 13
0.0
 23
0.0
 33
0.0
 16
1.0
 26
0.0
 36
0.0
 17
0.0
 27
1.0
 37
0.0
 76
     0
330
1F
  0
MLINESTYLE
  5
18
102
{ACAD_REACTORS
330
17
102
}
330
17
100
AcDbMlineStyle
  2
STANDARD
 70
     0
  3

 62
   256
 51
90.0
 52
90.0
 71
     2
 49
0.5
 62
   256
  6
BYLAYER
 49
-0.5
 62
   256
  6
BYLAYER
  0
ACDBPLACEHOLDER
  5
F
102
{ACAD_REACTORS
330
E
102
}
330
E
  0
TABLESTYLE
  5
AFA7
102
{ACAD_REACTORS
330
AFA6
102
}
330
AFA6
100
AcDbTableStyle
  3
Standard
 70
     0
 71
     0
 40
0.06
 41
0.06
280
     0
281
     0
  7
Standard
140
0.18
170
     2
 62
     0
 63
     7
283
     0
274
    -2
284
     1
 64
     0
275
    -2
285
     1
 65
     0
276
    -2
286
     1
 66
     0
277
    -2
287
     1
 67
     0
278
    -2
288
     1
 68
     0
279
    -2
289
     1
 69
     0
  7
Standard
140
0.25
170
     5
 62
     0
 63
     7
283
     0
274
    -2
284
     1
 64
     0
275
    -2
285
     1
 65
     0
276
    -2
286
     1
 66
     0
277
    -2
287
     1
 67
     0
278
    -2
288
     1
 68
     0
279
    -2
289
     1
 69
     0
  7
Standard
140
0.18
170
     5
 62
     0
 63
     7
283
     0
274
    -2
284
     1
 64
     0
275
    -2
285
     1
 65
     0
276
    -2
286
     1
 66
     0
277
    -2
287
     1
 67
     0
278
    -2
288
     1
 68
     0
279
    -2
289
     1
 69
     0
  0
DICTIONARYVAR
  5
B05B
102
{ACAD_REACTORS
330
66
102
}
330
66
100
DictionaryVariables
280
     0
  1
STANDARD
  0
DICTIONARYVAR
  5
67
102
{ACAD_REACTORS
330
66
102
}
330
66
100
DictionaryVariables
280
     0
  1
1
  0
DICTIONARYVAR
  5
6B
102
{ACAD_REACTORS
330
66
102
}
330
66
100
DictionaryVariables
280
     0
  1
1
  0
DICTIONARYVAR
  5
E79
102
{ACAD_REACTORS
330
66
102
}
330
66
100
DictionaryVariables
280
     0
  1

  0
DICTIONARY
  5
B011
102
{ACAD_REACTORS
330
B006
102
}
330
B006
100
AcDbDictionary
281
     1
  0
XRECORD
  5
B030
102
{ACAD_REACTORS
330
B006
102
}
330
B006
100
AcDbXrecord
280
     1
 90
-1023410169
  0
DICTIONARY
  5
D170
330
59
100
AcDbDictionary
280
     1
281
     1
  3
ACAD_XREC_ROUNDTRIP
360
D171
  0
DICTIONARY
  5
D172
330
5E
100
AcDbDictionary
280
     1
281
     1
  3
ACAD_XREC_ROUNDTRIP
360
D173
  0
DICTIONARY
  5
D16E
330
22
100
AcDbDictionary
280
     1
281
     1
  3
ACAD_XREC_ROUNDTRIP
360
D16F
  0
XRECORD
  5
D171
102
{ACAD_REACTORS
330
D170
102
}
330
D170
100
AcDbXrecord
280
     1
102
SHADEPLOT
 70
     0
102
SHADEPLOTRESLEVEL
 70
     2
102
SHADEPLOTCUSTOMDPI
 70
   300
  0
XRECORD
  5
D173
102
{ACAD_REACTORS
330
D172
102
}
330
D172
100
AcDbXrecord
280
     1
102
SHADEPLOT
 70
     0
102
SHADEPLOTRESLEVEL
 70
     2
102
SHADEPLOTCUSTOMDPI
 70
   300
  0
XRECORD
  5
D16F
102
{ACAD_REACTORS
330
D16E
102
}
330
D16E
100
AcDbXrecord
280
     1
102
SHADEPLOT
 70
     0
102
SHADEPLOTRESLEVEL
 70
     2
102
SHADEPLOTCUSTOMDPI
 70
   300
  0
ENDSEC
  0
EOF
